osu file format v12

[General]
AudioFilename: OP.mp3
AudioLeadIn: 1500
PreviewTime: 61877
Countdown: 0
SampleSet: Soft
StackLeniency: 0.5
Mode: 0
LetterboxInBreaks: 0
WidescreenStoryboard: 0

[Editor]
DistanceSpacing: 0.6
BeatDivisor: 4
GridSize: 4
TimelineZoom: 1

[Metadata]
Title:Tomadoi Recipe (TV Size)
TitleUnicode:とまどい→レシピ (TV Size)
Artist:Mikakuning!
ArtistUnicode:みかくにんぐッ!
Creator:Fycho
Version:Insane
Source:未確認で進行形
Tags:opening mikakunin de shinkoukei Junky Terui Haruka Matsui Eriko Yoshida Yuuri xchippy 照井春佳 松井恵理子 吉田有里
BeatmapID:374841
BeatmapSetID:152249

[Difficulty]
HPDrainRate:7
CircleSize:4
OverallDifficulty:7
ApproachRate:9
SliderMultiplier:1.76
SliderTickRate:1

[Events]
//Background and Video events
0,0,"bg.jpg",0,0
Video,0,"OP.flv"
//Break Periods
//Storyboard Layer 0 (Background)
//Storyboard Layer 1 (Fail)
//Storyboard Layer 2 (Pass)
//Storyboard Layer 3 (Foreground)
//Storyboard Sound Samples
//Background Colour Transformations
3,100,163,162,255

[TimingPoints]
995,352.941176470588,4,2,3,40,1,0
11583,-100,4,2,3,60,0,0
12289,-100,4,2,1,70,0,0
16524,-100,4,2,1,60,0,0
16612,-100,4,2,1,70,0,0
17230,-100,4,2,1,60,0,0
17318,-100,4,2,1,70,0,0
20759,-100,4,2,1,50,0,0
22877,-66.6666666666667,4,2,1,60,0,0
23583,-125,4,2,1,50,0,0
28524,-100,4,2,1,80,0,0
31700,-100,4,2,1,60,0,0
31789,-100,4,2,1,80,0,0
33289,-100,4,2,1,50,0,0
34524,-100,4,2,1,80,0,0
34877,-100,4,2,1,70,0,0
37524,-100,4,2,1,60,0,0
37612,-100,4,2,1,70,0,0
39994,-100,4,2,1,50,0,0
40171,-100,4,2,1,70,0,0
44583,-100,4,2,1,50,0,0
44671,-100,4,2,1,60,0,0
45818,-125,4,2,1,60,0,0
46171,-133.333333333333,4,2,1,60,0,0
57465,-100,4,2,1,80,0,0
63112,-100,4,2,1,90,0,1
73524,-100,4,2,1,60,0,1
74053,-100,4,2,1,80,0,0
74230,-100,4,2,1,70,0,0
74406,-100,4,2,1,90,0,1
81994,-100,4,2,1,70,0,1
82259,-100,4,2,1,90,0,1
85700,-100,4,2,1,80,0,0

[Colours]
Combo1 : 255,255,121
Combo2 : 15,255,159
Combo3 : 254,135,198
Combo4 : 29,163,197

[HitObjects]
109,90,994,6,0,P|184:126|190:221,1,176,4|2,0:0|0:0,0:0:0:0:
363,327,1700,2,0,P|364:283|376:240,1,88
442,169,2053,1,2,0:0:0:0:
336,60,2230,6,0,L|353:147,1,88
277,252,2583,2,0,L|260:165,1,88,0|2,0:0|0:0,0:0:0:0:
171,205,2936,1,0,0:0:0:0:
105,259,3112,2,0,L|-5:284,1,88
23,151,3465,2,0,L|108:131,1,88,2|0,0:0|0:0,0:0:0:0:
238,163,3818,6,0,P|297:220|288:311,2,176,4|2|0,0:0|0:0|0:0,0:0:0:0:
116,241,4700,1,0,0:0:0:0:
201,259,4877,1,2,0:0:0:0:
162,158,5053,6,0,P|146:100|129:72,1,88
116,241,5406,2,0,P|96:307|96:340,1,88,0|2,0:0|0:0,0:0:0:0:
196,361,5759,1,0,0:0:0:0:
287,318,5936,1,0,0:0:0:0:
287,318,6112,1,0,0:0:0:0:
386,340,6289,1,2,0:0:0:0:
386,340,6465,1,0,0:0:0:0:
468,279,6642,6,0,P|451:188|436:98,1,176,4|2,0:0|0:0,0:0:0:0:
443,100,7347,1,0,0:0:0:0:
362,137,7524,2,0,P|302:116|269:102,1,88,0|2,0:0|0:0,0:0:0:0:
204,147,7877,6,0,P|123:179|39:142,2,176,0|2|0,0:0|0:0|0:0,0:0:0:0:
232,245,8759,2,0,L|228:338,1,88
108,297,9112,2,0,L|111:209,1,88,2|0,0:0|0:0,0:0:0:0:
230,136,9465,6,0,L|317:124,1,88,4|0,0:0|0:0,0:0:0:0:
402,199,9818,2,0,L|314:210,1,88,2|0,0:0|0:0,0:0:0:0:
221,246,10171,1,0,0:0:0:0:
221,246,10347,1,0,0:0:0:0:
221,246,10700,6,0,B|90:253|90:253|50:278,2,176,2|2|2,0:0|0:0|0:0,0:0:0:0:
360,200,11583,1,2,0:0:0:0:
360,200,11759,1,0,0:0:0:0:
310,83,11936,1,2,0:0:0:0:
310,83,12112,1,0,0:0:0:0:
177,127,12289,6,0,L|90:110,1,88,4|0,0:0|0:0,0:0:0:0:
19,187,12642,1,8,0:1:0:0:
37,281,12818,1,0,0:0:0:0:
138,320,12994,2,0,P|145:277|136:235,1,88,2|0,0:0|0:0,0:0:0:0:
177,126,13347,1,8,0:1:0:0:
244,221,13524,6,0,B|314:248|359:195|359:195|382:213|392:240,1,176,2|0,0:0|0:0,0:0:0:0:
326,317,14053,1,8,0:1:0:0:
286,149,14230,1,8,0:0:0:0:
286,149,14318,1,8,0:0:0:0:
286,149,14406,2,0,L|272:56,1,88,8|0,0:0|0:0,0:0:0:0:
158,169,14759,2,0,L|152:256,1,88,8|0,0:1|0:0,0:0:0:0:
59,180,15112,5,2,0:0:0:0:
34,284,15289,1,0,0:0:0:0:
127,351,15465,2,0,L|175:352|219:353,2,88,8|0|2,0:1|0:0|0:0,0:0:0:0:
34,284,15994,2,0,P|33:233|41:190,1,88,0|8,0:0|0:1,0:0:0:0:
104,90,16347,1,2,0:0:0:0:
141,206,16524,5,12,0:0:0:0:
20,99,16700,1,8,0:1:0:0:
181,26,16877,1,8,0:0:0:0:
108,220,17053,5,8,0:0:0:0:
108,220,17142,1,8,0:0:0:0:
108,220,17230,1,12,0:0:0:0:
211,106,17406,1,8,0:1:0:0:
180,280,17583,1,8,0:0:0:0:
136,93,17759,1,8,0:0:0:0:
285,260,17936,6,0,P|324:254|354:164,1,132,4|0,0:0|0:0,0:0:0:0:
365,125,18289,2,0,P|315:128|272:129,1,88,8|0,0:1|0:0,0:0:0:0:
127,119,18642,1,2,0:0:0:0:
213,222,18818,1,0,0:0:0:0:
127,119,18994,1,8,0:1:0:0:
79,266,19171,2,0,P|79:319|77:355,1,88,2|0,0:0|0:0,0:0:0:0:
213,222,19524,5,0,0:0:0:0:
81,268,19700,1,8,0:1:0:0:
213,222,19877,1,0,0:0:0:0:
324,312,20053,2,0,P|418:344|447:334,1,132,8|8,0:1|0:0,0:0:0:0:
477,311,20406,2,0,P|481:257|481:216,1,88,8|8,0:1|0:0,0:0:0:0:
431,38,20759,5,12,0:0:0:0:
371,201,20936,1,8,0:0:0:0:
512,127,21112,1,8,0:1:0:0:
348,81,21289,1,8,0:1:0:0:
313,75,21377,1,8,0:0:0:0:
277,65,21465,1,8,0:0:0:0:
230,179,21642,1,8,0:0:0:0:
425,138,21818,1,8,0:1:0:0:
373,11,21994,1,8,0:0:0:0:
162,109,22171,5,8,0:0:0:0:
306,181,22347,1,8,0:0:0:0:
253,40,22524,1,8,0:1:0:0:
181,199,22700,1,8,0:0:0:0:
338,152,22877,6,0,B|412:134|412:134|440:191,1,132.000005035401,8|2,0:1|0:0,0:0:0:0:
371,126,23583,6,0,L|454:104,1,70.4,4|0,0:0|0:0,0:0:0:0:
322,51,23936,2,0,L|249:39,1,70.4
151,99,24289,2,0,P|81:70|62:9,1,140.8,0|8,0:0|0:0,0:0:0:0:
59,101,24818,2,0,P|37:169|9:240,1,140.8
86,330,25347,2,0,L|86:256,1,70.4,8|0,0:0|0:0,0:0:0:0:
172,211,25700,2,0,L|172:281,1,70.4
256,320,26053,2,0,L|256:249,1,70.4,8|0,0:0|0:0,0:0:0:0:
419,255,26406,6,0,L|349:243,1,70.4,0|2,0:0|0:0,0:0:0:0:
311,171,26759,1,8,0:0:0:0:
165,149,26936,2,0,P|205:94|273:93,1,140.8
311,172,27465,2,0,P|245:163|236:163,1,70.4,8|0,0:0|0:0,0:0:0:0:
381,119,27818,5,0,0:0:0:0:
318,320,28171,1,8,0:0:0:0:
38,215,28524,5,8,1:0:0:0:
162,203,28700,1,0,0:0:0:0:
116,316,28877,1,8,1:0:0:0:
88,99,29053,6,0,P|176:62|243:114,1,176,4|0,0:0|0:0,0:0:0:0:
243,243,29583,2,0,L|227:336,1,88,8|0,0:1|0:0,0:0:0:0:
390,245,29936,2,0,L|374:152,1,88,8|0,0:0|0:0,0:0:0:0:
316,57,30289,1,8,0:1:0:0:
220,121,30465,1,0,0:0:0:0:
108,57,30642,6,0,P|42:59|11:61,1,88,8|0,0:0|0:0,0:0:0:0:
114,213,30994,2,0,P|157:210|201:209,1,88,8|0,0:1|0:0,0:0:0:0:
365,131,31347,2,0,P|321:131|277:134,1,88,8|0,0:0|0:0,0:0:0:0:
375,259,31700,2,0,P|418:256|462:255,1,88,12|0,0:0|0:0,0:0:0:0:
201,195,32053,5,8,0:0:0:0:
290,259,32230,2,0,P|291:302|290:360,1,88,0|8,0:0|0:1,0:0:0:0:
201,195,32583,1,0,0:0:0:0:
379,185,32759,2,0,P|380:228|379:272,1,88,8|0,0:0|0:0,0:0:0:0:
201,195,33112,1,8,0:1:0:0:
432,83,33289,1,12,0:0:0:0:
421,91,33642,5,2,0:0:0:0:
351,143,33818,1,2,0:0:0:0:
288,88,33994,1,2,0:0:0:0:
314,9,34171,1,2,0:0:0:0:
397,14,34347,1,2,0:0:0:0:
226,8,34524,5,8,0:0:0:0:
267,211,34877,5,12,0:0:0:0:
180,261,35053,1,0,0:0:0:0:
92,229,35230,2,0,P|83:186|81:140,1,88,8|0,0:1|0:0,0:0:0:0:
170,170,35583,1,8,0:0:0:0:
0,192,35759,1,0,0:0:0:0:
170,170,35936,1,8,0:1:0:0:
0,192,36112,6,0,P|8:238|5:282,1,88,0|8,0:0|0:0,0:0:0:0:
81,355,36465,1,0,0:0:0:0:
165,290,36642,2,0,P|231:282|273:285,1,88,8|0,0:1|0:0,0:0:0:0:
392,322,36994,1,8,0:1:0:0:
392,322,37083,1,8,0:1:0:0:
392,322,37171,1,8,0:0:0:0:
443,195,37347,2,0,P|430:153|417:110,1,88,8|4,0:1|0:0,0:0:0:0:
402,6,37700,5,8,0:0:0:0:
512,86,37877,1,0,0:0:0:0:
343,200,38053,2,0,P|326:149|306:100,1,88,8|0,0:1|0:0,0:0:0:0:
421,122,38406,1,8,0:0:0:0:
418,261,38583,2,0,P|406:317|394:353,1,88,4|8,0:0|0:1,0:0:0:0:
244,337,38936,1,12,0:0:0:0:
244,337,39024,1,0,0:0:0:0:
244,337,39112,6,0,P|194:328|148:320,1,88,0|8,0:0|0:1,0:0:0:0:
36,293,39465,1,0,0:0:0:0:
13,175,39642,2,0,P|56:183|99:189,1,88,12|8,0:0|0:0,0:0:0:0:
238,236,39994,1,12,0:0:0:0:
238,236,40083,1,8,0:0:0:0:
238,236,40171,1,8,1:0:0:0:
389,152,40347,6,0,P|345:145|217:119,1,176,12|0,0:0|0:0,0:0:0:0:
63,100,40877,2,0,P|74:45|80:0,1,88,8|0,0:1|0:0,0:0:0:0:
195,88,41230,1,8,0:0:0:0:
142,202,41406,1,8,0:0:0:0:
142,202,41494,1,8,0:0:0:0:
142,202,41583,1,8,0:1:0:0:
63,101,41759,1,0,0:0:0:0:
218,168,41936,5,8,0:0:0:0:
60,184,42112,1,8,0:0:0:0:
150,305,42289,1,8,0:0:0:0:
133,47,42465,1,4,0:0:0:0:
133,47,42818,2,0,P|183:49|236:48,1,88,12|0,0:0|0:0,0:0:0:0:
379,59,43171,1,8,0:0:0:0:
379,59,43259,1,8,0:0:0:0:
379,59,43347,6,0,P|381:127|381:167,1,88,12|0,0:0|0:0,0:0:0:0:
221,255,43700,2,0,P|219:187|219:147,1,88,8|0,0:1|0:0,0:0:0:0:
382,257,44053,1,8,0:0:0:0:
278,340,44230,1,0,0:0:0:0:
278,340,44318,1,8,0:0:0:0:
278,340,44406,1,8,0:1:0:0:
382,257,44583,1,12,0:0:0:0:
279,108,44759,5,8,0:0:0:0:
297,195,44936,1,8,0:1:0:0:
348,59,45112,1,0,0:0:0:0:
267,13,45289,1,8,1:1:0:0:
367,151,45465,1,8,0:0:0:0:
437,97,45642,1,8,0:1:0:0:
279,108,45818,6,0,L|203:99,1,70.4,8|0,0:1|0:0,0:0:0:0:
132,53,46171,6,0,P|98:110|122:185,1,132.000005035401,4|0,0:0|0:0,0:0:0:0:
165,245,46700,1,0,0:0:0:0:
254,211,46877,2,0,P|298:201|335:198,1,66.0000025177003,2|0,0:0|0:0,0:0:0:0:
407,206,47230,1,0,0:0:0:0:
360,126,47406,1,0,0:0:0:0:
269,128,47583,6,0,L|277:62,1,66.0000025177003,2|0,0:0|0:0,0:0:0:0:
347,26,47936,2,0,L|412:29,1,66.0000025177003
353,190,48289,2,0,L|361:124,1,66.0000025177003,2|0,0:0|0:0,0:0:0:0:
208,68,48642,1,0,0:0:0:0:
270,129,48818,1,0,0:0:0:0:
150,139,48994,6,0,P|143:211|140:292,1,132.000005035401,10|0,0:0|0:0,0:0:0:0:
214,330,49524,1,0,0:0:0:0:
301,234,49700,1,2,0:0:0:0:
205,234,49877,1,0,0:0:0:0:
211,361,50053,1,0,0:0:0:0:
105,307,50230,1,0,0:0:0:0:
205,233,50406,6,0,L|207:306,1,66.0000025177003,2|0,0:0|0:0,0:0:0:0:
102,347,50759,2,0,L|36:293,1,66.0000025177003
62,188,51112,2,0,L|70:153,2,33.0000012588501,8|8|8,1:0|0:1|0:0,0:0:0:0:
0,241,51465,1,0,0:0:0:0:
109,253,51642,1,0,0:0:0:0:
139,127,51818,6,0,B|153:90|151:65|151:65|190:73|227:57,1,132.000005035401,4|0,0:0|0:0,0:0:0:0:
362,20,52347,2,0,L|354:93,1,66.0000025177003,0|2,0:0|0:0,0:0:0:0:
319,191,52700,1,0,0:0:0:0:
264,116,52877,1,0,0:0:0:0:
413,162,53053,6,0,P|449:156|481:150,2,66.0000025177003,0|2|0,0:0|0:0|0:0,0:0:0:0:
351,86,53583,2,0,L|363:19,1,66.0000025177003,0|8,0:0|0:1,0:0:0:0:
265,116,53936,2,0,L|276:48,1,66.0000025177003,10|0,0:0|0:0,0:0:0:0:
327,168,54289,1,8,0:0:0:0:
207,186,54465,1,8,0:0:0:0:
168,289,54642,6,0,P|230:293|278:344,2,132.000005035401,8|0|8,0:0|0:0|0:0,0:0:0:0:
87,327,55524,1,0,0:0:0:0:
43,246,55700,2,0,L|42:175,1,66.0000025177003,2|8,0:0|0:0,0:0:0:0:
121,118,56053,5,8,0:0:0:0:
31,63,56230,1,0,0:0:0:0:
121,118,56406,2,0,L|207:100,1,66.0000025177003,4|0,0:0|0:0,0:0:0:0:
278,174,56759,1,8,0:0:0:0:
235,271,56936,1,8,0:0:0:0:
370,122,57112,1,12,0:0:0:0:
408,219,57289,1,8,0:0:0:0:
325,18,57465,5,4,0:0:0:0:
325,18,57818,2,0,L|227:27,1,88,8|0,0:0|0:0,0:0:0:0:
170,150,58171,2,0,P|172:193|172:246,1,88,0|0,0:0|0:0,0:0:0:0:
281,226,58524,1,8,0:0:0:0:
274,341,58700,1,0,0:0:0:0:
82,259,58877,6,0,P|85:170|89:81,1,176,0|8,0:0|0:0,0:0:0:0:
165,21,59406,1,0,0:0:0:0:
263,68,59583,1,8,0:0:0:0:
296,79,59671,1,0,0:0:0:0:
330,83,59759,1,0,0:0:0:0:
364,77,59847,1,0,0:0:0:0:
396,62,59936,1,8,0:0:0:0:
430,58,60024,1,0,0:0:0:0:
464,62,60112,1,0,0:0:0:0:
492,83,60200,1,0,0:0:0:0:
504,116,60289,6,0,P|506:166|506:209,1,88,4|2,0:0|0:0,0:0:0:0:
512,309,60642,1,8,0:0:0:0:
396,222,60818,1,0,0:0:0:0:
205,311,60994,2,0,P|282:332|334:288,1,132,2|0,0:0|0:0,0:0:0:0:
311,227,61347,2,0,L|304:177,1,44,8|0,0:0|0:0,0:0:0:0:
231,126,61524,2,0,L|227:170,1,44,8|0,0:0|0:0,0:0:0:0:
284,64,61700,5,12,0:0:0:0:
199,60,62759,2,0,B|186:146|186:146|205:190,1,132,8|0,0:1|0:0,0:0:0:0:
271,233,63112,6,0,P|342:229|387:188,1,132,4|0,0:0|0:0,0:0:0:0:
505,264,63465,2,0,L|418:281,1,88,8|0,1:0|0:0,0:0:0:0:
233,313,63818,1,0,0:0:0:0:
329,356,63994,1,2,0:0:0:0:
299,153,64171,1,8,1:0:0:0:
266,268,64347,1,2,0:0:0:0:
404,185,64524,6,0,P|394:101|375:10,1,176,0|8,0:0|1:0,0:0:0:0:
175,101,65053,1,0,0:0:0:0:
175,101,65142,1,8,0:0:0:0:
175,101,65230,2,0,P|227:92|265:77,1,88,8|0,0:0|0:0,0:0:0:0:
175,217,65583,2,0,P|174:263|171:304,1,88,8|0,1:0|0:0,0:0:0:0:
48,227,65936,6,0,P|49:124|52:86,1,132,2|0,0:0|0:0,0:0:0:0:
74,24,66289,2,0,P|155:14|175:11,1,88,8|0,1:0|0:0,0:0:0:0:
357,85,66642,1,0,0:0:0:0:
204,160,66818,1,8,0:0:0:0:
204,160,66906,1,8,0:0:0:0:
204,160,66994,1,8,1:0:0:0:
357,85,67171,1,8,0:0:0:0:
125,94,67347,5,4,0:0:0:0:
125,94,67700,1,8,1:0:0:0:
135,224,67877,2,0,P|129:311|117:360,1,132,8|0,0:0|0:0,0:0:0:0:
118,354,68230,1,0,0:0:0:0:
85,153,68406,1,8,1:0:0:0:
245,254,68583,1,0,0:0:0:0:
57,265,68759,6,0,P|58:220|57:174,1,88,4|0,0:0|0:0,0:0:0:0:
230,28,69112,2,0,P|229:73|230:119,1,88,8|0,1:0|0:0,0:0:0:0:
244,254,69465,1,0,0:0:0:0:
320,162,69642,1,2,0:0:0:0:
321,322,69818,1,8,1:0:0:0:
292,126,69994,1,2,0:0:0:0:
401,234,70171,6,0,P|458:237|515:185,1,132,0|0,0:0|0:0,0:0:0:0:
465,127,70524,2,0,L|439:35,1,88,8|0,1:0|0:0,0:0:0:0:
401,235,70877,2,0,L|398:332,1,88,0|2,0:0|0:0,0:0:0:0:
294,361,71230,1,8,1:0:0:0:
341,162,71406,1,8,0:0:0:0:
341,162,71494,1,0,0:0:0:0:
341,162,71583,6,0,P|336:118|323:68,1,88,2|0,0:0|0:0,0:0:0:0:
239,280,71936,2,0,P|280:298|329:312,1,88,8|0,1:0|0:0,0:0:0:0:
187,133,72289,2,0,P|151:159|115:195,1,88,2|0,0:0|0:0,0:0:0:0:
341,162,72642,1,8,1:0:0:0:
239,280,72818,1,8,0:0:0:0:
239,280,72906,1,8,0:0:0:0:
239,280,72994,6,0,B|156:309|156:309|113:299,1,132,0|8,0:0|0:0,0:0:0:0:
72,282,73347,1,8,1:0:0:0:
24,159,73524,1,8,0:0:0:0:
22,123,73612,1,8,0:0:0:0:
27,86,73700,1,8,0:0:0:0:
41,52,73789,1,8,0:0:0:0:
69,26,73877,1,8,0:0:0:0:
179,31,74053,1,8,1:0:0:0:
126,195,74230,1,8,0:0:0:0:
126,195,74318,1,8,0:0:0:0:
126,195,74406,6,0,P|140:236|151:279,1,88,4|0,0:0|0:0,0:0:0:0:
302,354,74759,2,0,P|343:332|390:313,1,88,8|0,1:0|0:0,0:0:0:0:
416,309,75024,1,0,0:0:0:0:
416,309,75112,1,0,0:0:0:0:
376,149,75289,1,2,0:0:0:0:
457,227,75465,1,8,1:0:0:0:
297,203,75642,1,2,0:0:0:0:
349,46,75818,6,0,P|423:47|487:42,1,132
512,33,76171,1,8,1:0:0:0:
376,150,76347,1,8,0:0:0:0:
376,150,76436,1,8,0:0:0:0:
375,150,76524,2,0,P|331:147|287:150,1,88,8|0,0:0|0:0,0:0:0:0:
158,214,76877,2,0,P|152:268|149:347,1,132,8|0,1:0|0:0,0:0:0:0:
66,292,77230,6,0,P|60:239|55:200,1,88,2|0,0:0|0:0,0:0:0:0:
48,55,77583,1,8,1:0:0:0:
146,120,77759,1,0,0:0:0:0:
146,120,77847,1,0,0:0:0:0:
146,120,77936,2,0,P|206:119|248:98,1,88,2|0,0:0|0:0,0:0:0:0:
58,79,78289,1,8,1:0:0:0:
36,255,78465,1,8,0:0:0:0:
31,291,78553,1,8,0:0:0:0:
24,330,78642,5,8,1:0:0:0:
177,267,78818,1,8,0:0:0:0:
85,94,78994,2,0,L|97:200,1,88,8|8,1:0|1:0,0:0:0:0:
105,215,79259,1,0,0:0:0:0:
105,215,79347,1,0,0:0:0:0:
255,187,79524,1,8,0:0:0:0:
294,320,79700,1,8,1:0:0:0:
171,151,79877,1,0,0:0:0:0:
171,151,79965,1,0,0:0:0:0:
171,151,80053,6,0,L|197:51,1,88,4|0,0:0|0:0,0:0:0:0:
370,210,80406,2,0,L|347:295,1,88,8|0,1:0|0:0,0:0:0:0:
171,151,80759,1,0,0:0:0:0:
370,210,80936,1,2,0:0:0:0:
141,258,81112,1,8,1:0:0:0:
296,123,81289,1,2,0:0:0:0:
211,345,81465,5,0,0:0:0:0:
296,123,81642,1,0,0:0:0:0:
94,216,81818,1,8,1:0:0:0:
271,270,81994,1,8,0:0:0:0:
303,282,82083,1,8,0:0:0:0:
339,293,82171,1,4,0:0:0:0:
337,184,82347,1,8,0:0:0:0:
287,369,82524,1,8,1:0:0:0:
450,288,82700,1,8,0:0:0:0:
450,288,82789,1,8,0:0:0:0:
450,288,82877,6,0,P|445:214|444:182,1,88,8|0,1:0|0:0,0:0:0:0:
314,130,83230,2,0,P|319:204|320:236,1,88,8|0,1:0|0:0,0:0:0:0:
191,148,83583,2,0,P|186:74|185:42,1,88,8|0,1:0|0:0,0:0:0:0:
140,262,83936,1,8,1:0:0:0:
53,94,84112,1,8,0:0:0:0:
53,94,84200,1,8,0:0:0:0:
53,94,84289,6,0,P|55:137|51:181,1,88,8|0,1:0|0:0,0:0:0:0:
112,296,84642,1,8,1:0:0:0:
207,208,84818,1,8,0:0:0:0:
207,208,84906,1,8,0:0:0:0:
207,208,84994,1,2,0:0:0:0:
278,309,85171,1,2,0:0:0:0:
207,208,85347,2,0,P|212:145|274:121,1,132,2|0,0:0|0:0,0:0:0:0:
316,100,85700,6,0,L|402:83,1,88,4|0,0:0|0:0,0:0:0:0:
196,231,86053,2,0,L|106:250,1,88,8|8,0:0|0:1,0:0:0:0:
316,231,86406,2,0,L|406:250,1,88,8|8,0:0|0:0,0:0:0:0:
196,100,86759,1,8,0:1:0:0:
196,100,86936,6,0,L|109:83,1,88,8|0,0:0|0:0,0:0:0:0:
164,252,87289,2,0,L|147:339,1,88,8|0,0:0|0:0,0:0:0:0:
147,339,87553,1,8,0:0:0:0:
147,339,87642,1,8,0:1:0:0:
316,284,87818,2,0,L|402:300,1,88,8|0,0:0|0:0,0:0:0:0:
348,132,88171,2,0,L|364:45,1,88,8|0,0:0|0:0,0:0:0:0:
403,302,88524,5,4,0:0:0:0:
