osu file format v12

[General]
AudioFilename: OP.mp3
AudioLeadIn: 1500
PreviewTime: 61877
Countdown: 0
SampleSet: Soft
StackLeniency: 0.7
Mode: 0
LetterboxInBreaks: 0
WidescreenStoryboard: 0

[Editor]
DistanceSpacing: 1
BeatDivisor: 4
GridSize: 4

[Metadata]
Title:Tomadoi Recipe (TV Size)
TitleUnicode:とまどい→レシピ (TV Size)
Artist:Mikakuning!
ArtistUnicode:みかくにんぐッ!
Creator:Fycho
Version:Hard
Source:未確認で進行形
Tags:opening mikakunin de shinkoukei Junky Terui Haruka Matsui Eriko Yoshida Yuuri xchippy 照井春佳 松井恵理子 吉田有里
BeatmapID:374840
BeatmapSetID:152249

[Difficulty]
HPDrainRate:6
CircleSize:4
OverallDifficulty:6
ApproachRate:7
SliderMultiplier:1.5
SliderTickRate:1

[Events]
//Background and Video events
0,0,"bg.jpg",0,0
Video,0,"OP.flv"
//Break Periods
//Storyboard Layer 0 (Background)
//Storyboard Layer 1 (Fail)
//Storyboard Layer 2 (Pass)
//Storyboard Layer 3 (Foreground)
//Storyboard Sound Samples
//Background Colour Transformations
3,100,163,162,255

[TimingPoints]
995,352.941176470588,4,2,3,40,1,0
12289,-100,4,2,1,70,0,0
16524,-100,4,2,1,50,0,0
16612,-100,4,2,1,70,0,0
17053,-100,4,2,1,50,0,0
17142,-100,4,2,1,70,0,0
20759,-100,4,2,1,50,0,0
23053,-100,4,2,1,60,0,0
23583,-125,4,2,1,50,0,0
28524,-100,4,2,1,80,0,0
31700,-100,4,2,1,60,0,0
31789,-100,4,2,1,80,0,0
33465,-133.333333333333,4,2,1,50,0,0
34524,-100,4,2,1,80,0,0
34877,-100,4,2,1,70,0,0
39112,-100,4,2,1,60,0,0
40347,-100,4,2,1,70,0,0
46171,-133.333333333333,4,2,1,50,0,0
56759,-133.333333333333,4,2,1,60,0,0
57465,-100,4,2,1,80,0,0
63112,-100,4,2,1,90,0,1
74053,-100,4,2,1,80,0,0
74406,-100,4,2,1,90,0,1
85700,-100,4,2,1,70,0,0

[Colours]
Combo1 : 255,255,121
Combo2 : 15,255,159
Combo3 : 254,135,198
Combo4 : 29,163,197

[HitObjects]
284,128,994,2,0,L|120:128,2,150,4|2|0,0:0|0:0|0:0,0:0:0:0:
336,184,1877,2,0,L|416:172,2,75,0|2|0,0:0|0:0|0:0,0:0:0:0:
204,252,2583,1,0,0:0:0:0:
260,300,2759,2,0,L|344:288,1,75,2|0,0:0|0:0,0:0:0:0:
396,249,3112,2,0,P|416:180|376:108,2,150,0|2|4,0:0|0:0|0:0,0:0:0:0:
248,274,4171,6,0,P|172:275|156:278,1,75,2|0,0:0|0:0,0:0:0:0:
113,228,4524,2,0,L|101:153,2,75,0|0|2,0:0|0:0|0:0,0:0:0:0:
187,203,5053,2,0,P|186:126|185:34,2,150,0|2|0,0:0|0:0|0:0,0:0:0:0:
239,257,5936,2,0,L|229:346,1,75,0|0,0:0|0:0,0:0:0:0:
306,328,6289,2,0,L|314:253,1,75,2|0,0:0|0:0,0:0:0:0:
342,183,6642,6,0,P|417:178|463:244,1,150,4|2,0:0|0:0,0:0:0:0:
471,81,7347,2,0,L|394:83,1,75,0|0,0:0|0:0,0:0:0:0:
320,86,7700,1,2,0:0:0:0:
256,126,7877,6,0,P|198:158|118:124,1,150,0|2,0:0|0:0,0:0:0:0:
107,280,8583,1,0,0:0:0:0:
181,272,8759,2,0,L|285:263,2,75,0|0|2,0:0|0:0|0:0,0:0:0:0:
107,280,9289,1,0,0:0:0:0:
107,280,9465,1,0,0:0:0:0:
256,192,9553,12,2,11583,0:0:0:0:
257,115,11936,5,2,0:0:0:0:
386,241,12289,6,0,P|273:245|232:244,2,150,4|8|2,0:0|1:1|0:0,0:0:0:0:
449,176,13171,2,0,P|452:127|450:90,1,75,0|8,0:0|0:1,0:0:0:0:
393,31,13524,6,0,P|322:20|278:77,2,150,2|2|8,0:0|0:0|0:0,0:0:0:0:
417,117,14406,2,0,P|411:155|410:197,1,75,8|0,0:0|0:0,0:0:0:0:
329,233,14759,2,0,P|345:268|349:304,1,75,8|0,0:1|0:0,0:0:0:0:
259,300,15112,6,0,P|212:323|131:275,1,150,2|8,0:0|1:0,0:0:0:0:
42,272,15642,1,0,0:0:0:0:
53,183,15818,2,0,P|49:145|42:108,1,75,2|0,0:0|0:0,0:0:0:0:
129,131,16171,2,0,P|132:168|139:205,1,75,8|2,0:1|0:0,0:0:0:0:
222,240,16524,6,0,B|277:225|317:250|317:250|348:226|379:228,1,150,12|8,0:0|1:0,0:0:0:0:
405,148,17053,2,0,B|350:133|310:158|310:158|279:134|248:136,1,150,12|8,0:0|1:0,0:0:0:0:
173,125,17583,2,0,L|93:147,1,75,8|0,1:0|0:0,0:0:0:0:
70,230,17936,6,0,P|76:276|76:324,1,75,4|0,0:0|0:0,0:0:0:0:
166,295,18289,2,0,P|257:292|301:347,1,150,8|2,0:1|0:0,0:0:0:0:
380,304,18818,2,0,P|431:285|479:282,1,75,0|8,0:0|0:1,0:0:0:0:
455,192,19171,6,0,P|436:107|417:30,1,150,2|0,0:0|0:0,0:0:0:0:
338,8,19700,1,8,0:1:0:0:
283,80,19877,1,0,0:0:0:0:
193,88,20053,2,0,P|212:173|231:250,1,150,8|8,0:0|0:1,0:0:0:0:
208,323,20583,1,8,0:0:0:0:
124,288,20759,6,0,P|123:249|120:206,1,75,12|8,0:0|0:0,0:0:0:0:
60,145,21112,1,8,0:1:0:0:
110,70,21289,1,8,0:1:0:0:
110,70,21377,1,8,0:0:0:0:
110,70,21465,2,0,L|190:57,1,75,8|8,0:0|0:0,0:0:0:0:
202,146,21818,1,8,0:1:0:0:
284,180,21994,1,8,0:0:0:0:
368,147,22171,6,0,P|372:101|372:72,1,75,8|8,0:0|0:0,0:0:0:0:
284,179,22524,2,0,P|280:224|279:253,2,75,8|8|8,0:1|0:0|0:1,0:0:0:0:
291,83,23053,1,2,0:0:0:0:
291,83,23583,6,0,P|370:74|424:73,2,120,4|0|0,0:0|0:0|0:0,0:0:0:0:
133,124,24642,1,8,0:0:0:0:
104,200,24818,6,0,P|120:294|120:325,1,120,0|0,0:0|0:0,0:0:0:0:
200,304,25347,2,0,L|277:321,1,60,8|0,0:0|0:0,0:0:0:0:
304,248,25700,2,0,P|354:217|413:213,1,120,0|8,0:0|0:0,0:0:0:0:
484,180,26230,1,0,0:0:0:0:
435,119,26406,6,0,P|436:89|439:59,1,60,0|2,0:0|0:0,0:0:0:0:
383,3,26759,1,8,0:0:0:0:
341,79,26936,2,0,P|289:104|231:91,1,120,0|0,0:0|0:0,0:0:0:0:
182,27,27465,1,8,0:0:0:0:
110,65,27642,1,0,0:0:0:0:
112,145,27818,6,0,B|107:175|116:201|116:201|94:224|98:263,2,120,0|8|8,0:0|0:0|1:0,0:0:0:0:
196,168,28700,1,0,0:0:0:0:
238,96,28877,1,8,1:0:0:0:
319,118,29053,6,0,P|411:135|450:103,1,150,4|0,0:0|0:0,0:0:0:0:
512,227,29583,2,0,P|420:210|381:242,1,150,8|8,0:1|0:0,0:0:0:0:
302,278,30112,2,0,P|314:314|329:357,1,75,0|8,0:0|0:1,0:0:0:0:
227,324,30465,6,0,B|176:332|176:332|85:297,1,150,0|0,0:0|0:0,0:0:0:0:
66,208,30994,2,0,L|72:125,1,75,8|0,0:1|0:0,0:0:0:0:
158,110,31347,2,0,L|152:184,1,75,8|0,0:0|0:0,0:0:0:0:
240,163,31700,2,0,L|245:88,1,75,12|0,0:0|0:0,0:0:0:0:
324,132,32053,6,0,P|379:107|466:134,1,150,8|8,0:0|0:1,0:0:0:0:
435,210,32583,1,0,0:0:0:0:
462,292,32759,2,0,P|407:317|320:290,1,150,8|8,0:0|0:1,0:0:0:0:
274,223,33289,1,12,0:0:0:0:
210,277,33465,6,0,L|217:343,2,56.2500021457673,0|2|2,0:0|0:0|0:0,0:0:0:0:
136,226,33994,2,0,L|130:289,2,56.2500021457673,2|2|2,0:0|0:0|0:0,0:0:0:0:
151,134,34524,1,8,0:0:0:0:
151,134,34877,6,0,P|156:85|73:37,2,150,12|8|8,0:0|0:1|0:0,0:0:0:0:
78,187,35759,1,0,0:0:0:0:
98,274,35936,1,8,0:1:0:0:
183,301,36112,6,0,B|229:297|229:297|284:311|284:311|332:304,1,150,0|0,0:0|0:0,0:0:0:0:
398,245,36642,2,0,P|413:210|420:173,1,75,8|0,0:1|0:0,0:0:0:0:
347,121,36994,2,0,P|332:155|325:192,1,75,8|0,0:0|0:0,0:0:0:0:
237,212,37347,1,8,0:1:0:0:
146,216,37524,1,4,0:0:0:0:
93,143,37700,6,0,P|140:44|184:35,1,150,8|8,0:0|0:1,0:0:0:0:
222,110,38230,2,0,P|225:147|226:184,1,75,0|8,0:0|0:0,0:0:0:0:
312,237,38583,2,0,P|316:199|322:162,1,75,4|8,0:0|0:1,0:0:0:0:
386,115,38936,1,12,0:0:0:0:
386,115,39112,6,0,L|466:107,1,75,0|8,0:0|0:0,0:0:0:0:
511,182,39465,2,0,L|436:189,1,75,0|12,0:0|0:0,0:0:0:0:
398,271,39818,2,0,L|472:263,1,75,8|12,0:0|0:0,0:0:0:0:
433,344,40171,1,8,1:0:0:0:
344,328,40347,6,0,P|294:289|200:309,1,150,12|0,0:0|0:0,0:0:0:0:
133,344,40877,2,0,P|104:275|70:205,1,150,8|8,0:1|0:0,0:0:0:0:
97,133,41406,1,0,0:0:0:0:
166,97,41583,2,0,P|170:59|173:22,1,75,8|0,0:1|0:0,0:0:0:0:
248,101,41936,6,0,L|236:186,1,75,8|8,0:0|0:0,0:0:0:0:
281,254,42289,1,8,0:1:0:0:
356,205,42465,2,0,P|347:120|337:37,1,150,4|12,0:0|0:0,0:0:0:0:
427,73,42994,1,0,0:0:0:0:
465,154,43171,6,0,P|446:226|439:301,1,150,12|0,0:0|0:0,0:0:0:0:
353,330,43700,2,0,P|293:314|268:309,1,75,8|0,0:1|0:0,0:0:0:0:
196,344,44053,1,8,0:0:0:0:
110,315,44230,2,0,L|67:321,2,37.5,0|8|8,0:0|0:0|0:1,0:0:0:0:
110,224,44583,1,12,0:0:0:0:
48,158,44759,6,0,P|56:120|64:80,1,75,8|8,0:0|0:1,0:0:0:0:
149,53,45112,1,0,0:0:0:0:
190,140,45289,2,0,L|184:188,2,37.5,8|8|8,0:0|0:0|0:0,0:0:0:0:
210,264,45642,2,0,P|262:269|297:256,1,75,8|8,0:1|0:1,0:0:0:0:
422,121,46171,6,0,P|369:134|339:180,1,112.500004291535,4|0,0:0|0:0,0:0:0:0:
200,319,46877,2,0,P|209:263|199:208,1,112.500004291535,2|0,0:0|0:0,0:0:0:0:
120,187,47406,1,0,0:0:0:0:
139,111,47583,1,0,0:0:0:0:
139,111,47759,2,0,P|193:115|257:90,1,112.500004291535,2|0,0:0|0:0,0:0:0:0:
412,187,48465,5,0,0:0:0:0:
412,187,48642,2,0,P|358:183|294:208,2,112.500004291535,0|10|0,0:0|0:0|0:0,0:0:0:0:
244,92,49700,2,0,L|185:75,1,56.2500021457673,2|0,0:0|0:0,0:0:0:0:
140,145,50053,2,0,L|72:154,1,56.2500021457673,0|0,0:0|0:0,0:0:0:0:
49,226,50406,5,2,0:0:0:0:
105,286,50583,2,0,P|159:312|219:289,1,112.500004291535,0|0,0:0|0:0,0:0:0:0:
262,234,51112,2,0,L|258:198,2,28.1250010728836,8|8|8,1:0|0:1|0:0,0:0:0:0:
328,287,51465,2,0,P|357:304|379:309,1,56.2500021457673,0|0,0:0|0:0,0:0:0:0:
443,268,51818,5,4,0:0:0:0:
437,185,51994,2,0,P|436:157|438:129,1,56.2500021457673,0|0,0:0|0:0,0:0:0:0:
390,67,52347,1,0,0:0:0:0:
318,99,52524,2,0,L|256:104,2,56.2500021457673,2|0|0,0:0|0:0|0:0,0:0:0:0:
346,179,53053,1,0,0:0:0:0:
305,255,53230,5,2,0:0:0:0:
305,255,53406,2,0,P|231:281|184:264,1,112.500004291535,0|8,0:0|0:1,0:0:0:0:
114,127,54112,1,0,0:0:0:0:
75,198,54289,2,0,L|64:275,1,56.2500021457673,8|8,0:0|0:0,0:0:0:0:
127,302,54642,6,0,P|187:327|226:354,1,112.500004291535,8|0,0:0|0:0,0:0:0:0:
377,307,55347,2,0,P|408:259|445:218,1,112.500004291535,8|0,0:0|0:0,0:0:0:0:
334,29,56053,6,0,L|356:149,1,112.500004291535,8|4,0:0|0:0,0:0:0:0:
289,208,56583,1,0,0:0:0:0:
210,162,56759,1,8,0:0:0:0:
210,162,56936,1,8,0:0:0:0:
138,217,57112,1,12,0:0:0:0:
138,217,57289,1,8,0:0:0:0:
61,169,57465,6,0,P|81:123|92:89,1,75,4|0,0:0|0:0,0:0:0:0:
152,35,57818,2,0,P|198:55|232:66,1,75,8|0,0:0|0:0,0:0:0:0:
303,100,58171,2,0,P|403:102|449:51,1,150,0|8,0:0|0:0,0:0:0:0:
459,159,58700,1,0,0:0:0:0:
396,223,58877,6,0,P|402:297|387:378,1,150,0|8,0:0|0:0,0:0:0:0:
292,328,59406,2,0,P|286:254|301:173,1,150,0|0,0:0|0:0,0:0:0:0:
274,93,59936,2,0,P|237:86|200:91,1,75,8|0,0:0|0:0,0:0:0:0:
140,171,60289,6,0,L|148:267,1,75,4|2,0:0|0:0,0:0:0:0:
0,267,60642,2,0,L|68:221,1,75,8|0,0:0|0:0,0:0:0:0:
143,357,60994,2,0,L|86:306,1,75,2|0,0:0|0:0,0:0:0:0:
205,290,61347,2,0,L|279:282,1,75,8|0,0:0|0:0,0:0:0:0:
391,306,61700,5,12,0:0:0:0:
391,306,62759,2,0,L|382:223,1,75,8|0,0:1|0:0,0:0:0:0:
362,147,63112,6,0,P|282:166|238:218,1,150,4|8,0:0|1:0,0:0:0:0:
168,271,63642,1,0,0:0:0:0:
94,219,63818,2,0,L|87:140,1,75,0|2,0:0|0:0,0:0:0:0:
128,63,64171,1,8,1:0:0:0:
181,134,64347,1,2,0:0:0:0:
254,82,64524,6,0,P|309:69|341:68,1,75,0|0,0:0|0:0,0:0:0:0:
408,100,64877,1,8,1:0:0:0:
441,185,65053,2,0,P|457:267|439:334,1,150,2|0,0:0|0:0,0:0:0:0:
352,322,65583,2,0,P|316:330|280:323,1,75,8|0,1:0|0:0,0:0:0:0:
170,261,65936,6,0,P|103:243|34:296,2,150,2|8|0,0:0|1:0|0:0,0:0:0:0:
234,198,66818,1,2,0:0:0:0:
322,180,66994,2,0,L|400:170,1,75,8|2,1:0|0:0,0:0:0:0:
443,247,67347,6,0,P|426:155|416:85,1,150,2|8,0:0|1:0,0:0:0:0:
347,20,67877,2,0,P|309:81|352:156,1,150,2|0,0:0|0:0,0:0:0:0:
312,233,68406,2,0,P|292:298|290:320,1,75,8|0,1:0|0:0,0:0:0:0:
205,276,68759,6,0,P|129:288|81:297,1,112.5,4|0,0:0|0:0,0:0:0:0:
72,289,69112,2,0,P|60:254|56:214,1,75,8|0,1:0|0:0,0:0:0:0:
126,131,69465,1,0,0:0:0:0:
126,131,69642,2,0,P|138:166|142:206,1,75,2|8,0:0|1:0,0:0:0:0:
231,201,69994,1,2,0:0:0:0:
309,162,70171,6,0,B|366:140|366:140|416:162|454:150,1,150,0|8,0:0|1:0,0:0:0:0:
434,238,70700,2,0,P|369:266|336:338,1,150,2|0,0:0|0:0,0:0:0:0:
255,294,71230,2,0,P|203:274|172:262,1,75,8|0,1:0|0:0,0:0:0:0:
99,238,71583,6,0,B|111:135|111:135|94:86,1,150,2|8,0:0|1:0,0:0:0:0:
177,51,72112,1,0,0:0:0:0:
251,99,72289,2,0,P|288:108|325:109,1,75,2|0,0:0|0:0,0:0:0:0:
349,204,72642,2,0,P|312:195|275:194,1,75,8|0,1:0|0:0,0:0:0:0:
152,230,72994,6,0,P|151:141|156:64,1,150,2|8,0:0|1:0,0:0:0:0:
279,46,73524,2,0,P|280:135|275:212,1,150,8|8,0:1|0:1,0:0:0:0:
266,291,74053,2,0,P|301:303|338:301,1,75,8|8,1:0|0:0,0:0:0:0:
430,211,74406,6,0,P|454:81|465:43,1,150,4|8,0:0|1:0,0:0:0:0:
370,56,74936,1,0,0:0:0:0:
329,136,75112,2,0,P|269:180|187:159,1,150,2|8,0:0|1:0,0:0:0:0:
140,97,75642,1,2,0:0:0:0:
109,186,75818,6,0,P|100:223|104:260,1,75,0|0,0:0|0:0,0:0:0:0:
162,329,76171,1,8,1:0:0:0:
238,282,76347,2,0,P|250:199|193:162,1,150,2|0,0:0|0:0,0:0:0:0:
140,98,76877,2,0,L|148:11,1,75,8|0,1:0|0:0,0:0:0:0:
226,66,77230,6,0,B|281:100|325:87|325:87|365:48,1,150,2|8,0:0|1:0,0:0:0:0:
429,109,77759,1,0,0:0:0:0:
390,190,77936,2,0,P|370:252|397:348,1,150,2|8,0:0|1:0,0:0:0:0:
295,345,78465,1,2,0:0:0:0:
208,314,78642,6,0,L|126:322,1,75,8|0,1:0|0:0,0:0:0:0:
72,255,78994,1,8,0:1:0:0:
118,177,79171,2,0,P|212:178|283:170,1,150,8|8,1:0|0:1,0:0:0:0:
357,165,79700,1,8,0:1:0:0:
306,90,79877,1,0,0:0:0:0:
385,45,80053,6,0,P|425:33|469:26,1,75,4|0,0:0|0:0,0:0:0:0:
444,125,80406,2,0,P|448:176|448:203,1,75,8|0,1:0|0:0,0:0:0:0:
379,261,80759,2,0,P|342:252|301:258,1,75,0|2,0:0|0:0,0:0:0:0:
231,310,81112,2,0,P|225:349|226:384,1,75,8|2,1:0|0:0,0:0:0:0:
143,295,81465,6,0,P|152:193|153:120,1,150,0|8,0:0|1:0,0:0:0:0:
241,140,81994,2,0,P|227:82|149:49,1,150,2|2,0:0|0:0,0:0:0:0:
60,76,82524,1,8,1:0:0:0:
46,162,82700,1,2,0:0:0:0:
70,252,82877,6,0,L|48:325,1,75,8|0,1:0|0:0,0:0:0:0:
159,293,83230,2,0,L|155:372,1,75,8|0,1:0|0:0,0:0:0:0:
257,263,83583,2,0,L|260:342,1,75,8|0,1:0|0:0,0:0:0:0:
333,196,83936,2,0,L|355:268,1,75,8|0,1:0|0:0,0:0:0:0:
417,196,84289,6,0,P|402:119|392:43,1,150,8|8,1:0|1:0,0:0:0:0:
315,32,84818,1,8,0:0:0:0:
251,86,84994,2,0,P|214:108|175:110,1,75,2|2,0:0|0:0,0:0:0:0:
105,123,85347,2,0,L|91:245,1,112.5,2|0,0:0|0:0,0:0:0:0:
96,270,85700,6,0,P|187:268|239:291,1,150,4|8,0:0|0:0,0:0:0:0:
326,280,86230,1,8,0:1:0:0:
401,230,86406,2,0,L|403:148,1,75,8|8,0:0|0:0,0:0:0:0:
368,79,86759,1,8,0:1:0:0:
296,123,86936,6,0,P|205:125|153:102,1,150,8|8,0:0|0:0,0:0:0:0:
267,289,87642,1,8,0:1:0:0:
267,289,87818,2,0,L|347:303,1,75,8|0,0:0|0:0,0:0:0:0:
402,229,88171,2,0,L|328:216,1,75,8|0,0:0|0:0,0:0:0:0:
436,316,88524,5,4,0:0:0:0:
