osu file format v13

[General]
AudioFilename: OP.mp3
AudioLeadIn: 0
PreviewTime: 62053
Countdown: 0
SampleSet: Soft
StackLeniency: 0.7
Mode: 0
LetterboxInBreaks: 0
WidescreenStoryboard: 0

[Editor]
DistanceSpacing: 0.5
BeatDivisor: 4
GridSize: 4
TimelineZoom: 1.6

[Metadata]
Title:Tomadoi Recipe (TV Size)
TitleUnicode:とまどい→レシピ (TV Size)
Artist:Mikakuning!
ArtistUnicode:みかくにんぐッ!
Creator:[ -Scarlet- ]
Version:Insane
Source:未確認で進行形
Tags:Rakuen _AI ffstar0716 opening mikakunin de shinkoukei 照井春佳 松井恵理子 吉田有里 Junky Haruka Terui Eriko Matsui Yuri Yoshida
BeatmapID:421380
BeatmapSetID:174541

[Difficulty]
HPDrainRate:7
CircleSize:4
OverallDifficulty:8
ApproachRate:9
SliderMultiplier:2
SliderTickRate:1

[Events]
//Background and Video events
0,0,"2014-02-24-635450.jpeg",0,0
Video,219,"OP.flv"
//Break Periods
//Storyboard Layer 0 (Background)
//Storyboard Layer 1 (Fail)
//Storyboard Layer 2 (Pass)
//Storyboard Layer 3 (Foreground)
//Storyboard Sound Samples
//Background Colour Transformations
3,100,163,162,255

[TimingPoints]
995,352.941176470588,4,2,3,40,1,0
995,-133.333333333333,4,2,3,40,0,0
3112,-181.818181818181,4,2,3,40,0,0
3465,-153.846153846153,4,2,3,40,0,0
11583,-100,4,2,3,60,0,0
12289,-100,4,2,1,70,0,0
16524,-100,4,2,1,60,0,0
16612,-100,4,2,1,70,0,0
17230,-100,4,2,1,60,0,0
17318,-100,4,2,1,70,0,0
20759,-100,4,2,1,50,0,0
22877,-166.666666666667,4,2,1,60,0,0
23583,-125,4,2,1,50,0,0
28524,-100,4,2,1,80,0,0
31700,-100,4,2,1,60,0,0
31789,-100,4,2,1,80,0,0
33289,-100,4,2,1,50,0,0
34524,-133.333333333333,4,2,1,80,0,0
34877,-100,4,2,1,70,0,0
37524,-100,4,2,1,60,0,0
37612,-100,4,2,1,70,0,0
39994,-100,4,2,1,50,0,0
40171,-100,4,2,1,70,0,0
44583,-100,4,2,1,50,0,0
44671,-100,4,2,1,60,0,0
45818,-125,4,2,1,60,0,0
46171,-133.333333333333,4,2,1,60,0,0
57465,-100,4,2,1,80,0,0
61700,-200,4,2,1,80,0,0
62759,-100,4,2,1,80,0,0
63112,-100,4,2,1,90,0,1
73524,-100,4,2,1,60,0,1
74053,-100,4,2,1,80,0,0
74230,-100,4,2,1,70,0,0
74406,-100,4,2,1,90,0,1
81994,-100,4,2,1,70,0,1
82259,-100,4,2,1,90,0,1
85700,-100,4,2,1,80,0,0

[Colours]
Combo1 : 255,255,121
Combo2 : 15,255,159
Combo3 : 254,135,198
Combo4 : 29,163,197

[HitObjects]
280,148,994,6,0,L|192:204,1,100,4|0,0:0|0:0,0:0:0:0:
352,212,1347,2,0,P|392:216|440:184,1,75.0000028610231,2|0,0:0|0:0,0:0:0:0:
376,120,1700,1,0,0:0:0:0:
280,148,1877,1,0,0:0:0:0:
436,192,2053,1,2,0:0:0:0:
352,212,2230,6,0,L|376:320,1,75.0000028610231
376,120,2583,2,0,L|360:20,1,75.0000028610231,0|2,0:0|0:0,0:0:0:0:
436,192,2936,1,0,0:0:0:0:
280,148,3112,2,0,P|236:148|212:160,1,55.0000016784668
260,224,3465,2,0,P|228:240|216:284,1,64.9999970245363,2|0,0:0|0:0,0:0:0:0:
256,352,3818,6,0,L|128:312,1,129.999994049073,4|2,0:0|0:0,0:0:0:0:
48,280,4347,1,0,0:0:0:0:
124,104,4524,1,0,0:0:0:0:
144,200,4700,1,0,0:0:0:0:
52,172,4877,1,2,0:0:0:0:
208,144,5053,6,0,P|260:144|312:96,1,97.4999955368044
344,68,5406,2,0,P|340:116|348:156,1,64.9999970245363,0|2,0:0|0:0,0:0:0:0:
384,220,5759,1,0,0:0:0:0:
240,84,5936,1,0,0:0:0:0:
352,280,6112,1,0,0:0:0:0:
300,56,6289,1,2,0:0:0:0:
300,312,6465,1,0,0:0:0:0:
208,188,6642,6,0,L|144:60,1,129.999994049073,4|2,0:0|0:0,0:0:0:0:
150,72,7171,1,0,0:0:0:0:
344,144,7347,1,0,0:0:0:0:
332,48,7524,1,0,0:0:0:0:
248,100,7700,1,2,0:0:0:0:
444,112,7877,6,0,P|448:176|408:232,2,129.999994049073,0|2|0,0:0|0:0|0:0,0:0:0:0:
248,100,8759,1,0,0:0:0:0:
344,144,8936,1,0,0:0:0:0:
180,28,9112,1,2,0:0:0:0:
296,16,9289,1,0,0:0:0:0:
192,192,9465,6,0,P|156:208|112:200,1,64.9999970245363,4|0,0:0|0:0,0:0:0:0:
4,168,9818,2,0,P|40:152|84:160,1,64.9999970245363,2|0,0:0|0:0,0:0:0:0:
140,136,10171,1,0,0:0:0:0:
192,192,10347,1,0,0:0:0:0:
264,168,10524,1,0,0:0:0:0:
168,260,10700,6,0,L|140:336,1,64.9999970245363,2|0,0:0|0:0,0:0:0:0:
117,196,11053,2,0,L|140:136,1,64.9999970245363,2|0,0:0|0:0,0:0:0:0:
208,112,11406,1,0,0:0:0:0:
372,164,11583,1,2,0:0:0:0:
212,220,11759,1,0,0:0:0:0:
308,80,11936,1,2,0:0:0:0:
320,248,12112,1,0,0:0:0:0:
280,164,12289,6,0,L|188:96,1,100,4|0,0:0|0:0,0:0:0:0:
212,220,12642,1,8,0:1:0:0:
116,104,12818,1,0,0:0:0:0:
264,80,12994,2,0,L|316:52,1,50,2|0,0:0|0:0,0:0:0:0:
380,16,13171,1,0,0:0:0:0:
212,8,13347,1,8,0:1:0:0:
360,116,13524,6,0,B|404:168|464:168|464:168|456:188|424:192,1,150
376,220,13877,2,8,P|420:260|484:248,1,100
444,80,14230,1,8,0:0:0:0:
444,80,14318,1,8,0:0:0:0:
444,80,14406,1,8,0:0:0:0:
336,192,14583,1,0,0:0:0:0:
360,92,14759,1,8,0:0:0:0:
220,168,14936,1,0,0:0:0:0:
116,44,15112,6,0,L|136:144,1,100,6|0,0:0|0:0,0:0:0:0:
88,208,15377,1,0,0:0:0:0:
88,208,15465,2,0,L|64:312,1,100,8|0,0:1|0:0,0:0:0:0:
220,168,15818,1,2,0:0:0:0:
368,156,15994,2,0,B|396:136|404:96|380:40|380:40|344:68,1,150
320,100,16347,1,2,0:0:0:0:
220,168,16524,5,12,0:0:0:0:
276,344,16700,1,8,0:1:0:0:
392,232,16877,1,8,0:0:0:0:
212,188,17053,5,8,0:0:0:0:
208,204,17142,1,8,0:0:0:0:
204,220,17230,1,12,0:0:0:0:
380,352,17406,1,8,0:1:0:0:
432,200,17583,1,8,0:0:0:0:
196,240,17759,1,8,0:0:0:0:
192,252,17847,1,0,0:0:0:0:
188,264,17936,6,0,P|112:264|48:216,1,150,4|0,0:0|0:0,0:0:0:0:
20,156,18289,2,0,B|64:140|96:164|96:164|124:112,1,100,8|0,0:1|0:0,0:0:0:0:
200,40,18642,1,2,0:0:0:0:
184,280,18818,1,0,0:0:0:0:
140,128,18994,1,8,0:1:0:0:
108,352,19171,2,0,L|160:256,1,100,2|0,0:0|0:0,0:0:0:0:
8,320,19524,5,0,0:0:0:0:
128,188,19700,1,8,0:1:0:0:
120,292,19877,1,0,0:0:0:0:
16,128,20053,1,8,0:0:0:0:
36,224,20230,1,0,0:0:0:0:
172,36,20406,1,8,0:0:0:0:
104,104,20583,1,0,0:0:0:0:
224,252,20759,5,12,0:0:0:0:
408,120,20936,1,8,0:0:0:0:
276,96,21112,1,8,0:1:0:0:
408,236,21289,1,8,0:1:0:0:
368,212,21377,1,8,0:0:0:0:
328,188,21465,1,8,0:0:0:0:
188,248,21642,5,8,0:0:0:0:
404,92,21818,1,8,0:1:0:0:
248,68,21994,1,8,0:0:0:0:
328,188,22171,5,8,0:0:0:0:
288,164,22259,1,8,0:0:0:0:
252,140,22347,1,8,0:0:0:0:
96,96,22524,1,8,0:1:0:0:
160,244,22700,1,8,0:0:0:0:
220,44,22877,1,8,0:1:0:0:
88,208,23053,2,0,L|36:264,1,59.9999981689454
88,208,23583,6,0,L|28:272,1,80,4|0,0:0|0:0,0:0:0:0:
232,336,23936,2,0,L|176:276,1,80
176,160,24289,2,0,P|244:160|288:112,1,120,0|0,0:0|0:0,0:0:0:0:
312,64,24642,1,8,0:0:0:0:
264,200,24818,2,0,L|236:276,1,80
140,316,25171,5,0,0:0:0:0:
84,228,25347,1,8,0:0:0:0:
180,184,25524,1,0,0:0:0:0:
236,276,25700,2,0,L|304:320,1,80
384,320,26053,1,8,0:0:0:0:
436,260,26230,1,0,0:0:0:0:
432,180,26406,6,0,P|404:148|400:88,1,80,0|2,0:0|0:0,0:0:0:0:
444,48,26759,1,8,0:0:0:0:
484,116,26936,2,0,P|440:188|360:192,1,160
296,164,27465,2,0,P|248:156|212:160,1,80,8|0,0:0|0:0,0:0:0:0:
132,64,27818,6,0,L|116:168,1,80
168,276,28171,2,0,L|184:176,1,80,8|0,0:0|0:0,0:0:0:0:
84,232,28524,5,8,1:0:0:0:
192,116,28700,1,0,0:0:0:0:
260,268,28877,1,8,1:0:0:0:
112,156,29053,2,0,P|120:56|224:36,1,200,4|0,0:0|0:0,0:0:0:0:
196,216,29583,5,8,1:0:0:0:
192,116,29759,1,0,0:0:0:0:
280,164,29936,1,8,0:0:0:0:
192,116,30112,1,0,0:0:0:0:
272,56,30289,1,8,0:1:0:0:
192,116,30465,1,0,0:0:0:0:
168,20,30642,1,0,1:0:0:0:
192,116,30818,1,0,0:0:0:0:
360,120,30994,6,0,P|412:112|464:100,1,100,8|0,0:1|0:0,0:0:0:0:
304,264,31347,2,0,P|252:276|192:292,1,100,8|0,0:0|0:0,0:0:0:0:
272,56,31700,2,0,P|276:112|280:176,1,100,8|0,0:1|0:0,0:0:0:0:
312,264,32053,5,8,0:0:0:0:
112,224,32230,2,0,L|224:220,1,100,0|8,0:0|0:1,0:0:0:0:
320,264,32583,1,0,0:0:0:0:
80,188,32759,2,0,L|208:184,1,100,8|0,0:0|0:0,0:0:0:0:
328,264,33112,1,8,0:1:0:0:
112,104,33289,1,12,0:0:0:0:
112,104,33377,1,0,0:0:0:0:
112,104,33465,1,0,0:0:0:0:
60,48,33642,5,2,0:0:0:0:
184,116,33818,1,2,0:0:0:0:
44,132,33994,1,2,0:0:0:0:
148,36,34171,1,2,0:0:0:0:
116,172,34347,1,2,0:0:0:0:
276,88,34524,2,0,P|328:88|384:56,1,112.500004291535,8|0,0:0|0:0,0:0:0:0:
400,20,34877,6,0,L|452:128,1,100,12|0,0:0|0:0,0:0:0:0:
272,276,35230,2,0,P|252:232|264:160,1,100,8|0,0:1|0:0,0:0:0:0:
448,120,35583,1,8,0:0:0:0:
264,160,35759,1,0,0:0:0:0:
456,136,35936,1,8,0:1:0:0:
264,136,36112,6,0,P|204:136|144:112,1,100,0|8,0:0|0:0,0:0:0:0:
112,40,36465,1,0,0:0:0:0:
48,116,36642,2,0,P|40:168|56:240,1,100,8|0,0:1|0:0,0:0:0:0:
192,160,36994,1,8,0:1:0:0:
192,160,37083,1,8,0:1:0:0:
192,160,37171,2,0,P|156:164|124:168,1,50,8|0,0:0|0:0,0:0:0:0:
264,168,37347,2,0,P|232:124|224:52,1,100,8|4,0:1|0:0,0:0:0:0:
440,40,37700,5,8,0:0:0:0:
320,96,37877,1,0,0:0:0:0:
408,232,38053,2,0,P|440:192|464:144,1,100,8|0,0:1|0:0,0:0:0:0:
424,32,38406,1,8,0:0:0:0:
408,232,38583,2,0,P|368:280|340:332,1,100,4|8,0:0|0:1,0:0:0:0:
244,337,38936,1,12,0:0:0:0:
244,337,39024,1,0,0:0:0:0:
244,337,39112,6,0,L|180:328,1,50
92,316,39289,1,8,1:0:0:0:
216,240,39642,1,12,0:0:0:0:
216,240,39730,1,8,0:0:0:0:
216,240,39818,2,0,L|166:231,1,50,8|0,0:0|0:0,0:0:0:0:
44,208,39994,1,12,0:0:0:0:
188,132,40171,2,0,L|128:120,1,50
64,56,40347,6,0,L|188:88,1,100,12|0,0:0|0:0,0:0:0:0:
300,160,40700,1,0,0:0:0:0:
392,116,40877,2,0,P|403:61|408:8,1,100,8|0,0:1|0:0,0:0:0:0:
456,188,41230,1,8,0:0:0:0:
312,252,41406,1,8,0:0:0:0:
392,116,41583,1,8,0:1:0:0:
408,276,41759,1,0,0:0:0:0:
300,160,41936,6,0,L|232:120,1,50,8|0,0:0|0:0,0:0:0:0:
80,180,42112,2,0,L|128:204,1,50,8|0,0:0|0:0,0:0:0:0:
180,60,42289,2,0,L|148:132,1,50,8|0,0:0|0:0,0:0:0:0:
152,288,42465,1,4,0:0:0:0:
144,312,42818,2,0,P|194:314|252:312,1,100,12|0,0:0|0:0,0:0:0:0:
352,216,43171,1,8,0:0:0:0:
360,204,43259,1,8,0:0:0:0:
368,192,43347,6,0,L|404:296,1,100,12|0,0:0|0:0,0:0:0:0:
240,228,43700,2,0,L|216:128,1,100,8|0,0:1|0:0,0:0:0:0:
56,76,44053,1,8,0:0:0:0:
212,40,44230,1,0,0:0:0:0:
216,56,44318,1,8,0:0:0:0:
220,72,44406,1,8,0:1:0:0:
92,200,44583,1,12,0:0:0:0:
136,40,44759,5,8,0:0:0:0:
152,120,44936,1,8,0:1:0:0:
52,272,45112,1,0,0:0:0:0:
92,200,45289,1,8,1:1:0:0:
264,192,45465,1,8,0:0:0:0:
188,212,45642,1,8,0:1:0:0:
348,200,45818,6,0,L|432:176,1,80,8|0,0:1|0:0,0:0:0:0:
376,66,46171,6,0,P|336:127|348:200,1,150.000005722046,2|0,0:0|0:0,0:0:0:0:
440,156,46700,1,0,0:0:0:0:
300,112,46877,2,0,P|256:102|219:99,1,66.0000025177003,2|0,0:0|0:0,0:0:0:0:
348,200,47230,1,0,0:0:0:0:
440,156,47406,1,0,0:0:0:0:
300,112,47583,6,0,L|224:136,1,75.0000028610231,2|0,0:0|0:0,0:0:0:0:
140,84,47936,2,0,L|224:56,1,75.0000028610231
124,12,48289,2,0,L|48:36,1,75.0000028610231,2|0,0:0|0:0,0:0:0:0:
28,52,48553,1,0,0:0:0:0:
20,80,48642,1,0,0:0:0:0:
100,200,48818,1,0,0:0:0:0:
160,116,48994,6,0,L|140:288,1,150.000005722046,10|0,0:0|0:0,0:0:0:0:
212,344,49524,1,0,0:0:0:0:
272,192,49700,1,2,0:0:0:0:
156,252,49877,1,0,0:0:0:0:
244,332,50053,1,0,0:0:0:0:
240,168,50230,1,0,0:0:0:0:
160,288,50406,1,2,0:0:0:0:
284,316,50583,5,0,0:0:0:0:
284,316,50671,2,0,L|328:272,1,37.5000014305115,0|0,0:0|0:0,0:0:0:0:
428,276,50847,1,0,0:0:0:0:
428,276,50936,2,0,L|380:232,1,37.5000014305115
272,188,51112,2,0,L|299:160,2,37.5000014305115,8|8|8,1:0|0:1|0:0,0:0:0:0:
172,152,51465,1,0,0:0:0:0:
216,56,51642,1,0,0:0:0:0:
88,120,51818,6,0,B|80:176|104:208|104:208|64:212|40:248,1,150.000005722046,4|0,0:0|0:0,0:0:0:0:
172,152,52347,2,0,P|192:200|180:240,1,75.0000028610231,0|2,0:0|0:0,0:0:0:0:
112,288,52700,1,0,0:0:0:0:
88,120,52877,1,0,0:0:0:0:
260,176,53053,1,0,0:0:0:0:
172,152,53230,5,2,0:0:0:0:
112,288,53406,1,0,0:0:0:0:
232,224,53583,1,0,0:0:0:0:
216,352,53759,1,8,0:1:0:0:
324,244,53936,2,0,L|320:344,1,75.0000028610231,10|0,0:0|0:0,0:0:0:0:
216,352,54289,1,8,0:0:0:0:
232,224,54465,1,8,0:0:0:0:
324,244,54642,6,0,L|416:212,1,75.0000028610231,8|0,0:0|0:0,0:0:0:0:
484,144,54994,2,0,L|400:128,1,75.0000028610231
276,136,55347,1,8,0:0:0:0:
372,40,55524,1,0,0:0:0:0:
384,136,55700,2,0,L|288:120,1,75.0000028610231,2|8,0:0|0:0,0:0:0:0:
164,128,56053,5,8,0:0:0:0:
252,56,56230,1,0,0:0:0:0:
276,136,56406,2,0,L|188:120,1,75.0000028610231,4|0,0:0|0:0,0:0:0:0:
72,164,56759,1,8,0:0:0:0:
152,56,56936,1,8,0:0:0:0:
160,192,57112,1,12,0:0:0:0:
76,84,57289,1,8,0:0:0:0:
200,120,57465,6,0,P|280:136|352:92,1,150
360,76,57818,2,0,P|440:96|488:176,1,150,8|0,0:0|0:0,0:0:0:0:
476,184,58171,2,0,L|416:272,1,100,0|0,0:0|0:0,0:0:0:0:
252,216,58524,1,8,0:0:0:0:
324,328,58700,1,0,0:0:0:0:
140,308,58877,6,0,B|68:300|68:300|36:212|108:152,1,200,0|8,0:0|0:0,0:0:0:0:
200,180,59406,1,0,0:0:0:0:
196,76,59583,1,8,0:0:0:0:
168,40,59671,1,0,0:0:0:0:
128,24,59759,1,0,0:0:0:0:
84,28,59847,1,0,0:0:0:0:
52,60,59936,1,8,0:0:0:0:
40,104,60024,1,0,0:0:0:0:
56,144,60112,1,0,0:0:0:0:
92,172,60200,1,0,0:0:0:0:
92,172,60289,6,0,L|164:184,1,50,4|0,0:0|0:0,0:0:0:0:
116,256,60465,1,2,0:0:0:0:
116,256,60553,1,0,0:0:0:0:
116,256,60642,2,0,L|180:296,1,50,8|0,0:0|0:0,0:0:0:0:
140,364,60818,1,0,0:0:0:0:
184,364,60906,1,0,0:0:0:0:
224,340,60994,5,8,0:0:0:0:
248,300,61083,1,0,0:0:0:0:
256,256,61171,1,8,0:0:0:0:
288,224,61259,1,0,0:0:0:0:
332,212,61347,1,8,0:0:0:0:
376,220,61436,1,0,0:0:0:0:
408,252,61524,1,8,0:0:0:0:
420,296,61612,1,0,0:0:0:0:
408,344,61700,6,0,P|360:348|336:308,2,100,12|0|2,0:0|0:0|0:0,0:0:0:0:
336,308,62759,2,0,B|352:172|352:172|336:132,1,150,8|0,0:1|0:0,0:0:0:0:
284,112,63112,6,0,P|340:84|420:128,1,150,4|0,0:0|0:0,0:0:0:0:
348,160,63465,2,0,L|236:172,1,100,8|0,0:0|0:0,0:0:0:0:
144,48,63818,1,0,0:0:0:0:
160,136,63994,1,2,0:0:0:0:
96,200,64171,1,8,1:0:0:0:
104,56,64347,1,2,0:0:0:0:
124,52,64436,1,0,0:0:0:0:
144,48,64524,6,0,P|232:68|244:188,1,200,0|8,0:0|0:0,0:0:0:0:
103,218,65053,1,0,0:0:0:0:
103,218,65142,1,8,0:0:0:0:
102,218,65230,2,0,L|160:136,1,100,8|0,0:0|0:0,0:0:0:0:
316,64,65583,2,0,P|376:96|440:108,1,100,8|0,1:0|0:0,0:0:0:0:
480,84,65847,1,0,0:0:0:0:
480,84,65936,6,0,P|475:143|368:168,1,150,2|0,0:0|0:0,0:0:0:0:
406,105,66289,2,0,L|316:64,1,100,8|0,1:0|0:0,0:0:0:0:
256,184,66642,1,0,0:0:0:0:
144,84,66818,1,8,0:0:0:0:
152,72,66906,1,8,0:0:0:0:
160,60,66994,1,8,1:0:0:0:
308,108,67171,1,8,0:0:0:0:
168,44,67347,6,0,B|108:143|108:143|48:144,1,150
40,104,67700,2,0,L|108:104,1,50,8|0,1:0|0:0,0:0:0:0:
308,108,67877,1,8,0:0:0:0:
320,108,68230,5,8,0:0:0:0:
332,108,68583,5,8,0:0:0:0:
332,108,68759,2,0,L|212:108,1,100,4|0,0:0|0:0,0:0:0:0:
184,276,69112,2,0,L|304:276,1,100,8|0,1:0|0:0,0:0:0:0:
440,176,69465,1,0,0:0:0:0:
276,208,69642,1,2,0:0:0:0:
388,108,69818,1,8,1:0:0:0:
384,296,69994,1,2,0:0:0:0:
304,116,70171,6,0,P|340:36|416:28,1,150,0|0,0:0|0:0,0:0:0:0:
320,40,70524,2,0,L|252:20,1,50,8|0,1:0|0:0,0:0:0:0:
192,0,70700,1,0,0:0:0:0:
96,96,70877,2,0,L|92:228,1,100,0|2,0:0|0:0,0:0:0:0:
152,276,71230,1,8,1:0:0:0:
200,92,71406,1,8,0:0:0:0:
196,72,71494,1,0,0:0:0:0:
184,56,71583,6,0,P|156:20|100:0,1,100,2|0,0:0|0:0,0:0:0:0:
212,120,71936,2,0,P|252:148|320:152,1,100,8|0,1:0|0:0,0:0:0:0:
132,112,72289,2,0,P|80:140|48:212,1,100,2|0,0:0|0:0,0:0:0:0:
144,196,72553,1,0,0:0:0:0:
144,196,72642,2,0,L|160:272,1,50,8|0,1:0|0:0,0:0:0:0:
288,364,72818,2,0,L|268:288,1,50,8|0,0:0|0:0,0:0:0:0:
256,224,72994,6,0,B|328:212|368:272|368:272|368:216,1,150,0|8,0:0|0:0,0:0:0:0:
368,253,73347,1,8,1:0:0:0:
396,112,73524,1,8,0:0:0:0:
356,108,73612,1,8,0:0:0:0:
316,104,73700,1,8,0:0:0:0:
276,100,73789,1,8,0:0:0:0:
236,96,73877,1,8,0:0:0:0:
440,116,74053,5,8,1:0:0:0:
196,92,74230,1,8,0:0:0:0:
156,88,74318,1,8,0:0:0:0:
116,84,74406,6,0,P|136:132|140:200,1,100,4|0,0:0|0:0,0:0:0:0:
116,312,74759,2,0,P|164:292|236:284,1,100,8|0,0:0|0:0,0:0:0:0:
280,276,75024,1,0,0:0:0:0:
280,276,75112,1,0,0:0:0:0:
380,360,75289,1,2,0:0:0:0:
288,120,75465,1,8,1:0:0:0:
380,256,75642,1,2,0:0:0:0:
276,24,75818,6,0,B|168:64|168:64|124:56,1,150
88,32,76171,2,0,L|104:100,1,50,8|0,1:0|0:0,0:0:0:0:
40,216,76347,2,0,L|24:152,1,50,0|0,0:0|0:0,0:0:0:0:
160,200,76524,2,0,P|212:204|272:184,1,100,0|0,0:0|0:0,0:0:0:0:
160,200,76877,2,0,P|154:254|160:348,1,100,8|0,1:0|0:0,0:0:0:0:
68,160,77230,6,0,P|112:132|152:84,1,100,2|0,0:0|0:0,0:0:0:0:
184,8,77583,1,8,1:0:0:0:
160,200,77759,2,0,L|128:252,1,50
84,312,77936,2,0,P|136:328|212:284,1,100,2|0,0:0|0:0,0:0:0:0:
168,160,78289,1,8,1:0:0:0:
304,104,78465,1,8,0:0:0:0:
312,128,78553,1,8,0:0:0:0:
320,152,78642,5,8,1:0:0:0:
160,200,78818,1,8,0:0:0:0:
332,24,78994,2,0,P|380:68|380:132,1,100,8|8,1:0|1:0,0:0:0:0:
388,124,79259,1,0,0:0:0:0:
376,148,79347,1,0,0:0:0:0:
152,240,79524,1,8,0:0:0:0:
356,260,79700,1,8,1:0:0:0:
136,316,79877,1,0,0:0:0:0:
136,316,79965,1,0,0:0:0:0:
136,316,80053,6,0,L|160:196,1,100,4|0,0:0|0:0,0:0:0:0:
376,68,80406,2,0,L|352:188,1,100,8|0,1:0|0:0,0:0:0:0:
192,124,80759,1,0,0:0:0:0:
344,272,80936,1,2,0:0:0:0:
264,64,81112,1,8,1:0:0:0:
256,308,81289,1,2,0:0:0:0:
192,124,81465,5,0,0:0:0:0:
344,272,81642,1,0,0:0:0:0:
116,296,81818,1,8,1:0:0:0:
276,240,81994,1,8,0:0:0:0:
240,224,82083,1,8,0:0:0:0:
204,208,82171,1,4,0:0:0:0:
368,176,82347,1,8,0:0:0:0:
268,336,82524,1,8,1:0:0:0:
204,208,82700,1,8,0:0:0:0:
168,192,82789,1,8,0:0:0:0:
132,176,82877,6,0,L|172:76,1,100,8|0,1:0|0:0,0:0:0:0:
268,56,83142,1,8,0:0:0:0:
268,56,83230,2,0,L|232:164,1,100,8|0,1:0|0:0,0:0:0:0:
300,232,83494,1,8,0:0:0:0:
300,232,83583,2,0,L|336:128,1,100,8|0,1:0|0:0,0:0:0:0:
360,64,83847,1,8,0:0:0:0:
360,64,83936,1,8,1:0:0:0:
196,116,84112,1,8,0:0:0:0:
196,116,84200,1,8,0:0:0:0:
196,116,84289,6,0,P|172:160|152:228,1,100,8|0,1:0|0:0,0:0:0:0:
168,344,84642,1,8,1:0:0:0:
44,288,84818,1,8,0:0:0:0:
44,288,84906,1,8,0:0:0:0:
44,288,84994,1,2,0:0:0:0:
156,212,85171,1,2,0:0:0:0:
168,344,85347,2,0,P|248:348|300:288,1,150,2|0,0:0|0:0,0:0:0:0:
296,224,85700,6,0,L|384:316,1,100,4|0,0:0|0:0,0:0:0:0:
252,128,86053,2,0,L|360:160,1,100,8|8,0:0|0:1,0:0:0:0:
180,36,86406,2,0,L|248:44,1,50,8|8,0:0|0:0,0:0:0:0:
328,48,86583,1,8,0:0:0:0:
252,128,86759,1,8,0:1:0:0:
180,36,86936,6,0,L|68:104,1,100,8|0,0:0|0:0,0:0:0:0:
172,152,87289,2,0,L|128:248,1,100,8|0,0:0|0:0,0:0:0:0:
116,272,87553,1,8,0:0:0:0:
116,272,87642,1,8,0:1:0:0:
240,240,87818,2,0,L|288:348,1,100,8|0,0:0|0:0,0:0:0:0:
460,288,88171,2,0,L|348:244,1,100,8|0,0:0|0:0,0:0:0:0:
72,96,88524,5,4,0:0:0:0:
