osu file format v13

[General]
AudioFilename: Mashiro World.mp3
AudioLeadIn: 0
PreviewTime: 61874
Countdown: 0
SampleSet: Soft
StackLeniency: 0.7
Mode: 0
LetterboxInBreaks: 1
WidescreenStoryboard: 1

[Editor]
DistanceSpacing: 1
BeatDivisor: 4
GridSize: 4
TimelineZoom: 1

[Metadata]
Title:Masshiro World (TV Size)
TitleUnicode:まっしろわーるど (TV Size)
Artist:Mikakuning!
ArtistUnicode:みかくにんぐッ!
Creator:Shapy
Version:Normal
Source:未確認で進行形
Tags:anime ending opening mikakunin de shinkoukei
BeatmapID:401265
BeatmapSetID:162128

[Difficulty]
HPDrainRate:4
CircleSize:3
OverallDifficulty:4
ApproachRate:5
SliderMultiplier:1.2
SliderTickRate:1

[Events]
//Background and Video events
0,0,"BG.jpg",0,0
Video,82,"Mashiro World.avi"
//Break Periods
//Storyboard Layer 0 (Background)
//Storyboard Layer 1 (Fail)
//Storyboard Layer 2 (Pass)
//Storyboard Layer 3 (Foreground)
//Storyboard Sound Samples
//Background Colour Transformations
3,100,163,162,255

[TimingPoints]
4874,375,4,2,1,90,1,0
61874,-100,4,2,1,90,0,1
85874,-100,4,2,1,90,0,0
87374,-100,4,2,1,5,0,0

[Colours]
Combo1 : 108,255,255
Combo2 : 255,149,98
Combo3 : 183,115,115
Combo4 : 255,255,70

[HitObjects]
248,168,4874,5,4,0:0:0:0:
248,168,6374,1,4,0:0:0:0:
64,76,7874,6,0,P|64:136|104:176,1,120,6|0,0:0|0:0,0:0:0:0:
223,176,8624,2,0,P|248:122|227:67,1,120,6|0,0:0|0:0,0:0:0:0:
112,96,9374,2,0,B|72:152|72:152|108:220|108:220|64:248|128:296,1,240,6|0,0:0|0:0,0:0:0:0:
220,220,10499,1,0,0:0:0:0:
292,128,10874,6,0,P|348:144|372:208,1,120,4|0,0:0|0:0,0:0:0:0:
380,316,11624,2,0,P|320:328|260:320,1,120,8|0,0:0|0:0,0:0:0:0:
168,248,12374,1,4,0:0:0:0:
108,144,12749,1,8,0:0:0:0:
192,88,13124,2,0,P|256:80|308:108,1,120,8|0,0:0|0:0,0:0:0:0:
388,188,13874,5,4,0:0:0:0:
388,188,14249,2,0,P|324:208|292:248,1,120,8|0,0:0|0:0,0:0:0:0:
192,312,14999,1,8,0:0:0:0:
84,256,15374,6,0,B|128:152|148:112|148:112|240:108,1,240,4|0,0:0|0:0,0:0:0:0:
356,116,16499,1,8,0:0:0:0:
356,116,16874,2,0,B|388:164|364:188|364:188|308:224|308:224|320:260|252:288,1,240,4|0,0:0|0:0,0:0:0:0:
166,203,17999,2,8,P|142:147|154:87,2,120,0|8|8,0:0|0:0|0:0,0:0:0:0:
284,208,19124,2,0,P|307:262|276:320,1,120,8|0,0:0|0:0,0:0:0:0:
164,312,19874,1,4,0:0:0:0:
144,192,20249,2,0,P|100:140|100:88,2,120,8|0|8,0:0|0:0|0:0,0:0:0:0:
264,204,21374,6,0,P|320:168|328:112,1,120,4|0,0:0|0:0,0:0:0:0:
216,84,22124,2,0,B|116:72|92:92|92:92|80:140|80:208,1,240,8|4,0:0|0:0,0:0:0:0:
196,228,23249,2,0,B|228:248|260:208|260:208|320:208|320:208|376:176|340:120,1,240,8|0,0:0|0:0,0:0:0:0:
220,100,24374,2,0,P|160:108|112:148,2,120,2|0|2,0:0|0:0|0:0,0:0:0:0:
364,304,25874,5,4,0:0:0:0:
256,292,26249,2,0,P|196:308|148:280,1,120,8|0,0:0|0:0,0:0:0:0:
104,180,26999,1,8,0:0:0:0:
196,104,27374,2,0,P|232:136|304:128,1,120,4|0,0:0|0:0,0:0:0:0:
408,76,28124,2,0,P|424:136|400:192,1,120,8|0,0:0|0:0,0:0:0:0:
284,204,28874,6,0,P|224:192|160:208,1,120,4|0,0:0|0:0,0:0:0:0:
188,324,29624,1,8,0:0:0:0:
80,268,29999,1,8,0:0:0:0:
68,148,30374,2,0,P|168:120|300:144,1,240,4|0,0:0|0:0,0:0:0:0:
324,260,31499,1,8,0:0:0:0:
444,276,31874,6,0,P|460:216|436:156,2,120,4|0|0,0:0|0:0|0:0,0:0:0:0:
344,232,32999,1,8,0:0:0:0:
240,280,33374,2,0,P|228:224|260:168,1,120,4|0,0:0|0:0,0:0:0:0:
360,112,34124,2,0,P|316:72|248:72,1,120,8|0,0:0|0:0,0:0:0:0:
156,132,34874,5,4,0:0:0:0:
60,204,35249,1,8,0:0:0:0:
176,232,35624,2,0,L|296:232,1,120,8|0,0:0|0:0,0:0:0:0:
416,232,36374,2,0,P|364:136|244:96,1,240,4|0,0:0|0:0,0:0:0:0:
160,180,37499,1,8,0:0:0:0:
64,232,37874,6,0,P|100:276|168:284,1,120,4|0,0:0|0:0,0:0:0:0:
280,280,38624,2,0,P|332:276|388:236,1,120,8|0,0:0|0:0,0:0:0:0:
356,124,39374,2,0,P|312:80|256:72,1,120,4|0,0:0|0:0,0:0:0:0:
184,168,40124,1,8,0:0:0:0:
88,240,40499,1,8,0:0:0:0:
76,120,40874,6,0,P|112:76|176:56,1,120,4|0,0:0|0:0,0:0:0:0:
292,60,41624,2,8,L|348:172,1,120
388,260,42374,2,0,P|284:308|168:272,1,240,4|0,0:0|0:0,0:0:0:0:
328,92,43874,6,0,P|260:96|216:124,1,120,4|0,0:0|0:0,0:0:0:0:
276,228,44624,1,8,0:0:0:0:
380,300,44999,2,0,P|424:248|428:188,1,120,8|4,0:0|0:0,0:0:0:0:
308,204,45749,1,8,0:0:0:0:
188,204,46124,2,0,P|128:224|72:200,1,120,8|0,0:0|0:0,0:0:0:0:
128,100,46874,5,4,0:0:0:0:
244,92,47249,2,0,P|280:56|352:56,1,120,8|0,0:0|0:0,0:0:0:0:
432,140,47999,1,8,0:0:0:0:
356,232,48374,2,0,B|288:212|272:292|200:284|196:224|108:240,1,240,4|0,0:0|0:0,0:0:0:0:
48,144,49499,1,8,0:0:0:0:
152,84,49874,6,0,B|220:96|260:64|260:64|288:40|352:48|360:104,1,240,4|0,0:0|0:0,0:0:0:0:
368,220,50999,1,8,0:0:0:0:
284,308,51374,2,0,B|252:252|216:236|164:272|164:272|100:280|88:216,1,240,4|0,0:0|0:0,0:0:0:0:
292,96,52874,6,0,P|232:72|180:92,1,120,8|0,0:0|0:0,0:0:0:0:
184,212,53624,2,0,P|237:235|293:218,1,120,8|0,0:0|0:0,0:0:0:0:
320,336,54374,2,0,L|440:336,1,120,8|0,0:0|0:0,0:0:0:0:
436,216,55124,1,0,0:0:0:0:
400,100,55499,1,4,0:0:0:0:
316,188,55874,6,4,P|260:204|200:188,1,120,4|0,0:0|0:0,0:0:0:0:
124,100,56624,1,8,0:0:0:0:
68,208,56999,1,0,0:0:0:0:
168,276,57374,2,0,P|224:296|288:280,1,120,4|0,0:0|0:0,0:0:0:0:
396,256,58124,2,0,P|360:200|308:172,1,120,8|0,0:0|0:0,0:0:0:0:
200,144,58874,5,4,0:0:0:0:
104,76,59249,1,8,0:0:0:0:
204,36,59624,2,0,P|292:44|356:108,2,180,4|0|0,0:0|0:0|0:0,0:0:0:0:
90,75,61124,2,0,P|58:127|78:187,1,120,8|2,0:0|0:0,0:0:0:0:
184,136,61874,5,6,0:0:0:0:
301,107,62249,1,0,0:0:0:0:
280,200,62624,2,0,P|228:236|172:236,1,120,8|0,0:0|0:0,0:0:0:0:
140,120,63374,2,0,P|196:88|256:96,1,120,8|0,0:0|0:0,0:0:0:0:
364,128,64124,2,0,P|376:188|352:244,1,120,8|0,0:0|0:0,0:0:0:0:
236,252,64874,5,4,0:0:0:0:
116,252,65249,2,0,P|76:204|92:148,1,120,8|0,0:0|0:0,0:0:0:0:
196,100,65999,2,0,P|256:84|316:108,1,120,8|0,0:0|0:0,0:0:0:0:
360,212,66749,1,8,0:0:0:0:
248,248,67124,1,0,0:0:0:0:
144,188,67499,1,8,0:0:0:0:
60,104,67874,6,0,P|28:160|52:220,1,120,4|0,0:0|0:0,0:0:0:0:
116,304,68624,2,0,B|164:332|164:332|228:332,1,120,8|0,0:0|0:0,0:0:0:0:
252,216,69374,1,8,0:0:0:0:
308,112,69749,2,0,P|348:148|368:212,2,120,0|0|8,0:0|0:0|0:0,0:0:0:0:
188,120,70874,5,4,0:0:0:0:
188,120,71249,2,0,P|144:160|128:217,1,120,8|0,0:0|0:0,0:0:0:0:
244,244,71999,1,8,0:0:0:0:
316,148,72374,1,0,0:0:0:0:
220,76,72749,2,0,P|112:132|88:240,1,240,8|0,0:0|0:0,0:0:0:0:
208,260,73874,6,0,B|264:184|328:176|328:176|360:152|336:92,1,240,4|0,0:0|0:0,0:0:0:0:
216,104,74999,1,8,0:0:0:0:
96,92,75374,2,0,B|52:140|124:164|96:192|96:192|48:232|116:240|76:316,1,240,4|0,0:0|0:0,0:0:0:0:
200,312,76499,1,8,0:0:0:0:
304,252,76874,6,0,P|336:196|320:136,2,120,4|0|0,0:0|0:0|0:0,0:0:0:0:
208,184,77999,2,0,P|152:188|100:228,1,120,8|0,0:0|0:0,0:0:0:0:
180,316,78749,1,8,0:0:0:0:
288,264,79124,1,0,0:0:0:0:
336,156,79499,1,8,0:0:0:0:
216,152,79874,6,0,P|160:168|100:152,2,120,4|0|8,0:0|0:0|0:0,0:0:0:0:
148,52,80999,1,0,0:0:0:0:
268,52,81374,2,0,P|364:140|344:244,1,240,4|0,0:0|0:0,0:0:0:0:
228,248,82499,1,8,0:0:0:0:
108,248,82874,6,0,P|104:188|128:132,1,120,4|0,0:0|0:0,0:0:0:0:
244,104,83624,1,8,0:0:0:0:
356,152,83999,2,0,P|320:208|268:232,1,120,0|4,0:0|0:0,0:0:0:0:
164,180,84749,2,0,P|148:240|168:296,1,120,8|0,0:0|0:0,0:0:0:0:
288,284,85499,1,8,0:0:0:0:
256,192,85874,12,0,87374,0:0:0:0:
