osu file format v12

[General]
AudioFilename: Mashiro World (TV size).mp3
AudioLeadIn: 0
PreviewTime: 61804
Countdown: 0
SampleSet: Soft
StackLeniency: 0.7
Mode: 0
LetterboxInBreaks: 1
WidescreenStoryboard: 1

[Editor]
DistanceSpacing: 1.2
BeatDivisor: 4
GridSize: 32
TimelineZoom: 2.2

[Metadata]
Title:Masshiro World (TV Size)
TitleUnicode:まっしろわーるど (TV Size)
Artist:Mikakuning!
ArtistUnicode:みかくにんぐッ!
Creator:P A N
Version:Insane
Source:未確認で進行形
Tags:mikakunin de shinkoukei junky haruka terui eriko matsui yuuri yoshida 照井春佳 松井恵理子 吉田有里 ending
BeatmapID:368697
BeatmapSetID:144269

[Difficulty]
HPDrainRate:7
CircleSize:4
OverallDifficulty:7
ApproachRate:9
SliderMultiplier:1.8
SliderTickRate:1

[Events]
//Background and Video events
Video,370,"Mashiro World (TV size).avi"
0,0,"bg2.jpg",0,0
//Break Periods
//Storyboard Layer 0 (Background)
//Storyboard Layer 1 (Fail)
//Storyboard Layer 2 (Pass)
//Storyboard Layer 3 (Foreground)
//Storyboard Sound Samples
//Background Colour Transformations
3,100,163,162,255

[TimingPoints]
4898,375,4,2,1,80,1,0
10898,-100,4,2,2,70,0,0
23085,-100,4,2,1,70,0,0
25523,-133.333333333333,4,2,1,80,0,0
25898,-100,4,2,1,80,0,0
31523,-133.333333333333,4,2,1,80,0,0
31898,-100,4,2,1,80,0,0
37148,-100,4,2,1,50,0,0
37898,-100,4,2,1,80,0,0
60585,-100,4,2,4,80,0,0
61335,-100,4,2,1,40,0,0
61523,-100,4,2,1,30,0,0
61710,-100,4,2,1,20,0,0
61898,-100,4,2,1,80,0,1
65179,-100,4,2,1,5,0,1
65273,-100,4,2,1,80,0,1
73335,-100,4,2,1,50,0,1
73898,-100,4,2,1,80,0,1
85898,-100,4,2,1,80,0,0
87398,-100,4,2,1,5,0,0

[Colours]
Combo1 : 149,149,255
Combo2 : 255,128,128
Combo3 : 255,128,64

[HitObjects]
122,126,4898,5,6,0:0:0:0:
220,83,5085,1,0,0:0:0:0:
129,23,5273,1,0,0:0:0:0:
75,29,5366,2,0,P|31:59|20:104,1,90
18,146,5648,5,0,0:0:0:0:
129,23,5835,1,0,0:0:0:0:
189,182,6023,1,0,0:0:0:0:
189,182,6116,1,0,0:0:0:0:
189,182,6210,1,0,0:0:0:0:
302,92,6398,6,0,P|299:57|289:35,1,45,6|0,0:0|0:0,0:0:0:0:
220,83,6585,1,0,0:0:0:0:
253,157,6679,2,0,P|289:174|345:162,1,90
377,131,6960,1,0,0:0:0:0:
390,78,7054,1,0,0:0:0:0:
364,30,7148,5,2,0:0:0:0:
220,83,7335,1,2,0:0:0:0:
337,167,7523,1,0,0:0:0:0:
416,59,7710,1,0,0:0:0:0:
96,59,7898,5,6,0:0:0:0:
258,334,8273,1,0,0:0:0:0:
416,59,8648,1,6,0:0:0:0:
96,59,9023,1,0,0:0:0:0:
258,334,9398,5,4,1:0:0:0:
282,307,9491,1,0,1:0:0:0:
315,319,9585,1,0,1:0:0:0:
335,289,9679,1,0,1:0:0:0:
367,304,9773,1,0,1:0:0:0:
385,273,9866,1,0,1:0:0:0:
416,290,9960,1,0,1:0:0:0:
435,259,10054,1,0,1:0:0:0:
464,279,10148,5,4,1:0:0:0:
416,59,10523,1,2,3:0:0:0:
312,35,10710,1,0,0:0:0:0:
240,114,10898,6,0,P|155:154|79:114,1,180,6|10,0:0|0:0,0:0:0:0:
159,41,11460,1,0,0:0:0:0:
248,222,11648,1,2,0:0:0:0:
325,55,11835,1,0,0:0:0:0:
421,185,12023,1,8,0:0:0:0:
505,60,12210,1,0,0:0:0:0:
460,295,12398,6,0,P|394:317|294:259,1,180,2|8,0:0|0:0,0:0:0:0:
233,113,12960,1,0,0:0:0:0:
192,277,13148,1,2,0:0:0:0:
327,165,13335,1,0,0:0:0:0:
150,177,13523,1,8,0:0:0:0:
300,269,13710,1,0,0:0:0:0:
318,75,13898,6,0,P|256:27|156:57,1,180,2|10,0:0|0:0,0:0:0:0:
150,177,14460,1,0,0:0:0:0:
327,165,14648,2,0,L|419:151,1,90,2|0,0:0|0:0,0:0:0:0:
300,269,15023,2,0,L|398:286,1,90,8|0,0:0|0:0,0:0:0:0:
192,277,15398,5,2,0:0:0:0:
327,165,15585,1,0,0:0:0:0:
150,177,15773,1,8,0:0:0:0:
327,165,15960,1,0,0:0:0:0:
300,269,16148,1,2,0:0:0:0:
300,269,16241,1,8,0:0:0:0:
300,269,16335,1,2,0:0:0:0:
234,103,16523,1,8,0:0:0:0:
192,277,16710,1,2,0:0:0:0:
327,165,16898,6,0,P|394:202|404:311,1,180,6|10,0:0|0:0,0:0:0:0:
333,374,17460,1,0,0:0:0:0:
142,343,17648,2,0,L|232:332,1,90,2|0,0:0|0:0,0:0:0:0:
115,237,18023,2,0,L|26:227,1,90,8|0,0:0|0:0,0:0:0:0:
183,153,18398,6,0,L|372:140,1,180,2|10,0:0|0:0,0:0:0:0:
470,135,18960,1,0,0:0:0:0:
366,257,19148,1,2,0:0:0:0:
512,296,19335,1,0,0:0:0:0:
395,337,19523,1,8,0:0:0:0:
496,215,19710,1,0,0:0:0:0:
305,320,19898,6,0,P|223:340|138:289,1,180,2|10,0:0|0:0,0:0:0:0:
37,195,20460,1,0,0:0:0:0:
139,31,20648,1,2,0:0:0:0:
226,178,20835,1,0,0:0:0:0:
323,49,21023,1,8,0:0:0:0:
412,151,21210,1,0,0:0:0:0:
494,61,21398,5,2,0:0:0:0:
435,147,21585,1,0,0:0:0:0:
352,50,21773,1,12,0:0:0:0:
297,191,21960,1,0,0:0:0:0:
209,38,22148,1,2,0:0:0:0:
160,235,22335,1,0,0:0:0:0:
67,28,22523,2,0,P|46:70|52:124,1,90,12|0,0:0|0:0,0:0:0:0:
97,300,22898,5,12,0:0:0:0:
252,165,23085,1,2,0:0:0:0:
70,206,23273,1,8,0:0:0:0:
195,335,23460,1,2,0:0:0:0:
149,138,23648,1,8,0:0:0:0:
97,300,23835,1,2,0:0:0:0:
274,262,24023,1,8,0:0:0:0:
149,138,24210,1,2,0:0:0:0:
195,335,24398,5,8,0:0:0:0:
241,362,24491,1,8,3:0:0:0:
294,368,24585,1,8,3:0:0:0:
345,351,24679,1,8,3:0:0:0:
376,307,24773,1,8,0:0:0:0:
389,255,24866,1,8,0:0:0:0:
407,203,24960,1,8,3:0:0:0:
452,173,25054,1,8,3:0:0:0:
505,169,25148,1,8,0:0:0:0:
142,239,25523,6,0,L|149:131,1,101.250003862381,2|0,0:0|0:0,0:0:0:0:
175,91,25898,5,12,0:0:0:0:
222,66,25991,1,0,0:0:0:0:
276,63,26085,1,2,0:0:0:0:
327,79,26179,1,0,0:0:0:0:
363,119,26273,1,8,0:0:0:0:
379,261,26460,6,0,L|376:314,1,45,2|0,0:0|0:0,0:0:0:0:
308,359,26648,1,8,0:0:0:0:
253,178,26835,1,2,0:0:0:0:
452,231,27023,1,8,0:0:0:0:
277,269,27210,1,2,0:0:0:0:
225,92,27398,5,8,0:0:0:0:
96,214,27585,1,2,0:0:0:0:
277,269,27773,1,8,0:0:0:0:
205,327,27960,1,2,0:0:0:0:
205,327,28054,1,2,0:0:0:0:
205,327,28148,1,8,0:0:0:0:
296,360,28335,1,2,0:0:0:0:
277,269,28523,1,8,0:0:0:0:
205,327,28710,1,2,0:0:0:0:
365,301,28898,6,0,P|365:235|314:185,1,135,8|0,0:0|0:0,0:0:0:0:
320,188,29273,1,8,0:0:0:0:
277,269,29460,1,2,0:0:0:0:
189,235,29648,2,0,P|173:196|188:136,1,90,8|2,0:0|0:0,0:0:0:0:
205,327,30023,2,0,P|159:326|119:298,1,90,8|2,0:0|0:0,0:0:0:0:
277,269,30398,6,0,L|462:282,1,180,8|8,0:0|0:0,0:0:0:0:
387,172,30960,1,2,0:0:0:0:
494,98,31148,1,8,0:0:0:0:
380,36,31335,1,8,3:0:0:0:
380,36,31429,1,8,3:0:0:0:
380,36,31523,6,0,P|331:47|282:34,1,101.250003862381
229,22,31898,5,4,0:0:0:0:
175,20,31991,1,0,0:0:0:0:
125,41,32085,1,2,0:0:0:0:
91,83,32179,1,0,0:0:0:0:
80,136,32273,1,8,0:0:0:0:
88,188,32366,2,0,P|112:228|153:247,1,90,2|0,0:0|0:0,0:0:0:0:
150,246,32648,1,8,0:0:0:0:
190,129,32835,1,2,0:0:0:0:
10,175,33023,2,0,P|11:206|24:229,1,45,8|0,0:0|0:0,0:0:0:0:
48,261,33210,1,2,0:0:0:0:
224,212,33398,5,8,0:0:0:0:
91,83,33585,1,2,0:0:0:0:
91,83,33679,1,0,0:0:0:0:
91,83,33773,1,8,0:0:0:0:
49,261,33960,2,0,P|57:284|81:302,1,45,2|0,0:0|0:0,0:0:0:0:
112,334,34148,1,8,0:0:0:0:
165,340,34241,2,0,P|209:330|260:346,1,90
302,354,34523,2,0,L|292:258,1,90,8|2,0:0|0:0,0:0:0:0:
305,184,34804,1,0,0:0:0:0:
356,120,34898,6,0,P|397:110|452:129,1,90,8|0,0:0|0:0,0:0:0:0:
397,257,35273,1,8,0:0:0:0:
507,89,35460,1,2,0:0:0:0:
275,109,35648,2,0,P|233:146|243:236,1,135,8|0,0:0|0:0,0:0:0:0:
301,261,36023,2,0,P|345:255|376:215,1,90,8|2,0:0|0:0,0:0:0:0:
329,44,36398,2,0,B|279:21|279:21|147:27,1,180,8|8,0:0|0:0,0:0:0:0:
46,37,36960,1,0,0:0:0:0:
17,141,37148,5,8,3:0:0:0:
26,193,37241,1,8,3:0:0:0:
60,235,37335,1,8,3:0:0:0:
112,248,37429,1,8,3:0:0:0:
163,232,37523,5,8,3:0:0:0:
216,231,37616,1,8,3:0:0:0:
267,247,37710,1,8,3:0:0:0:
303,286,37804,1,8,3:0:0:0:
329,333,37898,6,0,P|382:345|425:325,1,90,6|0,0:0|0:0,0:0:0:0:
455,298,38179,1,0,0:0:0:0:
467,245,38273,2,0,L|456:154,1,90,8|0,0:0|0:0,0:0:0:0:
429,107,38554,1,0,0:0:0:0:
381,81,38648,2,0,P|334:82|292:109,1,90,2|0,0:0|0:0,0:0:0:0:
374,198,39023,1,8,0:0:0:0:
440,21,39210,1,0,0:0:0:0:
245,45,39398,5,2,0:0:0:0:
245,45,39491,1,0,0:0:0:0:
245,45,39585,2,0,P|199:62|152:55,1,90,0|8,0:0|0:0,0:0:0:0:
111,31,39866,1,0,0:0:0:0:
58,45,39960,2,0,P|46:87|55:137,1,90,0|2,0:0|0:0,0:0:0:0:
101,229,40335,1,0,0:0:0:0:
94,337,40523,1,8,0:0:0:0:
94,337,40616,1,0,0:0:0:0:
94,337,40710,1,0,0:0:0:0:
202,332,40898,6,0,P|245:320|304:335,1,90,2|0,0:0|0:0,0:0:0:0:
101,229,41273,2,0,P|55:232|13:268,1,90,8|0,0:0|0:0,0:0:0:0:
243,200,41648,2,0,P|290:207|325:238,1,90,2|0,0:0|0:0,0:0:0:0:
150,97,42023,2,0,P|105:86|62:94,1,90,8|0,0:0|0:0,0:0:0:0:
286,53,42398,6,0,P|364:64|399:155,1,180,2|8,0:0|0:0,0:0:0:0:
313,135,42960,1,0,0:0:0:0:
150,97,43148,1,2,0:0:0:0:
231,116,43335,1,2,0:0:0:0:
69,77,43523,1,8,0:0:0:0:
69,77,43616,1,0,0:0:0:0:
69,77,43710,1,8,0:0:0:0:
98,270,43898,6,0,L|163:264,1,45,4|0,0:0|0:0,0:0:0:0:
198,258,44085,1,0,0:0:0:0:
252,253,44179,1,0,0:0:0:0:
305,247,44273,2,0,L|395:241,1,90,8|0,0:0|0:0,0:0:0:0:
486,137,44648,1,2,0:0:0:0:
344,110,44835,1,0,0:0:0:0:
395,241,45023,1,8,0:0:0:0:
395,241,45116,1,0,0:0:0:0:
395,241,45210,1,0,0:0:0:0:
424,78,45398,5,2,0:0:0:0:
267,143,45585,1,0,0:0:0:0:
410,160,45773,1,8,0:0:0:0:
357,30,45960,1,2,0:0:0:0:
331,193,46148,1,2,0:0:0:0:
486,137,46335,1,0,0:0:0:0:
460,294,46523,1,8,0:0:0:0:
460,294,46616,1,0,0:0:0:0:
460,294,46710,1,0,0:0:0:0:
308,278,46898,5,2,0:0:0:0:
331,193,47085,1,0,0:0:0:0:
247,212,47273,2,0,P|218:251|222:304,1,90,8|0,0:0|0:0,0:0:0:0:
392,261,47648,2,0,P|420:224|418:174,1,90,2|0,0:0|0:0,0:0:0:0:
272,130,48023,2,0,B|230:126|230:126|176:141,1,90,8|0,0:0|0:0,0:0:0:0:
331,193,48398,2,0,B|355:141|355:141|356:59|268:43,1,180,2|8,0:0|0:0,0:0:0:0:
183,61,48960,1,0,0:0:0:0:
272,130,49148,5,8,0:0:0:0:
324,120,49241,1,8,0:0:0:0:
377,110,49335,1,8,0:0:0:0:
183,61,49523,1,8,0:0:0:0:
130,69,49616,1,8,0:0:0:0:
77,82,49710,1,8,0:0:0:0:
33,181,49898,5,12,0:0:0:0:
112,253,50085,1,0,0:0:0:0:
213,216,50273,2,0,P|254:204|307:227,1,90,8|2,0:0|0:0,0:0:0:0:
388,278,50648,1,8,0:0:0:0:
295,332,50835,1,2,0:0:0:0:
188,315,51023,2,0,P|128:285|109:216,1,135,8|0,0:0|0:0,0:0:0:0:
108,223,51398,5,8,0:0:0:0:
191,109,51585,2,0,P|234:105|279:141,1,90,2|8,0:0|0:0,0:0:0:0:
322,227,51960,1,2,0:0:0:0:
295,332,52148,1,8,0:0:0:0:
191,109,52335,1,2,0:0:0:0:
214,217,52523,1,8,0:0:0:0:
377,55,52710,1,2,0:0:0:0:
343,159,52898,6,0,L|288:358,1,180,8|8,0:0|0:0,0:0:0:0:
177,40,53648,2,0,L|214:217,1,180,8|8,0:0|0:0,0:0:0:0:
238,321,54210,1,2,0:0:0:0:
344,299,54398,6,0,P|394:291|445:308,1,90,12|0,0:0|0:0,0:0:0:0:
431,300,54679,1,2,0:0:0:0:
431,300,54773,1,8,0:0:0:0:
238,321,54960,1,0,0:0:0:0:
121,291,55148,1,10,0:0:0:0:
271,218,55335,1,2,0:0:0:0:
83,188,55523,1,2,0:0:0:0:
302,119,55710,1,2,0:0:0:0:
43,89,55898,6,0,L|235:67,1,180,4|8,0:0|0:0,0:0:0:0:
481,142,56648,2,0,L|290:118,1,180,8|8,0:0|0:0,0:0:0:0:
195,104,57210,1,2,0:0:0:0:
112,173,57398,2,0,P|104:228|122:268,1,90,8|2,0:0|0:0,0:0:0:0:
301,141,57773,2,0,P|309:86|291:46,1,90,8|2,0:0|0:0,0:0:0:0:
94,64,58148,1,8,0:0:0:0:
94,64,58241,1,8,0:0:0:0:
94,64,58335,1,8,0:0:0:0:
220,213,58523,1,8,0:0:0:0:
276,38,58710,1,2,0:0:0:0:
112,173,58898,6,0,P|103:218|117:258,1,90,2|2,0:0|0:0,0:0:0:0:
146,298,59179,1,2,0:0:0:0:
191,317,59273,2,0,P|252:322|330:232,1,180,8|2,0:0|0:0,0:0:0:0:
329,187,59741,2,0,P|310:142|254:116,1,90,8|0,0:0|0:0,0:0:0:0:
223,105,60023,1,2,0:0:0:0:
94,281,60210,1,8,0:0:0:0:
94,281,60585,5,2,0:0:0:0:
223,106,60773,1,0,0:0:0:0:
221,270,60960,1,2,0:0:0:0:
101,80,61148,1,6,0:0:0:0:
223,106,61335,5,4,3:0:0:0:
351,136,61523,1,4,3:0:0:0:
478,163,61710,1,4,3:0:0:0:
464,292,61898,6,0,P|423:274|392:213,1,90,6|0,0:0|0:0,0:0:0:0:
351,136,62273,2,0,P|310:158|293:204,1,90,8|0,0:0|0:0,0:0:0:0:
286,304,62648,2,0,P|208:269|184:158,1,180,2|8,0:0|0:0,0:0:0:0:
351,136,63210,1,0,0:0:0:0:
286,304,63398,6,0,P|230:327|122:284,1,180,2|8,0:0|0:0,0:0:0:0:
76,187,63960,1,0,0:0:0:0:
165,126,64148,1,2,0:0:0:0:
212,222,64335,1,2,0:0:0:0:
68,90,64523,1,8,0:0:0:0:
68,90,64616,1,0,0:0:0:0:
68,90,64710,1,0,0:0:0:0:
256,46,64898,6,0,P|340:69|372:128,1,135,6|8,0:0|0:0,0:0:0:0:
377,158,65273,1,8,0:0:0:0:
282,240,65460,2,0,P|262:192|279:136,1,90,2|0,0:0|0:0,0:0:0:0:
447,221,65835,1,0,0:0:0:0:
347,351,66023,1,8,0:0:0:0:
361,180,66210,2,0,P|399:139|521:163,1,180,2|2,0:0|0:0,0:0:0:0:
388,331,66773,6,0,P|346:350|283:332,1,90,8|0,0:0|0:0,0:0:0:0:
228,317,67054,1,8,0:0:0:0:
174,257,67148,2,0,P|164:218|185:164,1,90,2|8,0:0|0:0,0:0:0:0:
146,331,67523,2,0,P|93:349|21:309,1,135,8|2,0:0|0:0,0:0:0:0:
12,238,67898,6,0,L|18:146,1,90,4|0,0:0|0:0,0:0:0:0:
27,40,68273,1,8,0:0:0:0:
99,222,68460,1,0,0:0:0:0:
107,113,68648,2,0,L|114:24,1,90,2|0,0:0|0:0,0:0:0:0:
191,100,69023,1,8,0:0:0:0:
267,24,69210,1,0,0:0:0:0:
315,121,69398,6,0,L|413:130,1,90,2|0,0:0|0:0,0:0:0:0:
512,144,69773,1,8,0:0:0:0:
308,207,69960,1,0,0:0:0:0:
415,218,70148,2,0,L|513:227,1,90,2|0,0:0|0:0,0:0:0:0:
371,360,70523,2,0,P|324:316|314:244,1,135,8|0,0:0|0:0,0:0:0:0:
290,171,70898,6,0,P|265:129|215:113,1,90,6|0,0:0|0:0,0:0:0:0:
187,213,71273,1,8,0:0:0:0:
367,148,71460,2,0,P|322:71|236:37,1,180,2|2,0:0|0:0,0:0:0:0:
132,40,72023,1,8,0:0:0:0:
15,174,72210,1,0,0:0:0:0:
15,174,72304,1,8,0:0:0:0:
15,174,72398,1,8,0:0:0:0:
187,213,72585,1,2,0:0:0:0:
55,83,72773,1,8,0:0:0:0:
42,259,72960,6,0,P|67:326|170:363,1,180,6|8,0:0|3:0,0:0:0:0:
216,365,73429,1,8,3:0:0:0:
268,351,73523,1,8,3:0:0:0:
312,321,73616,1,8,3:0:0:0:
339,274,73710,1,8,3:0:0:0:
355,222,73804,1,8,3:0:0:0:
353,167,73898,6,0,P|334:120|297:91,1,90,6|0,0:0|0:0,0:0:0:0:
244,184,74273,1,8,0:0:0:0:
141,66,74460,1,0,0:0:0:0:
74,226,74648,2,0,P|84:293|187:352,1,180,2|8,0:0|0:0,0:0:0:0:
256,283,75210,1,2,0:0:0:0:
437,225,75398,6,0,P|416:310|339:351,1,180,2|8,0:0|0:0,0:0:0:0:
256,283,75960,2,0,L|256:189,1,90,0|2,0:0|0:0,0:0:0:0:
332,40,76335,1,2,0:0:0:0:
437,226,76523,1,8,0:0:0:0:
484,107,76710,1,0,0:0:0:0:
484,107,76804,1,0,0:0:0:0:
484,107,76898,6,0,P|392:104|321:183,1,180,6|8,0:0|0:0,0:0:0:0:
336,268,77460,2,0,P|364:315|403:328,1,90,0|2,0:0|0:0,0:0:0:0:
438,226,77835,1,2,0:0:0:0:
251,194,78023,2,0,P|225:246|236:294,1,90,8|0,0:0|0:0,0:0:0:0:
336,268,78398,1,2,0:0:0:0:
292,83,78585,1,2,0:0:0:0:
464,135,78773,6,0,L|282:81,1,180,8|2,0:0|0:0,0:0:0:0:
183,106,79335,1,2,0:0:0:0:
53,141,79523,2,0,L|184:105,1,135,8|0,0:0|0:0,0:0:0:0:
183,106,79898,5,6,0:0:0:0:
292,83,80085,1,0,0:0:0:0:
255,190,80273,2,0,P|208:217|157:207,1,90,8|0,0:0|0:0,0:0:0:0:
292,83,80648,2,0,P|334:99|361:145,1,90,2|0,0:0|0:0,0:0:0:0:
183,106,81023,2,0,P|177:56|203:13,1,90,8|0,0:0|0:0,0:0:0:0:
359,224,81398,6,0,P|304:292|206:285,1,180,2|8,0:0|0:0,0:0:0:0:
373,131,81960,1,0,0:0:0:0:
450,185,82148,1,2,0:0:0:0:
336,355,82335,5,8,0:0:0:0:
292,83,82523,1,8,0:0:0:0:
256,191,82710,1,2,0:0:0:0:
398,42,82898,6,0,P|463:99|450:185,1,180,6|2,0:0|0:0,0:0:0:0:
256,191,83460,2,0,P|170:162|88:227,1,180,8|8,0:0|0:0,0:0:0:0:
188,267,84023,1,2,0:0:0:0:
292,83,84210,1,8,0:0:0:0:
79,93,84398,1,12,0:0:0:0:
79,93,84491,1,6,0:0:0:0:
79,93,84585,1,8,0:0:0:0:
290,300,84773,5,8,0:0:0:0:
340,109,84960,1,8,0:0:0:0:
340,109,85054,1,8,0:0:0:0:
340,109,85148,1,8,0:0:0:0:
482,259,85335,1,2,0:0:0:0:
256,192,85523,1,8,0:0:0:0:
453,149,85710,1,2,0:0:0:0:
400,337,85898,1,6,0:0:0:0:
256,192,85991,12,0,87398,0:0:0:0:
