osu file format v12

[General]
AudioFilename: Mashiro World (TV size).mp3
AudioLeadIn: 0
PreviewTime: 61804
Countdown: 0
SampleSet: Soft
StackLeniency: 0.7
Mode: 0
LetterboxInBreaks: 1
WidescreenStoryboard: 1

[Editor]
Bookmarks: 53648,85523
DistanceSpacing: 1.2
BeatDivisor: 4
GridSize: 32
TimelineZoom: 1

[Metadata]
Title:Masshiro World (TV Size)
TitleUnicode:まっしろわーるど (TV Size)
Artist:Mikakuning!
ArtistUnicode:みかくにんぐッ!
Creator:P A N
Version:Hard
Source:未確認で進行形
Tags:mikakunin de shinkoukei junky haruka terui eriko matsui yuuri yoshida 照井春佳 松井恵理子 吉田有里 ending
BeatmapID:368691
BeatmapSetID:144269

[Difficulty]
HPDrainRate:6
CircleSize:4
OverallDifficulty:6
ApproachRate:8
SliderMultiplier:1.5
SliderTickRate:1

[Events]
//Background and Video events
Video,370,"Mashiro World (TV size).avi"
0,0,"bg2.jpg",0,0
//Break Periods
//Storyboard Layer 0 (Background)
//Storyboard Layer 1 (Fail)
//Storyboard Layer 2 (Pass)
//Storyboard Layer 3 (Foreground)
//Storyboard Sound Samples
//Background Colour Transformations
3,100,163,162,255

[TimingPoints]
4898,375,4,2,1,80,1,0
10898,-100,4,2,2,70,0,0
25148,-133.333333333333,4,2,1,80,0,0
25898,-100,4,2,1,80,0,0
60116,-100,4,2,1,5,0,0
60210,-100,4,2,1,80,0,0
60585,-100,4,2,4,80,0,0
60773,-100,4,2,1,80,0,0
60960,-100,4,2,4,80,0,0
61148,-100,4,2,1,80,0,0
61335,-100,4,2,1,40,0,0
61429,-100,4,2,1,5,0,0
61523,-100,4,2,1,40,0,0
61616,-100,4,2,1,5,0,0
61710,-100,4,2,1,40,0,0
61804,-100,4,2,1,5,0,0
61898,-100,4,2,1,80,0,1
73335,-100,4,2,1,50,0,1
73898,-100,4,2,1,80,0,1
85898,-100,4,2,1,80,0,0
87398,-100,4,2,1,5,0,0

[Colours]
Combo1 : 149,149,255
Combo2 : 255,128,128
Combo3 : 255,128,64

[HitObjects]
256,51,4898,5,6,0:0:0:0:
256,333,6398,1,6,0:0:0:0:
256,51,7898,5,6,0:0:0:0:
144,192,8273,1,0,0:0:0:0:
256,333,8648,1,6,0:0:0:0:
368,191,9023,1,0,0:0:0:0:
256,51,9398,6,0,L|210:58,3,37.5,12|0|0|0,3:0|3:0|3:0|3:0,0:0:0:0:
173,58,9773,2,0,L|133:52,3,37.5,0|0|0|0,3:0|3:0|3:0|3:0,0:0:0:0:
91,58,10148,1,4,3:0:0:0:
335,322,10898,6,0,P|399:334|466:265,1,150,6|10,0:0|0:0,0:0:0:0:
428,105,11648,2,0,L|419:28,1,75,2|0,0:0|0:0,0:0:0:0:
331,52,12023,2,0,L|339:130,1,75,8|0,0:0|0:0,0:0:0:0:
303,209,12398,6,0,P|240:246|161:219,1,150,2|10,0:0|0:0,0:0:0:0:
183,47,13148,2,0,L|260:51,1,75,2|0,0:0|0:0,0:0:0:0:
348,55,13523,2,0,L|442:60,1,75,8|0,0:0|0:0,0:0:0:0:
488,120,13898,6,0,P|463:177|485:262,1,150,2|10,0:0|0:0,0:0:0:0:
325,347,14648,2,0,P|284:355|241:330,1,75,2|0,0:0|0:0,0:0:0:0:
296,263,15023,2,0,P|310:226|303:178,1,75,8|0,0:0|0:0,0:0:0:0:
301,102,15398,5,2,0:0:0:0:
230,46,15585,1,0,0:0:0:0:
140,34,15773,1,8,0:0:0:0:
52,53,15960,1,0,0:0:0:0:
3,129,16148,2,0,L|6:211,1,75,2|8,0:0|0:0,0:0:0:0:
95,211,16523,2,0,L|114:289,1,75,8|0,0:0|0:0,0:0:0:0:
179,344,16898,6,0,P|232:323|326:346,1,150,6|10,0:0|0:0,0:0:0:0:
272,168,17648,2,0,P|232:178|194:167,1,75,2|0,0:0|0:0,0:0:0:0:
237,88,18023,2,0,P|276:79|313:89,1,75,8|0,0:0|0:0,0:0:0:0:
363,159,18398,6,0,P|347:228|272:260,1,150,2|10,0:0|0:0,0:0:0:0:
325,86,19148,2,0,P|368:79|406:89,1,75,2|0,0:0|0:0,0:0:0:0:
444,163,19523,2,0,P|432:206|403:230,1,75,8|0,0:0|0:0,0:0:0:0:
320,234,19898,6,0,B|277:206|278:157|278:157|250:147|207:165,1,150,2|10,0:0|0:0,0:0:0:0:
394,206,20648,2,0,P|401:255|377:289,1,75,2|0,0:0|0:0,0:0:0:0:
307,312,21023,2,0,P|268:299|246:264,1,75,8|0,0:0|0:0,0:0:0:0:
249,182,21398,5,2,0:0:0:0:
249,182,21585,1,0,0:0:0:0:
330,142,21773,1,12,0:0:0:0:
330,142,21960,1,0,0:0:0:0:
393,206,22148,2,0,P|416:166|416:126,1,75,2|0,0:0|0:0,0:0:0:0:
368,62,22523,2,0,P|328:55|289:64,1,75,12|0,0:0|0:0,0:0:0:0:
241,134,22898,6,0,B|227:183|251:220|251:220|282:210|333:231,1,150,12|8,0:0|0:0,0:0:0:0:
253,51,23648,2,0,P|214:62|159:44,1,75,8|0,0:0|0:0,0:0:0:0:
104,8,24023,1,8,0:0:0:0:
54,181,24398,6,0,L|48:227,3,37.5,0|0|0|0,3:0|3:0|3:0|3:0,0:0:0:0:
50,263,24773,2,0,L|56:306,3,37.5,0|0|0|0,3:0|3:0|3:0|3:0,0:0:0:0:
53,333,25148,1,8,0:0:0:0:
399,51,25898,5,12,0:0:0:0:
442,129,26085,2,0,P|466:116|477:96,2,37.5,0|0|8,0:0|0:0|0:0,0:0:0:0:
351,129,26460,1,2,0:0:0:0:
270,169,26648,2,0,P|298:201|339:213,1,75,8|2,0:0|0:0,0:0:0:0:
415,194,27023,2,0,P|441:161|442:126,1,75,8|2,0:0|0:0,0:0:0:0:
399,51,27398,6,0,P|361:35|318:44,2,75,8|0|8,0:0|0:0|0:0,0:0:0:0:
442,129,27960,1,0,0:0:0:0:
442,129,28054,1,0,0:0:0:0:
442,129,28148,2,0,L|448:209,1,75,8|2,0:0|0:0,0:0:0:0:
370,313,28523,2,0,L|365:230,1,75,8|2,0:0|0:0,0:0:0:0:
358,148,28898,1,8,0:0:0:0:
199,62,29273,6,0,P|131:81|44:38,2,150,8|8|8,0:0|0:0|0:0,0:0:0:0:
375,21,30398,2,0,P|397:87|368:166,1,150,8|8,0:0|0:0,0:0:0:0:
291,199,30960,1,0,0:0:0:0:
203,176,31148,2,0,P|163:167|117:186,1,75,8|2,0:0|0:0,0:0:0:0:
119,185,31429,1,2,0:0:0:0:
112,198,31523,2,0,P|95:249|112:308,1,112.5,8|2,0:0|0:0,0:0:0:0:
140,337,31898,5,4,0:0:0:0:
226,360,32085,1,0,0:0:0:0:
226,360,32179,1,0,0:0:0:0:
226,360,32273,2,0,L|306:353,1,75,8|2,0:0|0:0,0:0:0:0:
369,294,32648,2,0,L|455:302,1,75,8|2,0:0|0:0,0:0:0:0:
495,226,33023,2,0,P|503:183|488:139,1,75,8|2,0:0|0:0,0:0:0:0:
431,90,33398,6,0,P|365:53|280:73,1,150,8|8,0:0|0:0,0:0:0:0:
215,107,33960,1,0,0:0:0:0:
132,70,34148,2,0,P|90:59|43:76,1,75,8|2,0:0|0:0,0:0:0:0:
89,151,34523,2,0,L|86:228,1,75,8|2,0:0|0:0,0:0:0:0:
81,316,34898,1,8,0:0:0:0:
248,249,35273,6,0,L|251:172,1,75,8|2,0:0|0:0,0:0:0:0:
302,99,35648,2,0,B|374:77|374:77|451:108,1,150,8|8,0:0|0:0,0:0:0:0:
458,284,36398,2,0,B|430:320|399:332|399:332|360:335|303:313,1,150,8|8,0:0|0:0,0:0:0:0:
260,260,36960,1,0,0:0:0:0:
265,169,37148,2,0,P|273:138|281:127,3,37.5,0|0|0|0,3:0|3:0|3:0|3:0,0:0:0:0:
310,104,37523,2,0,P|332:94|354:92,3,37.5,0|0|0|0,3:0|3:0|3:0|3:0,0:0:0:0:
390,91,37898,5,6,0:0:0:0:
466,137,38085,1,0,0:0:0:0:
466,137,38179,1,0,0:0:0:0:
466,137,38273,2,0,P|436:171|396:178,1,75,8|0,0:0|0:0,0:0:0:0:
322,151,38648,2,0,P|302:118|305:71,1,75,2|0,0:0|0:0,0:0:0:0:
359,12,39023,2,0,P|399:5|439:21,1,75,8|0,0:0|0:0,0:0:0:0:
481,90,39398,5,2,0:0:0:0:
481,90,39491,1,0,0:0:0:0:
481,90,39585,2,0,L|486:175,1,75,0|8,0:0|0:0,0:0:0:0:
445,245,39960,1,0,0:0:0:0:
363,284,40148,2,0,P|318:289|280:269,1,75,2|0,0:0|0:0,0:0:0:0:
227,214,40523,2,0,P|217:179|220:161,2,37.5,8|0|0,0:0|0:0|0:0,0:0:0:0:
286,123,40898,6,0,B|244:95|230:59|230:59|156:85,1,150,2|8,0:0|0:0,0:0:0:0:
303,201,41648,2,0,B|345:229|359:265|359:265|433:239,1,150,2|8,0:0|0:0,0:0:0:0:
323,42,42398,6,0,P|261:37|198:103,1,150,2|8,0:0|0:0,0:0:0:0:
216,182,42960,2,0,P|246:208|290:213,1,75,0|2,0:0|0:0,0:0:0:0:
201,94,43335,2,0,P|161:107|140:136,1,75,2|8,0:0|0:0,0:0:0:0:
286,123,43710,1,0,0:0:0:0:
352,62,43898,6,0,P|392:55|425:66,1,75,6|0,0:0|0:0,0:0:0:0:
488,128,44273,2,0,L|496:213,1,75,8|0,0:0|0:0,0:0:0:0:
500,292,44648,2,0,P|457:303|416:289,1,75,2|0,0:0|0:0,0:0:0:0:
347,254,45023,1,8,0:0:0:0:
347,254,45116,1,0,0:0:0:0:
347,254,45210,1,0,0:0:0:0:
281,316,45398,5,2,0:0:0:0:
203,271,45585,1,0,0:0:0:0:
124,314,45773,2,0,P|89:275|102:179,1,150,8|2,0:0|0:0,0:0:0:0:
163,120,46335,1,0,0:0:0:0:
236,172,46523,1,8,0:0:0:0:
236,172,46616,1,0,0:0:0:0:
236,172,46710,1,0,0:0:0:0:
318,135,46898,1,2,0:0:0:0:
172,31,47273,5,8,0:0:0:0:
63,174,47648,1,2,0:0:0:0:
209,279,48023,1,8,0:0:0:0:
318,135,48398,1,2,0:0:0:0:
497,126,48773,6,0,L|501:211,1,75,8|2,0:0|0:0,0:0:0:0:
504,291,49148,1,8,0:0:0:0:
389,137,49523,2,0,B|392:93|383:64|383:64|337:73,1,112.5,8|0,0:0|0:0,0:0:0:0:
300,78,49898,5,12,0:0:0:0:
233,18,50085,1,2,0:0:0:0:
194,99,50273,1,8,0:0:0:0:
107,75,50460,1,2,0:0:0:0:
99,165,50648,2,0,P|88:222|130:303,1,150,8|8,0:0|0:0,0:0:0:0:
301,349,51398,6,0,P|387:348|426:298,1,150,8|8,0:0|0:0,0:0:0:0:
450,216,51960,1,2,0:0:0:0:
422,130,52148,1,8,0:0:0:0:
339,93,52335,2,0,P|295:85|253:97,1,75,2|8,0:0|0:0,0:0:0:0:
217,167,52710,1,2,0:0:0:0:
264,244,52898,6,0,P|330:255|401:200,1,150,8|8,0:0|0:0,0:0:0:0:
264,244,53648,2,0,P|198:255|124:194,1,150,8|8,0:0|0:0,0:0:0:0:
174,35,54398,6,0,P|240:24|314:85,1,150,6|8,0:0|0:0,0:0:0:0:
353,144,54960,2,0,L|351:231,1,75,2|10,0:0|0:0,0:0:0:0:
345,309,55335,1,2,0:0:0:0:
272,363,55523,2,0,P|228:367|191:346,1,75,2|2,0:0|0:0,0:0:0:0:
138,289,55898,5,6,0:0:0:0:
140,109,56273,1,8,0:0:0:0:
308,46,56648,1,8,0:0:0:0:
455,149,57023,2,0,L|457:231,1,75,8|2,0:0|0:0,0:0:0:0:
374,260,57398,6,0,L|370:105,1,150,8|8,0:0|0:0,0:0:0:0:
308,46,57960,1,2,0:0:0:0:
224,79,58148,1,8,0:0:0:0:
224,79,58241,1,8,0:0:0:0:
224,79,58335,2,0,P|176:95|139:83,1,75,8|8,0:0|0:0,0:0:0:0:
175,9,58710,1,2,0:0:0:0:
224,80,58898,5,2,0:0:0:0:
201,166,59085,2,0,P|175:170|145:165,2,37.5,0|0|8,0:0|0:0|0:0,0:0:0:0:
370,78,59648,1,8,0:0:0:0:
370,78,59741,2,0,P|441:89|488:189,1,187.5,8|8,0:0|0:0,0:0:0:0:
312,145,60585,6,0,P|285:108|285:62,1,75,2|8,0:0|0:0,0:0:0:0:
370,78,60960,2,0,P|402:59|445:63,1,75,2|4,0:0|0:0,0:0:0:0:
421,149,61335,2,0,P|445:173|460:217,1,75,4|4,3:0|3:0,0:0:0:0:
370,223,61710,1,4,3:0:0:0:
286,188,61898,6,0,L|126:197,1,150,6|8,0:0|0:0,0:0:0:0:
70,258,62460,1,2,0:0:0:0:
153,291,62648,2,0,L|316:281,1,150,2|8,0:0|0:0,0:0:0:0:
370,222,63210,1,0,0:0:0:0:
399,136,63398,6,0,P|386:55|321:16,1,150,2|8,0:0|0:0,0:0:0:0:
246,41,63960,1,0,0:0:0:0:
204,121,64148,2,0,P|156:133|120:124,1,75,2|2,0:0|0:0,0:0:0:0:
61,71,64523,1,8,0:0:0:0:
246,41,64898,6,0,P|289:89|280:179,1,150,6|8,0:0|0:0,0:0:0:0:
205,213,65460,2,0,P|267:258|339:237,1,150,2|2,0:0|0:0,0:0:0:0:
380,164,66023,1,8,0:0:0:0:
380,164,66210,2,0,P|417:213|397:311,1,150,4|2,0:0|0:0,0:0:0:0:
327,338,66773,6,0,P|285:344|238:324,1,75,8|2,0:0|0:0,0:0:0:0:
173,295,67148,2,0,P|139:262|132:213,1,75,8|2,0:0|0:0,0:0:0:0:
112,148,67523,2,0,P|117:101|141:65,1,75,8|2,0:0|0:0,0:0:0:0:
205,28,67898,6,0,P|259:66|355:39,1,150,6|8,0:0|0:0,0:0:0:0:
422,22,68460,1,2,0:0:0:0:
422,22,68648,2,0,P|408:82|434:165,1,150,2|8,0:0|0:0,0:0:0:0:
493,97,69210,1,2,0:0:0:0:
493,97,69398,6,0,P|418:84|350:136,1,150,2|8,0:0|0:0,0:0:0:0:
349,211,69960,1,0,0:0:0:0:
420,266,70148,2,0,P|458:269|492:251,1,75,2|2,0:0|0:0,0:0:0:0:
438,178,70523,1,8,0:0:0:0:
321,315,70898,6,0,L|158:325,1,150,6|8,0:0|0:0,0:0:0:0:
95,274,71460,2,0,P|68:201|103:123,1,150,2|2,0:0|0:0,0:0:0:0:
174,101,72023,1,8,0:0:0:0:
258,131,72210,2,0,P|285:204|250:282,1,150,6|2,0:0|0:0,0:0:0:0:
199,202,72773,5,8,0:0:0:0:
199,202,72960,2,0,P|270:181|346:224,1,150,6|2,0:0|0:0,0:0:0:0:
394,280,73523,2,0,P|417:287|434:284,3,37.5,8|8|8|8,3:0|3:0|3:0|3:0,0:0:0:0:
474,275,73898,6,0,P|457:231|478:122,1,150,6|8,0:0|0:0,0:0:0:0:
418,59,74460,1,2,0:0:0:0:
418,59,74648,2,0,P|377:121|371:218,1,150,2|8,0:0|0:0,0:0:0:0:
394,280,75210,1,2,0:0:0:0:
328,342,75398,6,0,P|253:310|187:336,1,150,2|8,0:0|0:0,0:0:0:0:
108,363,75960,1,0,0:0:0:0:
33,311,76148,2,0,L|31:229,1,75,2|2,0:0|0:0,0:0:0:0:
27,145,76523,2,0,L|25:71,1,75,8|0,0:0|0:0,0:0:0:0:
26,58,76804,1,0,0:0:0:0:
26,46,76898,6,0,P|90:18|168:49,1,150,6|8,0:0|0:0,0:0:0:0:
220,113,77460,2,0,P|291:130|352:91,1,150,2|0,0:0|0:0,0:0:0:0:
275,44,78023,1,8,0:0:0:0:
220,113,78210,2,0,P|197:170|230:264,1,150,2|2,0:0|0:0,0:0:0:0:
296,299,78773,6,0,L|301:223,1,75,8|2,0:0|0:0,0:0:0:0:
310,119,79148,2,0,L|221:113,1,75,8|2,0:0|0:0,0:0:0:0:
130,102,79523,2,0,L|121:184,1,75,8|2,0:0|0:0,0:0:0:0:
110,280,79898,6,0,P|146:336|232:349,1,150,6|8,0:0|0:0,0:0:0:0:
296,299,80460,1,0,0:0:0:0:
309,209,80648,2,0,P|273:153|187:140,1,150,2|8,0:0|0:0,0:0:0:0:
221,223,81210,1,2,0:0:0:0:
279,291,81398,6,0,P|350:291|399:220,1,150,2|8,0:0|0:0,0:0:0:0:
309,209,81960,1,0,0:0:0:0:
221,224,82148,2,0,P|195:254|192:302,1,75,2|8,0:0|0:0,0:0:0:0:
231,367,82523,1,8,0:0:0:0:
378,263,82898,6,0,P|386:183|332:129,1,150,6|8,0:0|0:0,0:0:0:0:
256,156,83460,2,0,P|185:182|108:156,1,150,2|8,0:0|0:0,0:0:0:0:
49,101,84023,2,0,P|40:68|57:17,1,75,2|2,0:0|0:0,0:0:0:0:
132,64,84398,1,8,0:0:0:0:
132,64,84491,1,8,0:0:0:0:
132,64,84585,1,2,0:0:0:0:
256,156,84773,5,2,0:0:0:0:
212,235,84960,1,8,0:0:0:0:
212,235,85054,1,0,0:0:0:0:
212,234,85148,2,0,P|171:243|132:228,1,75,10|2,0:0|0:0,0:0:0:0:
303,235,85523,2,0,P|308:275|296:316,1,75,8|2,0:0|0:0,0:0:0:0:
197,336,85898,1,6,0:0:0:0:
256,192,85991,12,0,87398,0:0:0:0:
