osu file format v12

[General]
AudioFilename: Masshiro World.mp3
AudioLeadIn: 0
PreviewTime: 61563
Countdown: 0
SampleSet: Normal
StackLeniency: 0.7
Mode: 0
LetterboxInBreaks: 0
WidescreenStoryboard: 1

[Editor]
Bookmarks: 4508,61563
DistanceSpacing: 1
BeatDivisor: 4
GridSize: 8

[Metadata]
Title:Masshiro World (TV Size)
TitleUnicode:Masshiro World (TV Size)
Artist:Mikakuning!
ArtistUnicode:Mikakuning!
Creator:Kyubeychan
Version:Normal
Source:Mikakunin de Shinkōkei
Tags:
BeatmapID:373208
BeatmapSetID:151418

[Difficulty]
HPDrainRate:5
CircleSize:3
OverallDifficulty:5
ApproachRate:5
SliderMultiplier:0.7
SliderTickRate:1

[Events]
//Background and Video events
0,0,"Masshiro World BG.png",0,0
Video,0,"Masshiro World.avi"
//Break Periods
//Storyboard Layer 0 (Background)
//Storyboard Layer 1 (Fail)
//Storyboard Layer 2 (Pass)
//Storyboard Layer 3 (Foreground)
//Storyboard Sound Samples
//Background Colour Transformations
3,100,179,102,255

[TimingPoints]
4508.00636942675,375.365605095541,4,1,0,50,1,0
61563,-100,4,1,0,50,0,1
73575,-100,4,1,0,50,0,1
85586,-100,4,1,0,50,0,0

[Colours]
Combo1 : 255,128,192
Combo2 : 0,128,255
Combo3 : 255,128,0
Combo4 : 240,5,5
Combo5 : 128,255,0

[HitObjects]
144,264,4508,2,0,P|192:304|280:304,1,140
256,192,5634,1,0,0:0:0:0:
344,128,6009,2,0,P|296:88|208:88,2,140,0|0|4,0:0|0:0|0:0,0:0:0:0:
360,224,7886,1,0,0:0:0:0:
360,312,8261,1,0,0:0:0:0:
360,224,8637,1,0,0:0:0:0:
408,112,9012,2,0,P|376:88|304:96,1,105
312,168,9763,2,0,P|264:176|232:168,1,70
200,96,10513,6,0,P|168:64|136:56,1,70
144,184,11264,1,0,0:0:0:0:
224,224,11452,1,0,0:0:0:0:
144,184,11639,1,0,0:0:0:0:
224,224,11827,1,0,0:0:0:0:
264,144,12015,2,0,P|296:120|392:128,1,140,0|4,0:0|0:0,0:0:0:0:
400,256,13516,6,0,P|376:288|344:304,1,70
264,272,14267,2,0,L|224:248,1,35
168,288,14830,2,0,L|128:264,1,35
48,232,15393,1,0,0:0:0:0:
144,160,15768,1,2,0:0:0:0:
304,56,16519,6,0,P|344:72|368:168,1,140
232,160,17645,1,0,0:0:0:0:
120,176,18021,2,0,P|144:248|208:256,2,140,0|2|0,0:0|0:0|0:0,0:0:0:0:
168,72,19897,5,0,0:0:0:0:
256,24,20273,1,0,0:0:0:0:
168,72,20648,1,0,0:0:0:0:
256,192,21024,12,0,22525,0:0:0:0:
128,208,23276,5,0,0:0:0:0:
256,272,23651,1,0,0:0:0:0:
376,208,24027,1,0,0:0:0:0:
256,112,24402,1,0,0:0:0:0:
256,112,24777,1,4,0:0:0:0:
384,248,25528,6,0,P|352:288|320:288,1,70
256,256,26279,1,0,0:0:0:0:
256,256,26654,1,0,0:0:0:0:
256,152,27029,2,0,P|224:144|176:160,3,70
128,288,28531,2,0,P|88:256|80:160,1,140
192,184,29657,1,0,0:0:0:0:
248,88,30032,2,0,P|288:104|304:136,2,70,0|0|4,0:0|0:0|0:0,0:0:0:0:
384,192,31534,6,0,P|384:240|360:264,1,70
256,256,32285,2,0,L|224:224,1,35
128,256,32660,2,0,L|160:288,2,35
64,168,33411,2,0,P|96:136|200:136,1,140
264,184,34537,1,0,0:0:0:0:
368,200,34912,1,0,0:0:0:0:
352,288,35287,1,0,0:0:0:0:
264,184,35663,1,0,0:0:0:0:
304,80,36038,2,0,P|264:56|240:56,2,70,0|0|6,0:0|0:0|0:0,0:0:0:0:
112,168,37540,6,0,P|128:216|144:240,1,70
248,224,38290,2,0,P|288:232|312:256,1,70
448,176,39041,1,0,0:0:0:0:
368,112,39417,1,0,0:0:0:0:
280,48,39792,2,0,P|232:40|152:88,1,140
56,184,40918,1,0,0:0:0:0:
144,240,41293,1,0,0:0:0:0:
232,288,41669,1,0,0:0:0:0:
400,232,42044,2,0,P|384:184|360:168,1,70
304,216,42607,2,0,P|272:208|256:168,1,70,0|4,0:0|0:0,0:0:0:0:
288,56,43546,6,0,L|208:56,1,70
288,160,44296,2,0,L|208:160,1,70
120,208,45047,2,0,B|144:256|160:280|160:280|192:272|224:280,2,140
256,192,47299,12,6,48801,0:0:0:0:
200,88,49551,6,0,P|248:72|328:112,1,140
256,184,50677,1,0,0:0:0:0:
208,264,51053,2,0,P|256:280|336:240,1,140
400,120,52554,2,0,P|392:96|352:64,1,70
288,128,53305,2,0,P|280:104|240:72,1,70
168,144,54056,2,0,P|160:120|120:88,2,70
112,288,55557,6,0,P|144:312|184:320,1,70
208,240,56308,6,0,P|240:264|280:272,1,70
304,184,57059,2,0,P|344:208|432:192,1,140
256,192,58560,12,6,60812,0:0:0:0:
