osu file format v10

[General]
AudioFilename: Tsumetai Heya Hitori.mp3
AudioLeadIn: 1511
PreviewTime: 47290
Countdown: 1
SampleSet: Soft
StackLeniency: 0.7
Mode: 0
LetterboxInBreaks: 1

[Editor]
DistanceSpacing: 1.2
BeatDivisor: 4
GridSize: 8

[Metadata]
Title:Tsumetai Heya Hitori (TV Size)
TitleUnicode:Tsumetai Heya Hitori (TV Size)
Artist:Mikako Komatsu
ArtistUnicode:Mikako Komatsu
Creator:Zexous
Version:Easy
Source:K
Tags:Zexous K ending
BeatmapID:184630
BeatmapSetID:62111

[Difficulty]
HPDrainRate:3
CircleSize:3
OverallDifficulty:2
ApproachRate:4
SliderMultiplier:1.2
SliderTickRate:1

[Events]
//Background and Video events
0,0,"neko.jpg"
//Break Periods
2,71490,73970
//Storyboard Layer 0 (Background)
//Storyboard Layer 1 (Fail)
//Storyboard Layer 2 (Pass)
//Storyboard Layer 3 (Foreground)
//Storyboard Sound Samples
//Background Colour Transformations
3,100,163,162,255

[TimingPoints]
12290.0966386555,500,4,2,0,100,1,0
48290,-100,4,2,0,100,0,1
52790,-100,4,2,0,100,0,0
60290,-100,4,2,0,100,0,1
71290,-100,4,2,0,100,0,0

[HitObjects]
408,64,290,1,0,0:0:0
416,216,1290,2,0,B|416:296|328:312,1,120
183,308,2790,2,0,B|96:296|96:224,1,120
256,184,4290,2,0,B|256:120,2,60
96,168,5790,6,0,B|96:88|184:72,1,120
296,64,7040,2,0,B|351:68|360:112,1,60
415,165,7790,1,0,0:0:0
320,272,8290,1,0,0:0:0
224,168,8790,1,0,0:0:0
320,64,9290,1,0,0:0:0
232,200,10040,6,0,B|152:152|96:200,1,120
122,184,10790,1,0,0:0:0
232,192,11790,6,0,B|312:192,1,60
408,192,12290,2,0,B|408:144|368:96|320:104,1,120
264,120,13040,2,0,B|240:200,1,60
208,128,13540,2,0,B|208:216,1,60
256,312,14790,5,0,0:0:0
264,176,15290,2,0,B|208:136|208:136|240:64,1,120
320,72,16040,2,0,B|344:152,1,60
376,80,16540,2,0,B|376:168,1,60
384,256,17790,6,0,B|328:320|264:312,1,120
144,224,19290,1,0,0:0:0
256,120,19790,1,0,0:0:0
440,200,20790,1,0,0:0:0
328,304,21290,1,0,0:0:0
256,192,21540,12,0,23790,0:0:0
256,264,24290,6,0,B|256:128,1,120
256,104,25040,1,0,0:0:0
296,104,25290,2,0,B|384:104,1,60
432,200,25790,1,0,0:0:0
320,296,26290,1,0,0:0:0
296,160,26790,1,0,0:0:0
416,48,27290,2,0,B|344:48|456:168|328:248,1,240,0|0,0:0|0:0,0:0:0
208,184,28790,1,0,0:0:0
256,96,30290,6,0,B|200:88|176:192,1,120
176,216,31040,1,0,0:0:0
176,272,31290,2,0,B|256:272,1,60
376,272,31790,1,0,0:0:0
376,120,32290,1,0,0:0:0
224,120,32790,1,0,0:0:0
216,272,33290,6,0,B|208:224|128:200|176:176,1,120
136,144,34040,2,0,B|192:104,1,60
120,80,34540,2,0,B|192:80,1,60
256,56,36290,6,0,B|256:200,1,120
256,264,37040,2,0,B|312:312,2,60
256,176,37790,1,0,0:0:0
344,64,38290,1,0,0:0:0
400,192,38790,1,0,0:0:0
256,176,39290,1,0,0:0:0
368,56,40290,6,0,B|432:80|432:152,1,120
256,192,42290,1,0,0:0:0
368,64,43290,2,0,B|416:112,1,60
416,224,43790,1,0,0:0:0
416,224,44290,1,0,0:0:0
256,272,44790,5,0,0:0:0
256,272,45290,1,0,0:0:0
256,192,45540,12,0,46790,0:0:0
256,104,47540,6,0,B|256:32,2,60
256,192,48290,2,0,B|344:200|360:280,1,120
352,336,49040,6,0,B|280:336,2,60
440,288,49790,2,0,B|464:232|448:144,1,120
376,104,50540,2,0,B|312:104,1,60
256,192,51290,1,0,0:0:0
424,192,52040,6,0,B|480:160,2,60
376,192,52790,1,0,0:0:0
232,192,54040,6,0,B|168:192,1,60
64,192,55040,1,0,0:0:0
64,192,55290,2,0,B|64:272|152:288,1,120
361,278,56540,1,0,0:0:0
360,280,56790,2,0,B|424:269|424:189,1,120
288,128,58040,2,0,B|216:128,1,60
120,192,58790,1,0,0:0:0
256,288,59540,6,0,B|304:336,2,60
192,232,60290,2,0,B|224:200|224:200|208:176|240:144|272:160,1,120
328,96,61040,2,0,B|280:48,2,60
392,152,61790,2,0,B|360:184|360:184|376:208|344:240|312:224,1,120
232,272,62540,5,0,0:0:0
232,272,62790,2,0,B|232:144,1,120
360,72,64040,2,0,B|416:96|360:136,1,60
336,224,64790,1,0,0:0:0
256,272,66290,6,0,B|224:248|312:192|256:152,1,120
152,272,67290,2,0,B|152:208,1,60
152,120,67790,2,0,B|176:88|232:176|272:120,1,120
256,240,68790,1,0,0:0:0
256,240,69290,1,0,0:0:0
256,192,69540,12,0,71290,0:0:0
256,192,75290,5,0,0:0:0
256,192,76290,5,0,0:0:0
256,192,76540,2,0,B|256:280,1,60
256,248,77790,1,0,0:0:0
256,248,78040,2,0,B|344:248,1,60
320,248,79290,1,0,0:0:0
320,248,79540,2,0,B|320:160,1,60
320,184,80790,5,0,0:0:0
320,184,81040,2,0,B|232:184,1,60
256,72,82290,1,0,0:0:0
160,192,82790,1,0,0:0:0
256,312,83290,1,0,0:0:0
256,176,84040,2,0,B|256:112,1,60
256,192,84540,12,0,86790,0:0:0
