osu file format v9

[General]
AudioFilename: Mika vs RedOne - Kick Ass.mp3
AudioLeadIn: 0
PreviewTime: 41914
Countdown: 0
SampleSet: Soft
StackLeniency: 0.4
Mode: 0
LetterboxInBreaks: 0

[Editor]
Bookmarks: 9874,17554,26194,32914,40594,48274,63634,71314,86674,102034,117394
DistanceSpacing: 1
BeatDivisor: 4
GridSize: 8

[Metadata]
Title:Kick Ass (We Are Young)
Artist:Mika vs RedOne
Creator:cesc
Version:Red-Mist
Source:Kick-Ass
Tags:

[Difficulty]
HPDrainRate:5
CircleSize:4
OverallDifficulty:5
ApproachRate:4
SliderMultiplier:1.5
SliderTickRate:2

[Events]
//Background and Video events
0,0,"Christopher Mintz-Plasse.jpg"
Video,880,"MIKA_RedOne_-_Kick_Ass_We_Are_Young-1_xvid_001.avi"
//Break Periods
2,17554,24874
2,63834,69994
//Storyboard Layer 0 (Background)
//Storyboard Layer 1 (Fail)
//Storyboard Layer 2 (Pass)
//Storyboard Layer 3 (Foreground)
//Storyboard Sound Samples
//Background Colour Transformations
3,100,255,0,0

[TimingPoints]
9874,480,4,2,0,60,1,0
32914,-100,4,1,0,40,0,0
48274,-100,4,1,0,60,0,1
63634,-100,4,2,0,60,0,0
70834,-100,4,1,0,40,0,0
86674,-100,4,1,0,60,0,1
101914,-100,4,1,0,60,0,0
102034,-100,4,1,0,60,0,1
117394,-100,4,2,0,60,0,0

[Colours]
Combo1 : 242,177,28
Combo2 : 245,18,18
Combo3 : 249,114,49

[HitObjects]
184,192,9874,2,0,B|249:177|312:222|297:287|251:296|217:284|202:214|262:180|328:192,1,300
400,192,11074,1,0
360,256,11314,2,2,B|344:320|312:352|256:376|200:352|160:320|152:256|152:256,1,300,2|2
256,152,12994,5,0
256,152,13234,2,0,B|256:-8|256:-8,2,150,0|2|0
256,224,14434,1,0
192,192,14674,2,0,B|165:238|190:288|222:311|259:319|303:307|338:281|344:228|322:191|322:191,1,300,2|4
136,72,26194,6,0,B|160:112|136:152|136:152,1,75
96,208,26674,2,0,B|192:249|217:154|217:154,1,150,2|0
224,80,27394,2,0,B|376:80|376:80,1,150,2|2
432,216,28354,1,0
384,272,28594,1,0
312,256,28834,2,0,B|160:256|160:256,1,150,2|2
56,152,29794,6,0,B|32:72|32:72,1,75,2|2
112,80,30274,2,0,B|136:8|136:8,1,75,2|2
200,48,30754,2,0,B|272:0|272:0,1,75,0|2
288,80,31234,2,0,B|356:158|416:80|416:80,2,150,2|2|2
352,40,32434,6,0,B|352:192|352:192,1,150,2|0
392,256,33154,2,0,B|305:294|311:201|227:268|227:268,1,150
280,323,33874,1,0
216,192,34354,1,0
168,248,34594,1,0
96,216,34834,1,0
96,216,35074,2,0,B|176:144|88:80|88:80,1,150,0|0
56,152,35794,2,0,B|7:121|23:64|23:64,2,75,0|0|4
168,248,36754,6,0,B|255:286|249:193|333:260|333:260,1,150
280,320,37474,1,0
352,312,37714,1,0
392,248,37954,1,0
352,184,38194,2,0,B|274:138|184:192|184:192,2,150,0|0|0
408,48,39634,1,8
256,48,40114,1,8
104,48,40594,1,8
104,48,40834,5,2
96,120,41074,1,2
112,192,41314,1,2
104,264,41554,1,2
256,288,42034,1,8
408,264,42514,1,2
400,192,42754,1,2
416,120,42994,1,2
408,48,43234,1,2
408,48,43474,5,8
256,56,43954,2,2,B|208:127|311:127|256:197|256:197,1,150
120,264,44914,1,8
256,328,45394,1,8
392,264,45874,1,8
256,192,46354,12,4,48274
212,124,48754,6,2,B|144:200|228:268,1,150
256,192,49474,1,0
300,124,49714,2,2,B|368:200|284:268,1,150
256,320,50434,2,0,B|173:360|188:277|97:328,2,150,8|8|2
256,320,51634,2,2,B|339:360|324:277|415:328,2,150,2|2|8
296,256,52834,2,2,B|374:180|315:61|176:72|144:200|220:260,1,375,10|4
116,144,54514,2,0,B|148:52|236:44,1,150
296,48,55234,6,0,B|368:54|400:146,1,150,0|2
408,216,55954,1,4
296,308,56434,1,0
220,308,56674,1,2
96,216,57154,1,0
95,216,57394,6,2,B|64:124|140:60|216:91,1,225
295,91,58354,2,2,B|372:60|448:124|416:216,1,225,2|2
424,292,59314,5,4
344,164,59794,1,8
168,164,60274,1,8
88,292,60754,1,8
152,332,60994,1,0
224,316,61234,2,0,B|320:324|348:244,1,150,8|4
256,192,62194,12,4,63634
256,192,71314,6,0,B|256:32,2,150
328,164,72514,1,0
320,240,72754,1,0
256,276,72994,1,0
192,240,73234,1,0
184,164,73474,2,0,B|256:132|256:204|336:160,1,150
464,104,74434,1,0
400,140,74674,5,4
388,288,75154,1,0
256,360,75634,1,0
124,288,76114,1,0
100,140,76594,2,2,B|140:52|232:100,1,150
292,128,77314,2,2,B|380:168|416:84,1,150
340,68,78034,5,8
480,120,78514,1,8
364,216,78994,1,8
416,268,79234,5,2
372,328,79474,1,2
300,308,79714,1,2
292,236,79954,1,2
140,56,80914,1,8
96,116,81154,5,2
148,168,81394,1,2
220,148,81634,1,2
212,76,81874,1,2
284,104,82114,6,2,B|296:64|276:28,1,75,2|0
284,104,82594,2,2,B|288:156|340:176,1,75,2|8
400,296,83314,1,8
256,344,83794,1,8
112,296,84274,1,8
256,192,84754,12,0,86674
300,124,87154,6,2,B|368:200|284:268,1,150
256,192,87874,1,0
212,124,88114,2,2,B|144:200|228:268,1,150
256,320,88834,2,0,B|339:360|324:277|415:328,2,150,8|8|2
256,320,90034,2,2,B|173:360|188:277|97:328,2,150,2|2|8
216,256,91234,2,2,B|138:180|197:61|336:72|368:200|292:260,1,375,10|4
396,144,92914,2,0,B|364:52|276:44,1,150
220,46,93634,6,0,B|148:52|116:144,1,150,0|2
96,216,94354,1,4
216,308,94834,1,0
292,308,95074,1,2
416,216,95554,1,0
417,216,95794,6,2,B|448:124|372:60|296:91,1,225
217,91,96754,2,2,B|140:60|64:124|96:216,1,225,2|2
88,292,97714,5,4
168,164,98194,1,8
344,164,98674,1,8
424,292,99154,1,8
360,332,99394,5,0
288,316,99634,2,0,B|192:324|164:244,1,150,8|4
120,108,100594,1,0
256,48,101074,1,0
328,32,101314,5,4
400,56,101554,1,4
432,124,101794,1,4
356,120,102034,2,4,B|276:156|292:244|292:244,1,150,4|2
220,243,102754,2,2,B|220:244|236:156|156:120,1,150
132,192,103474,5,2
256,108,103954,1,2
380,192,104434,1,2
364,264,104674,1,2
324,328,104914,2,8,B|284:360|256:344|256:344|228:360|184:328,1,150,8|8
148,264,105634,1,2
132,192,105874,5,4
180,48,106354,1,8
332,48,106834,1,2
380,192,107314,1,8
320,328,107794,2,0,B|252:406|192:328|192:328,1,150
256,288,108514,6,2,B|218:201|311:207|244:123|244:123,1,150,8|2
188,176,109234,1,2
116,196,109474,1,2
76,132,109714,1,6
124,76,109954,1,0
192,104,110194,5,8
324,176,110674,1,8
396,196,110914,1,0
436,132,111154,1,2
388,76,111394,1,2
320,104,111634,5,2
256,240,112114,2,0,B|292:304|204:324|256:384|256:384,2,150,0|8|0
220,176,113314,2,0,B|204:136|220:100,1,75,0|8
296,104,113794,2,0,B|310:137|294:177,1,75,0|8
356,212,114274,6,2,B|400:132|348:44,1,150,0|2
151,67,114994,2,6,B|112:132|156:212,1,150,0|6
256,192,115954,12,4,117394
