osu file format v9

[General]
AudioFilename: Mika vs RedOne - Kick Ass.mp3
AudioLeadIn: 0
PreviewTime: 41914
Countdown: 0
SampleSet: Soft
StackLeniency: 0.4
Mode: 0
LetterboxInBreaks: 0

[Editor]
Bookmarks: 9874,17554,26194,32914,40594,48274,63634,71314,86674,102034,117394,125074,132754,148114,163474,178834
DistanceSpacing: 1
BeatDivisor: 4
GridSize: 8

[Metadata]
Title:Kick Ass (We Are Young)
Artist:Mika vs RedOne
Creator:cesc
Version:Kick-Ass
Source:Kick-Ass
Tags:

[Difficulty]
HPDrainRate:7
CircleSize:4
OverallDifficulty:7
ApproachRate:7
SliderMultiplier:2
SliderTickRate:2

[Events]
//Background and Video events
0,0,"Aaron Johnson.jpg"
Video,880,"MIKA_RedOne_-_Kick_Ass_We_Are_Young-1_xvid_001.avi"
//Break Periods
2,63834,70414
2,119514,124174
//Storyboard Layer 0 (Background)
//Storyboard Layer 1 (Fail)
//Storyboard Layer 2 (Pass)
//Storyboard Layer 3 (Foreground)
//Storyboard Sound Samples
//Background Colour Transformations
3,100,0,128,64

[TimingPoints]
9874,480,4,2,0,60,1,0
32914,-100,4,1,0,40,0,0
48274,-100,4,1,0,60,0,1
63634,-100,4,2,0,60,0,0
70834,-100,4,1,0,40,0,0
86674,-100,4,1,0,60,0,1
101314,-100,4,1,0,60,0,0
102034,-100,4,1,0,60,0,1
117394,-100,4,2,0,60,0,0
132754,-100,4,1,0,40,0,0
132754,-100,4,1,0,40,0,1
132874,-100,4,1,0,40,0,0
148114,-100,4,1,0,60,0,1
163354,-100,4,1,0,70,0,0
163474,-100,4,1,0,70,0,1
178114,-100,4,1,0,70,0,0
178834,-100,4,1,0,70,0,1

[Colours]
Combo1 : 231,225,14
Combo2 : 27,184,89
Combo3 : 10,134,235

[HitObjects]
131,193,9874,2,0,B|129:90|222:34|293:39|394:72|382:196|382:196,1,400,2|0
256,192,11074,1,0
131,191,11314,2,0,B|129:294|222:350|293:345|394:312|382:188|382:188,1,400,2|0
123,93,12994,6,0,B|144:148|128:201|128:201,1,100,0|2
96,288,13474,2,0,B|132:339|175:347|175:347,1,100,0|2
208,256,13954,1,0
208,256,14074,1,0
208,256,14194,1,2
280,320,14434,2,0,B|407:303|400:184|400:184,1,200,2|0
400,184,15034,1,0
400,184,15154,2,0,B|392:51|277:47|277:47,1,200,2|4
256,192,17554,5,0
256,192,17794,1,2
104,56,18274,1,4
112,256,18754,2,0,B|152:296|160:352|160:352,1,100
256,312,19234,2,0,B|304:336|376:328|376:328,2,100,0|2|0
256,296,20194,5,4
344,112,20674,1,0
264,56,20914,1,0
168,88,21154,1,2
168,72,21634,5,4
168,72,22114,1,4
168,72,22594,2,0,B|176:128|152:176|152:176,1,100
104,256,23074,1,0
184,312,23314,1,0
256,240,23554,1,2
256,224,24034,5,4
400,80,24514,1,0
312,128,24754,1,0
288,32,24994,1,0
200,72,25234,1,0
104,64,25474,1,2
104,80,25954,5,0
104,80,26074,1,0
104,80,26194,1,0
96,176,26434,1,0
176,240,26674,2,0,B|311:306|335:171|335:171,2,200,2|2|2
240,168,27874,5,0
240,168,27994,1,0
240,168,28114,1,0
208,72,28354,1,0
208,72,28474,1,0
208,72,28594,1,0
304,96,28834,2,0,B|403:191|384:5|482:97|482:97,1,200,2|2
376,264,29794,5,0
376,264,29914,1,0
376,264,30034,1,0
288,312,30274,1,0
288,312,30394,1,0
288,312,30514,1,0
185,288,30754,2,0,B|90:251|67:135|111:40|222:5|298:62|298:62,1,400,2|2
285,55,31834,1,0
286,55,31954,2,0,B|389:99|412:239|309:363|181:287|181:287,1,400,2|0
96,112,33394,5,0
168,40,33634,1,0
192,80,33754,1,0
200,128,33874,1,0
128,200,34114,1,0
144,248,34234,1,0
184,280,34354,1,0
256,208,34594,2,0,B|397:245|414:120|414:120,2,200,0|0|0
256,208,35674,1,0
256,208,35794,5,0
200,128,36034,1,0
240,40,36274,2,0,B|344:64|440:40|440:40,1,200,4|0
456,136,36994,1,0
456,136,37114,1,0
456,136,37234,1,0
400,216,37474,1,0
400,216,37594,1,0
400,216,37714,6,0,B|355:183|360:120|360:120,1,100,2|0
336,272,38194,2,0,B|356:323|336:376|336:376,1,100,2|0
256,240,38674,2,0,B|179:178|134:306|65:238|65:238,1,200,2|2
48,144,39394,2,0,B|50:81|91:55|91:55,1,100,0|0
152,136,39874,2,0,B|229:74|274:202|343:134|343:134,1,200,0|0
416,64,40594,1,0
416,64,40834,5,2
416,64,41074,2,0,B|400:128|424:176|424:176,1,100,2|2
448,256,41554,2,0,B|400:272|344:288|344:288,1,100,2|0
256,304,42034,1,0
160,264,42274,1,0
120,176,42514,2,0,B|133:134|169:118|275:106|304:196|210:262|137:196|184:106|213:83|256:80|256:80,1,300,4|0
328,144,43474,2,0,B|400:144|432:72|432:72,1,100,2|2
432,200,43954,2,0,B|416:304|416:304,1,100,2|0
320,288,44434,2,2,B|204:353|88:236|161:130|161:130,1,300
256,192,45874,5,0
256,192,46114,1,0
256,192,46354,1,4
256,192,46594,12,4,48274
304,64,48754,6,0,B|288:120|306:167|306:167,1,100,8|0
384,256,49234,2,0,B|328:280|304:320|304:320,1,100,8|2
192,312,49714,2,2,B|75:274|98:148|98:148,1,200,2|6
208,192,50434,2,0,B|240:144|240:144,2,50,0|0|8
320,160,50914,2,0,B|368:128|368:128,2,50,0|0|8
384,56,51394,5,0
272,88,51634,1,8
168,24,51874,1,0
96,120,52114,2,2,B|128:165|104:216|104:216,1,100,6|0
56,328,52594,1,0
176,304,52834,2,2,B|175:304|226:280|271:312,1,100,2|0
392,288,53314,1,2
440,176,53554,2,2,B|369:112|312:257|256:176|256:176,1,200,2|6
312,72,54274,1,0
312,72,54394,1,0
312,72,54514,1,8
200,32,54754,1,0
200,32,54874,1,0
200,32,54994,6,0,B|208:104|176:160|176:160,1,100,8|2
104,216,55474,2,0,B|240:248|240:248,1,100,2|0
312,192,55954,1,4
296,312,56194,2,0,B|337:279|392:285|392:285,1,100,10|0
432,176,56674,2,0,B|448:72|448:72,1,100,10|0
256,72,57154,5,0
144,104,57394,2,2,B|80:208|128:312|224:368|288:376|408:312|440:208|368:104|368:104,1,600
256,72,59074,1,0
256,72,59314,5,8
224,192,59554,1,0
144,104,59794,1,2
104,216,60034,1,0
184,304,60274,1,8
304,280,60514,1,0
344,168,60754,1,2
264,80,60994,1,0
264,80,61114,1,0
264,80,61234,6,0,B|264:137|223:170|223:170,1,100,8|0
352,80,61714,2,0,B|392:48|448:56|448:56,1,100,2|0
176,96,62194,2,0,B|110:108|80:64|80:64,1,100,2|0
416,136,62674,2,0,B|457:176|440:232|440:232,1,100,2|0
256,192,62974,12,4,63634
144,88,71314,6,0,B|160:144|144:192|144:192,1,100
120,280,71794,2,0,B|240:312|240:312,1,100
216,305,72154,1,0
216,305,72274,1,0
320,296,72514,1,0
360,208,72754,2,0,B|354:147|387:112|387:112,1,100
288,88,73234,2,0,B|206:153|161:21|96:88|96:88,1,200
64,176,73954,1,0
80,224,74074,1,0
96,272,74194,1,0
192,312,74434,1,0
256,232,74674,1,4
256,232,75874,5,0
256,232,75994,1,0
256,232,76114,1,0
240,136,76354,1,0
336,96,76594,2,0,B|286:186|391:203|328:292|328:292,1,200
240,328,77314,1,0
192,336,77434,1,0
144,344,77554,1,0
168,248,77794,1,0
136,208,77914,1,0
112,168,78034,1,0
56,80,78274,2,0,B|146:30|163:135|252:72|252:72,1,200
344,40,78994,6,0,B|336:96|360:144|360:144,1,100,2|2
416,216,79474,2,0,B|296:224|296:224,1,100,2|2
296,320,79954,2,0,B|266:247|154:244|129:327|129:327,2,200,2|2|2
216,368,81154,2,0,B|208:272|216:160|216:160,1,200,2|2
224,72,81874,1,2
224,72,81994,1,0
224,72,82114,5,2
320,104,82354,2,0,B|374:132|424:112|424:112,1,100,2|0
304,184,82834,2,0,B|256:160|200:176|200:176,1,100,2|0
160,264,83314,2,0,B|141:331|204:376|276:346|264:272|264:272,2,200,2|2|2
208,176,84514,1,0
192,80,84754,1,2
256,192,84994,12,0,86674
208,72,86914,6,0,B|328:72|328:72,1,100,8|0
424,40,87394,2,0,B|400:90|428:141|428:141,1,100,8|0
465,250,87874,1,2
344,272,88114,2,2,B|255:354|159:269|159:269,1,200,2|4
216,168,88834,2,0,B|257:130|311:145|311:145,1,100,0|8
136,192,89314,2,0,B|85:220|32:190|32:190,1,100,0|8
160,112,89794,6,0,B|138:53|176:16|176:16,1,100,0|2
296,8,90274,1,0
296,8,90394,1,0
296,8,90514,1,2
280,128,90754,1,0
376,200,90994,2,2,B|447:169|499:248|447:305|376:278|376:278,1,200,2|2
256,256,91714,1,0
136,200,91954,2,2,B|65:169|13:248|65:305|136:278|136:278,1,200,2|6
256,256,92674,1,0
256,256,92794,1,0
256,256,92914,1,8
296,144,93154,1,0
296,144,93274,1,0
296,144,93394,5,8
184,104,93634,2,0,B|175:169|112:184|112:184,1,100,0|2
240,48,94114,2,0,B|282:15|336:31|336:31,1,100,0|6
416,120,94594,1,8
416,120,94714,1,0
416,120,94834,1,8
400,240,95074,1,8
296,304,95314,1,8
176,280,95554,5,2
112,176,95794,2,2,B|128:51|257:-3|381:28|416:120|416:120,1,400
400,240,96994,2,0,B|429:296|496:286|496:286,1,100,0|8
360,176,97474,6,0,B|328:125|276:121|276:121,1,100,0|8
176,128,97954,1,0
176,128,98074,1,0
176,128,98194,1,0
128,248,98434,2,0,B|104:296|40:296|40:296,1,100,0|8
200,208,98914,2,0,B|264:192|296:232|296:232,1,100,0|8
224,328,99394,1,2
344,344,99634,2,2,B|433:370|484:278|428:223|428:223,1,200,2|6
336,144,100354,1,0
336,144,100474,1,0
336,144,100594,1,8
232,88,100834,2,0,B|184:112|128:96|128:96,1,100,8|8
16,168,101314,5,4
128,256,101554,1,4
256,192,101794,1,4
256,192,102034,1,4
304,72,102274,6,0,B|184:72|184:72,1,100,8|0
88,40,102754,2,0,B|112:90|84:141|84:141,1,100,8|0
47,250,103234,1,2
168,272,103474,2,2,B|257:354|353:269|353:269,1,200,2|4
296,168,104194,2,0,B|255:130|201:145|201:145,1,100,0|8
376,192,104674,2,0,B|427:220|480:190|480:190,1,100,0|8
352,112,105154,6,0,B|374:53|336:16|336:16,1,100,0|2
216,8,105634,1,0
216,8,105754,1,0
216,8,105874,1,2
232,128,106114,1,0
136,200,106354,2,2,B|65:169|13:248|65:305|136:278|136:278,1,200,2|2
256,256,107074,1,0
376,200,107314,2,2,B|447:169|499:248|447:305|376:278|376:278,1,200,2|6
256,256,108034,1,0
256,256,108154,1,0
256,256,108274,1,8
216,144,108514,1,0
216,144,108634,1,0
216,144,108754,5,8
328,104,108994,2,0,B|337:169|400:184|400:184,1,100,0|2
272,48,109474,2,0,B|230:15|176:31|176:31,1,100,0|6
96,120,109954,1,8
96,120,110074,1,0
96,120,110194,1,8
112,240,110434,1,8
216,304,110674,1,8
336,280,110914,5,2
400,176,111154,2,2,B|384:51|255:-3|131:28|96:120|96:120,1,400
112,240,112354,2,0,B|83:296|16:286|16:286,1,100,0|8
152,176,112834,6,0,B|184:125|236:121|236:121,1,100,0|8
336,128,113314,1,0
336,128,113434,1,0
336,128,113554,1,0
384,248,113794,2,0,B|408:296|472:296|472:296,1,100,0|8
312,208,114274,2,0,B|248:192|216:232|216:232,1,100,0|8
288,328,114754,1,2
168,344,114994,2,2,B|79:370|28:278|84:223|84:223,1,200,2|6
176,144,115714,1,0
176,144,115834,1,0
176,144,115954,1,8
280,88,116194,2,0,B|328:112|384:96|384:96,1,100,8|8
377,97,116674,5,8
256,192,116914,12,2,119314
168,72,125074,6,0,B|186:125|168:176|168:176,1,100,2|0
136,264,125554,1,0
232,288,125794,2,0,B|305:339|351:221|424:288|424:288,1,200,2|0
480,208,126514,2,0,B|398:213|346:132|388:68|388:68,1,200,0|2
472,112,127234,1,0
472,112,127474,1,0
472,112,127714,6,0,B|296:224|296:224,1,200,2|0
208,240,128434,1,0
128,184,128674,2,0,B|54:213|11:139|57:74|129:106|129:106,1,200,2|0
216,144,129394,1,0
304,184,129634,2,0,B|378:213|421:139|375:74|303:106|303:106,1,200,2|0
216,144,130354,5,2
216,144,130474,1,0
216,144,130594,1,2
160,224,130834,1,2
192,320,131074,1,2
288,336,131314,1,2
272,240,131554,1,2
368,256,131794,1,2
448,200,132034,5,0
464,104,132274,1,0
416,16,132514,1,0
360,96,132754,1,4
360,96,133234,5,0
120,112,133714,1,0
152,352,134194,1,0
392,336,134674,2,0,B|384:272|424:232|424:232,1,100,0|0
472,136,135154,2,0,B|432:104|392:72|392:72,1,100,0|0
336,176,135634,2,0,B|254:233|224:106|145:175|145:175,1,200,4|0
56,256,136354,1,0
56,256,136594,6,0,B|104:288|152:272,1,100,2|0
272,280,137074,1,0
334,176,137314,2,0,B|396:108|341:20|254:63|254:63,1,200,2|0
259,61,137914,1,0
257,61,138034,2,0,B|261:62|174:19|119:107|181:175,1,200,2|0
96,256,138754,1,2
192,328,138994,1,8
312,328,139234,1,8
408,256,139474,1,8
256,192,139714,6,0,B|161:118|147:265|59:188|59:188,1,200,0|2
256,192,140434,2,0,B|351:266|365:119|453:196|453:196,1,200,0|4
256,72,141634,5,2
144,104,141874,2,2,B|80:208|128:312|224:368|288:376|408:312|440:208|368:104|368:104,1,600
256,72,143554,1,0
256,72,143794,5,8
224,192,144034,1,0
144,104,144274,1,2
104,216,144514,1,0
184,304,144754,1,8
304,280,144994,1,0
344,168,145234,1,2
264,80,145474,1,0
264,80,145594,1,0
264,80,145714,6,0,B|264:137|223:170|223:170,1,100,8|0
256,192,146194,12,4,148114
360,304,148354,5,0
360,304,148474,1,0
360,304,148594,1,8
248,336,148834,1,0
248,336,148954,1,0
248,336,149074,1,8
144,272,149314,2,0,B|160:224|143:171|143:171,1,100,2|0
96,64,149794,1,0
96,64,149914,1,0
96,64,150034,1,6
208,96,150274,5,0
208,96,150394,1,0
208,96,150514,1,8
296,8,150754,1,0
296,8,150874,1,0
296,8,150994,1,8
400,64,151234,2,0,B|448:24|496:40|496:40,1,100,0|2
352,136,151714,2,0,B|336:192|280:208|280:208,1,100,0|2
168,216,152194,1,0
168,216,152434,5,2
80,136,152674,2,2,B|16:264|120:320|120:320,1,200
232,336,153394,2,2,B|335:382|339:266|441:340|441:340,1,200,2|6
480,232,154114,1,0
448,184,154234,1,0
416,136,154354,1,8
464,24,154594,1,0
464,24,154834,6,0,B|400:48|344:40|344:40,1,100,8|2
256,0,155314,2,2,B|256:104|256:104,1,100,2|2
208,208,155794,1,6
280,304,156034,1,8
280,304,156154,1,0
280,304,156274,1,8
160,320,156514,1,8
160,320,156754,1,8
88,224,156994,5,2
128,112,157234,2,2,B|151:62|205:51|344:61|371:197|165:255|131:163|220:34|251:9|312:32|312:32,1,400
376,128,158434,1,8
328,240,158674,1,8
328,240,158794,1,0
328,240,158914,5,2
208,256,159154,2,0,B|149:247|121:194|121:194,1,100,2|0
64,96,159634,2,0,B|154:35|170:163|253:96|253:96,1,200,6|0
360,40,160354,1,0
360,40,160474,1,0
360,40,160594,1,2
344,160,160834,1,0
344,160,160954,1,0
344,160,161074,1,2
416,256,161314,1,0
416,256,161434,1,0
416,256,161554,1,2
304,288,161794,5,0
304,288,161914,1,0
304,288,162034,1,8
216,208,162274,1,0
216,208,162394,1,0
216,208,162514,1,8
96,224,162754,1,0
96,224,162874,1,0
96,224,162994,1,8
96,224,163114,1,0
96,224,163234,1,0
96,224,163354,1,0
96,224,163474,5,6
216,208,163714,2,0,B|272:192,1,50,0|2
423,137,164074,2,0,B|376:152,1,50,0|2
264,112,164434,1,2
184,24,164674,1,2
120,128,164914,1,0
88,160,165034,1,0
80,208,165154,1,0
104,248,165274,1,0
144,264,165394,5,6
264,272,165634,2,0,B|296:272|320:256|320:256,1,50,0|2
481,232,165994,2,0,B|464:239|432:240,1,50,0|2
360,144,166354,2,0,B|336:96|352:40|352:40,1,100,2|2
232,64,166834,2,0,B|120:72,1,100,8|0
72,176,167314,6,2,B|173:258|259:173|259:173,1,200,2|0
254,176,167914,1,0
256,176,168034,2,0,B|251:179|337:94|438:176,1,200,2|2
456,296,168754,1,2
352,352,168994,1,2
256,280,169234,1,6
256,160,169474,1,0
256,144,169594,1,0
256,128,169714,1,8
288,8,169954,1,0
288,8,170194,6,0,B|248:40|192:32|192:32,1,100,8|2
72,16,170674,2,0,B|72:136|72:136,1,100,2|0
72,232,171154,1,6
176,288,171394,1,0
176,288,171514,1,0
176,288,171634,2,0,B|176:224|224:200|224:200,1,100,8|0
304,120,172114,5,8
304,120,172234,1,0
304,120,172354,1,0
304,120,172474,1,0
304,120,172594,2,2,B|335:198|247:243|125:138|199:-15|345:-41|433:64|371:166|371:166,1,400
360,240,173794,2,0,B|408:232|464:224|464:224,1,100,0|8
272,256,174274,6,0,B|160:272|160:272,1,100,0|8
80,344,174754,1,0
88,224,174994,2,6,B|150:128|-1:117|98:24|98:24,1,200,6|2
200,80,175714,1,0
200,80,175834,1,0
200,80,175954,1,2
296,16,176194,1,0
296,16,176314,1,0
296,16,176434,1,2
352,120,176674,6,0,B|416:136|448:96|448:96,1,100,0|2
264,144,177154,2,0,B|204:146|184:200|184:200,1,100,0|2
328,200,177634,2,0,B|336:264|392:272|392:272,1,100,0|2
256,192,178114,12,4,178834
