osu file format v9

[General]
AudioFilename: Mika Newton - Angel.mp3
AudioLeadIn: 1000
PreviewTime: 37350
Countdown: 1
SampleSet: Soft
StackLeniency: 1
Mode: 0
LetterboxInBreaks: 1

[Editor]
DistanceSpacing: 1.2
BeatDivisor: 4
GridSize: 4

[Metadata]
Title:Angel
Artist:Mika Newton
Creator:Tony
Version:Normal
Source:Eurovision Song Contest 2011
Tags:Ukraine Armin

[Difficulty]
HPDrainRate:5
CircleSize:4
OverallDifficulty:5
ApproachRate:5
SliderMultiplier:1.6
SliderTickRate:2

[Events]
//Background and Video events
0,0,"bg.jpg"
Video,-900,"Ukraine - Angel - VIDEO.avi"
//Break Periods
2,113881,128661
//Storyboard Layer 0 (Background)
//Storyboard Layer 1 (Fail)
//Storyboard Layer 2 (Pass)
//Storyboard Layer 3 (Foreground)
//Storyboard Sound Samples
//Background Colour Transformations
3,100,163,162,255

[TimingPoints]
423.213483146068,674.157303370787,4,2,0,60,1,0
38176,-100,4,2,0,60,0,1
38513,-100,4,2,0,60,0,0
89411,-100,4,2,0,60,0,1
89749,-100,4,2,0,60,0,0
135254,-100,4,2,0,60,0,1
177726,-100,4,2,0,60,0,0
182614,-100,4,2,0,5,0,0

[Colours]
Combo1 : 31,45,167
Combo2 : 188,14,14
Combo3 : 9,111,52

[HitObjects]
256,192,8513,12,4,10535
60,192,11209,5,0
340,268,12220,1,2
284,188,12558,2,0,B|340:148|396:188,1,120
340,320,13569,1,2
244,320,13906,1,0
100,192,14580,1,0
252,72,15254,6,0,B|336:72,2,80,2|0|0
248,168,16265,1,0
152,172,16602,2,0,B|140:204|140:204|152:244|152:244|192:260|192:260|232:244|232:244,2,160,2|0|2
328,244,18625,1,0
272,60,19299,2,0,B|328:36|388:60,2,120,2|0|2
36,136,21996,6,0,B|12:192|36:252,1,120,2|0
168,192,23007,2,0,B|276:192,1,80,2|0
344,192,23681,1,0
304,280,24018,2,0,B|344:292|384:280,1,80,2|0
452,212,24692,2,0,B|464:168|464:168|440:112|376:100,1,160,2|0
188,64,26041,6,0,B|112:96|112:96,2,80,2|0|0
184,160,27052,1,0
132,240,27389,2,0,B|188:276|244:240,3,120,2|0|2|0
344,136,29411,1,0
396,320,30086,2,0,B|340:356|284:320,2,120,2|0|0
340,240,31434,6,0,B|340:156,1,80,2|0
244,160,32108,2,0,B|164:160,1,80
68,160,32782,1,2
68,64,33119,2,0,B|148:36|232:60,1,160
136,228,34468,2,0,B|216:256|300:232,1,160,2|0
256,44,35816,5,4
256,140,36153,2,0,B|184:140,4,40,0|0|8|0|0
256,332,37501,1,4
180,156,38176,6,0,B|256:128|336:156,1,160,4|8
408,220,39187,1,0
332,280,39524,2,0,B|256:308|176:280,1,160,0|8
104,216,40535,1,0
160,136,40872,2,0,B|160:96|192:60,2,80,0|0|8
352,136,42220,2,0,B|352:96|320:60,2,80,0|0|8
232,288,43569,6,0,B|204:212|204:212|232:136,1,160,4|8
292,212,44580,1,0
352,136,44917,2,0,B|380:212|380:212|352:288,1,160,0|8
264,324,45928,1,0
176,284,46265,1,0
96,228,46602,1,0
44,148,46940,1,8
176,284,47614,1,0
260,236,47951,1,0
292,144,48288,5,4
140,28,48962,2,0,B|64:76|84:168,2,160,2|8|0
184,112,50647,1,0
216,204,50985,2,0,B|292:156|272:64,2,160,8|0|8
220,300,52670,1,0
312,272,53007,1,0
392,220,53344,1,0
456,148,53681,1,8
264,148,54355,6,0,B|216:132|216:132|160:132|160:132|108:148,1,160,4|8
48,224,55367,1,0
108,300,55704,1,0
168,224,56041,1,0
228,300,56378,1,8
420,300,57052,6,0,B|456:224|420:144,1,160,0|8
340,196,58063,1,0
288,116,58400,1,0
196,88,58737,1,0
112,136,59074,1,4
256,192,59749,12,2,62445
88,192,63794,6,0,B|88:112|88:112|148:52,1,160,2|8
328,104,65142,2,0,B|328:184|328:184|268:244,1,160,2|8
84,196,66490,5,2
84,196,66827,1,0
84,196,67164,2,0,B|84:104,1,80,8|0
84,196,67838,2,0,B|172:196,1,80,2|0
84,196,68513,2,0,B|84:256|128:296|196:288,1,160,8|2
244,208,69524,5,0
296,128,69861,2,0,B|336:120|376:128,1,80,8|0
332,212,70535,2,0,B|372:220|412:212,1,80,2|0
468,136,71209,2,0,B|500:208|500:208|468:288,1,160,8|2
280,320,72558,1,8
96,268,73232,5,4
96,76,73906,2,0,B|184:76,1,80,8|0
136,164,74580,2,0,B|216:164,1,80,2|0
312,164,75254,1,8
376,92,75591,1,0
440,164,75928,2,0,B|460:256|384:304,1,160,2|8
228,196,77277,5,2
132,196,77614,1,0
80,116,77951,1,8
136,40,78288,1,0
232,40,78625,2,0,B|305:87|338:161,1,160,2|8
239,145,79636,2,0,B|270:214|344:262,1,160,2|0
423,207,80647,1,8
256,192,80816,12,0,82670
48,196,83344,5,4
180,56,84018,2,0,B|252:0|328:56,1,160,2|0
472,304,85704,2,0,B|400:360|324:304,1,160,2|0
144,236,87052,5,4
184,148,87389,1,0
232,148,87558,2,0,B|280:148,3,40,0|8|0|0
440,56,88737,1,4
464,252,89411,5,4
368,264,89749,2,0,B|288:264,1,80,0|8
212,204,90423,1,0
148,276,90760,2,0,B|116:248|100:208|116:168|148:136,1,160,2|8
276,280,92108,2,0,B|308:252|324:212|308:172|276:140,1,160,2|8
200,80,93119,1,0
104,80,93456,1,2
48,160,93793,1,0
48,256,94131,1,8
232,304,94805,6,0,B|312:272|332:188,1,160,4|8
236,192,95816,1,0
140,208,96153,2,0,B|160:123|240:91,1,160,2|8
336,100,97164,1,0
428,132,97501,1,2
468,220,97838,2,0,B|468:304,1,80,0|8
280,264,98850,1,2
208,200,99187,1,0
128,144,99524,5,4
312,88,100198,2,0,B|388:52|468:84,1,160,2|8
392,144,101209,1,0
392,240,101546,1,2
296,240,101883,1,0
296,336,102220,1,8
128,244,102895,2,0,B|128:164,2,80,2|0|8
232,84,104243,2,0,B|232:164,2,80,2|0|8
412,152,105591,6,0,B|432:212|432:212|432:308,1,160,4|8
240,308,106940,2,0,B|220:248|220:248|220:152,1,160,2|8
108,308,108288,1,2
72,220,108625,1,0
72,124,108962,1,8
264,112,109636,2,0,B|344:84|424:112,1,160,2|4
256,192,110985,12,2,113681
256,192,129861,12,4,134580
136,196,135254,6,0,B|172:160|172:104,1,80,4|0
76,128,135928,2,0,B|74:93|110:57,1,80,8|0
204,56,136602,2,0,B|284:48|284:48|364:56,1,160,2|8
456,224,137951,1,2
364,252,138288,1,0
272,224,138625,1,8
104,132,139299,1,2
76,224,139636,1,0
104,316,139973,1,8
256,196,140647,6,0,B|312:136|312:136|400:136,1,160,4|8
356,228,141659,1,0
444,268,141996,2,0,B|388:328|388:328|300:328,1,160,2|8
240,264,143007,1,0
172,196,143344,1,2
156,100,143681,1,0
60,100,144018,1,8
240,40,144692,2,0,B|320:40,2,80,2|0|4
360,192,146041,6,0,B|440:176|440:176|488:108,1,160,2|8
388,108,147052,1,0
292,112,147389,1,2
200,132,147726,1,0
116,176,148063,2,0,B|116:264,1,80,8|0
204,292,148737,2,0,B|204:204,1,80,2|0
296,192,149411,1,8
156,60,150086,2,0,B|120:40|80:60,2,80,2|0|8
156,252,151434,6,0,B|228:268|296:192,1,160,4|8
108,164,152782,2,0,B|175:88|247:104,1,160,2|8
440,96,154131,1,2
460,192,154468,1,0
432,284,154805,1,8
264,192,155479,2,0,B|184:192,2,80,2|0|4
204,296,156827,6,0,B|280:324|360:296,1,160,4|8
440,240,157838,1,0
364,180,158176,2,0,B|288:152|208:180,1,160,0|8
132,120,159187,1,0
132,120,159524,2,0,B|132:80|164:44,2,80,0|0|8
324,120,160872,2,0,B|324:160|292:196,2,80,0|0|8
456,260,162220,6,0,B|484:184|484:184|456:108,1,160,4|8
380,52,163232,1,0
284,36,163569,2,0,B|256:112|256:112|284:188,1,160,0|8
348,256,164580,1,0
348,256,164917,1,0
264,300,165254,1,0
264,300,165591,1,8
152,144,166265,1,0
220,76,166602,1,0
316,68,166940,5,4
264,252,167614,2,0,B|188:288|108:256,1,160,2|8
184,196,168625,1,0
184,100,168962,1,0
280,100,169299,1,0
280,100,169636,1,8
412,240,170310,2,0,B|420:276|420:276|412:320,2,80,0|0|8
236,316,171659,2,0,B|228:276|228:276|236:236,2,80,0|0|8
164,188,173007,6,0,B|144:112|144:112|72:60,1,160,4|8
164,188,174355,2,0,B|229:235|229:235|249:311,1,160,0|8
164,188,175704,1,0
252,152,176041,1,0
348,152,176378,1,8
456,312,177052,2,0,B|380:340|380:340|308:308,1,160,2|8
256,192,178400,12,2,182614
