osu file format v9

[General]
AudioFilename: Mika Newton - Angel.mp3
AudioLeadIn: 1000
PreviewTime: 37350
Countdown: 1
SampleSet: Soft
StackLeniency: 1
Mode: 0
LetterboxInBreaks: 1

[Editor]
Bookmarks: 75254
DistanceSpacing: 1.1
BeatDivisor: 4
GridSize: 4

[Metadata]
Title:Angel
Artist:Mika Newton
Creator:Tony
Version:Hard
Source:Eurovision Song Contest 2011
Tags:Ukraine Armin

[Difficulty]
HPDrainRate:6
CircleSize:4
OverallDifficulty:6
ApproachRate:6
SliderMultiplier:2.3
SliderTickRate:2

[Events]
//Background and Video events
0,0,"bg.jpg"
Video,-900,"Ukraine - Angel - VIDEO.avi"
//Break Periods
2,113891,128801
//Storyboard Layer 0 (Background)
//Storyboard Layer 1 (Fail)
//Storyboard Layer 2 (Pass)
//Storyboard Layer 3 (Foreground)
//Storyboard Sound Samples
//Background Colour Transformations
3,100,163,162,255

[TimingPoints]
423.213483146068,674.157303370787,4,2,0,60,1,0
38176,-100,4,2,0,60,0,1
38513,-100,4,2,0,60,0,0
89411,-100,4,2,0,60,0,1
89749,-100,4,2,0,60,0,0
135254,-100,4,2,0,60,0,1
177726,-100,4,2,0,60,0,0
182614,-100,4,2,0,5,0,0

[Colours]
Combo1 : 31,45,167
Combo2 : 188,14,14
Combo3 : 9,111,52

[HitObjects]
256,192,8513,12,6,10535
256,192,11209,5,0
96,92,12220,6,0,B|40:92,2,57.5,0|0|2
180,192,12895,1,0
244,192,13063,1,2
346,286,13400,1,0
396,192,13737,2,0,B|427:180|427:180|443:154|443:154|427:106|427:106|380:90|380:90|352:106|352:106|342:138,1,230,2|0
120,192,15254,5,2
200,292,15591,1,0
248,248,15760,1,2
360,192,16097,1,0
248,132,16434,2,0,B|132:132,1,115,2|0
48,224,17108,2,0,B|8:237|8:237|-11:270|-11:270|8:330|8:330|67:350|67:350|101:330|101:330|114:290,1,287.5,2|0
304,292,18456,5,2
128,220,18962,1,0
124,92,19299,1,0
316,72,19805,2,0,B|424:72|424:176,1,172.5,2|2
92,192,21996,6,0,B|119:151|167:137|214:151|235:192,1,172.5,2|2
376,320,23007,5,0
420,276,23176,1,0
432,212,23344,1,2
356,112,23681,2,0,B|288:112,1,57.5,0|2
172,112,24187,1,0
44,112,24524,2,0,B|92:232|133:156|188:283,1,230,2|0
416,60,26041,5,2
352,60,26209,1,0
252,136,26546,1,2
124,136,26883,1,0
124,324,27389,2,0,B|248:362|214:282|347:319,1,230,2|0
347,193,28400,2,0,B|222:154|256:234|123:197,1,230,2|0
59,197,29243,1,2
300,84,30086,5,2
476,156,30591,1,2
300,228,31097,1,0
172,228,31434,6,0,B|108:228,1,57.5,2|0
92,104,31940,1,0
216,72,32277,2,0,B|272:40|340:36|340:36|380:60,1,172.5,2|0
484,124,33119,2,0,B|411:165|322:170|322:170|270:139,1,230,2|0
68,296,34468,2,0,B|141:337|230:342|230:342|282:311,1,230,2|0
144,196,35816,5,4
84,84,36153,2,0,B|8:84,3,57.5
26,147,36827,1,8
26,273,37164,2,0,B|26:329,1,57.5
89,330,37501,1,4
299,192,38176,6,0,B|352:152|407:193,1,115,2|0
468,192,38681,1,0
468,255,38850,1,8
364,328,39187,2,0,B|304:328,1,57.5
180,328,39692,2,0,B|236:328,1,57.5
276,208,40198,5,8
160,160,40535,1,0
104,48,40872,1,0
43,55,41041,1,0
36,117,41209,1,0
94,144,41378,1,0
137,98,41546,1,8
256,60,41883,2,0,B|336:60,1,57.5
400,152,42389,2,0,B|304:152,1,57.5
268,252,42895,5,8
148,292,43232,1,0
148,164,43569,1,0
112,112,43737,1,0
140,56,43906,1,0
268,56,44243,2,0,B|324:24|376:56,1,115,8|0
376,120,44749,2,0,B|320:152|268:120,1,115
212,88,45254,1,0
212,216,45591,5,8
332,256,45928,1,0
452,216,46265,1,0
452,216,46434,1,0
452,152,46602,1,0
452,152,46771,1,0
452,88,46940,1,8
336,36,47277,2,0,B|280:36,1,57.5
168,100,47782,2,0,B|228:100,1,57.5
264,220,48288,5,4
156,288,48625,1,0
76,192,48962,2,0,B|16:192,2,57.5
156,288,49636,1,8
280,316,49973,2,0,B|348:316,1,57.5
372,192,50479,1,0
436,192,50647,1,0
372,80,50985,5,8
248,108,51322,1,0
128,144,51659,1,0
128,144,51827,1,0
100,200,51996,1,0
100,200,52164,1,0
80,256,52333,1,8
208,260,52670,1,0
272,260,52838,1,0
276,132,53176,2,0,B|336:132,1,57.5
436,208,53681,5,8
376,320,54018,1,0
272,260,54355,1,0
208,260,54524,1,0
208,260,54692,1,0
144,260,54861,1,0
144,260,55029,1,8
84,148,55367,1,0
20,148,55535,1,0
84,40,55872,1,0
148,40,56041,1,0
248,116,56378,5,8
376,116,56715,1,0
376,244,57052,2,0,B|376:308,2,57.5
312,244,57558,1,0
248,244,57726,1,8
136,184,58063,1,0
72,184,58232,1,0
136,76,58569,1,0
200,76,58737,1,0
308,140,59074,5,4
256,192,59749,12,0,62445
72,196,63456,5,2
104,144,63625,1,0
168,140,63794,1,0
168,268,64131,1,2
232,268,64299,1,0
324,184,64636,2,0,B|416:184|416:184|488:144,1,172.5,2|0
256,44,65816,1,8
36,160,66490,5,2
36,224,66659,1,0
164,224,66996,2,0,B|292:224,1,115,2|0
284,96,67670,2,0,B|412:96,2,115,2|0|2
172,308,69187,5,2
280,240,69524,1,0
280,240,69692,2,0,B|340:228|396:240,1,115,2|0
476,140,70367,2,0,B|416:128|360:140,1,115,2|0
252,80,71041,2,0,B|213:70|213:70|179:80|179:80|150:137|150:137|179:200|179:200|213:215|213:215|252:200,1,287.5,2|0
476,80,72558,1,8
236,156,73232,5,2
256,344,73737,1,0
444,312,74243,1,2
432,252,74411,1,0
384,212,74580,1,0
272,156,74917,2,0,B|216:156,1,57.5,2|0
88,156,75423,1,0
12,256,75760,2,0,B|-13:296|12:347|88:383|164:347|190:296|164:256,1,287.5,2|8
388,188,77277,5,2
376,128,77445,1,0
248,128,77782,1,2
268,252,78119,1,0
88,308,78625,2,0,B|12:268|8:156,1,172.5,2|0
256,192,79636,12,0,81322
172,228,82670,6,0,B|108:228,1,57.5,2|0
92,104,83176,1,0
216,72,83513,2,0,B|296:36|296:36|380:60,1,172.5,2|0
484,124,84355,2,0,B|392:204|270:139,1,230,2|0
68,296,85704,2,0,B|104:332|172:348|240:332|280:296,1,230,2|0
444,116,87052,5,4
272,192,87558,1,0
220,228,87726,1,0
168,192,87895,1,0
116,228,88063,1,8
60,116,88400,1,0
100,68,88569,1,0
160,56,88737,1,4
412,52,89411,5,2
412,180,89749,1,0
348,180,89917,1,0
284,180,90086,1,8
260,304,90423,2,0,B|200:304,1,57.5
76,304,90928,2,0,B|132:304,1,57.5
60,200,91434,5,8
172,140,91771,1,0
212,260,92108,1,0
276,260,92277,1,0
212,260,92445,1,0
212,324,92614,1,0
276,324,92782,1,8
404,324,93119,2,0,B|484:324,1,57.5
500,204,93625,2,0,B|404:204,1,57.5
348,120,94131,5,8
224,92,94468,1,0
148,192,94805,1,0
148,192,94973,1,0
148,256,95142,1,0
248,324,95479,2,0,B|304:356|356:324,1,115,8|0
356,260,95985,2,0,B|412:228|464:260,1,115
488,324,96490,1,0
360,324,96827,5,8
264,240,97164,1,0
140,264,97501,1,0
92,304,97670,1,0
44,264,97838,1,0
92,224,98007,1,0
92,160,98176,1,8
188,80,98513,2,0,B|132:80,1,57.5
228,156,99018,2,0,B|288:156,1,57.5
288,284,99524,5,4
160,288,99861,1,0
76,192,100198,2,0,B|16:192,2,57.5,0|0|0
160,288,100872,1,8
244,192,101209,2,0,B|312:192,1,57.5
388,288,101715,1,0
452,288,101883,1,0
324,288,102220,5,8
208,240,102558,1,0
128,144,102895,1,0
128,144,103063,1,0
80,184,103232,1,0
72,248,103400,1,0
72,248,103569,1,8
192,292,103906,1,0
236,336,104074,1,0
316,236,104411,2,0,B|376:236,1,57.5
468,152,104917,5,8
340,148,105254,1,0
212,148,105591,1,0
180,176,105760,1,0
148,148,105928,1,0
116,120,106097,1,0
84,148,106265,1,8
84,276,106602,1,0
20,276,106771,1,0
128,344,107108,1,0
192,344,107277,1,0
320,344,107614,5,8
376,232,107951,1,0
320,120,108288,2,0,B|320:56,2,57.5
256,132,108793,1,0
196,152,108962,1,8
120,252,109299,1,0
60,276,109468,1,0
60,148,109805,1,0
116,120,109973,1,0
224,56,110310,5,4
256,192,110985,12,0,113681
256,192,129861,12,4,134580
256,84,135254,5,2
376,128,135591,1,0
360,188,135760,1,0
312,228,135928,1,8
184,228,136265,2,0,B|124:228,1,57.5
184,340,136771,2,0,B|240:340,1,57.5
364,300,137277,5,8
448,208,137614,1,0
332,164,137951,1,0
325,103,138119,1,0
263,96,138288,1,0
228,44,138456,1,0
168,60,138625,1,8
160,188,138962,2,0,B|240:188,1,57.5
316,268,139468,2,0,B|220:268,1,57.5
160,188,139973,5,8
100,76,140310,1,0
160,188,140647,1,0
192,132,140816,1,0
224,188,140985,1,0
136,280,141322,2,0,B|192:312|244:280,1,115,8|0
354,279,141827,2,0,B|298:247|246:279,1,115
264,340,142333,1,0
140,324,142670,5,8
24,268,143007,1,0
140,212,143344,1,0
156,152,143513,1,0
208,184,143681,1,0
208,184,143850,1,0
224,124,144018,1,8
136,32,144355,2,0,B|80:32,1,57.5
204,32,144861,2,0,B|264:32,1,57.5
360,112,145367,5,4
276,208,145704,1,0
192,112,146041,2,0,B|132:112,2,57.5
276,208,146715,1,8
360,112,147052,2,0,B|428:112,1,57.5
436,236,147558,1,0
372,236,147726,1,0
288,144,148063,5,8
208,240,148400,1,0
128,144,148737,1,0
84,192,148906,1,0
44,240,149074,1,0
72,296,149243,1,0
44,240,149411,1,8
148,312,149749,1,0
212,312,149917,1,0
316,236,150254,2,0,B|376:236,1,57.5
468,152,150760,5,8
368,76,151097,1,0
268,152,151434,1,0
208,132,151602,1,0
156,168,151771,1,0
96,188,151940,1,0
44,152,152108,1,8
92,268,152445,1,0
28,268,152614,1,0
128,344,152951,1,0
192,344,153119,1,0
320,344,153456,5,8
376,232,153793,1,0
248,232,154131,2,0,B|248:168,2,57.5
280,288,154636,1,0
248,344,154805,1,8
124,324,155142,1,0
124,260,155310,1,0
56,152,155647,1,0
112,124,155816,1,0
224,56,156153,5,4
412,332,156827,5,2
412,204,157164,1,0
368,156,157333,1,0
320,200,157501,1,8
196,188,157838,2,0,B|136:188,1,57.5
76,80,158344,2,0,B|132:80,1,57.5
260,80,158850,5,8
296,200,159187,1,0
212,296,159524,1,0
164,256,159692,1,0
144,196,159861,1,0
164,136,160029,1,0
212,96,160198,1,8
332,136,160535,2,0,B|412:136,1,57.5
388,264,161041,2,0,B|292:264,1,57.5
220,324,161546,5,8
96,296,161883,1,0
168,192,162220,1,0
168,128,162389,1,0
168,128,162558,1,0
244,228,162895,2,0,B|300:196|352:228,1,115,8|0
364,168,163400,2,0,B|420:136|472:168,1,115
472,232,163906,1,0
372,312,164243,5,8
244,312,164580,1,0
180,204,164917,1,0
148,148,165086,1,0
84,148,165254,1,0
56,204,165423,1,0
84,260,165591,1,8
196,324,165928,2,0,B|252:324,1,57.5
292,204,166434,2,0,B|352:204,1,57.5
340,76,166940,5,4
212,84,167277,1,0
112,164,167614,2,0,B|52:164,2,57.5
216,236,168288,1,8
320,308,168625,2,0,B|388:308,1,57.5
392,184,169131,1,0
456,184,169299,1,0
336,148,169636,5,8
208,148,169973,1,0
208,276,170310,1,0
156,240,170479,1,0
156,240,170647,1,0
136,300,170816,1,0
136,300,170985,1,8
48,212,171322,1,0
48,148,171490,1,0
128,48,171827,2,0,B|188:48,1,57.5
288,120,172333,5,8
416,120,172670,1,0
416,248,173007,1,0
416,248,173176,1,0
352,248,173344,1,0
352,248,173513,1,0
288,248,173681,1,8
176,192,174018,1,0
112,192,174187,1,0
176,84,174524,1,0
240,84,174692,1,0
368,84,175029,5,8
424,196,175367,1,0
320,264,175704,2,0,B|320:328,2,57.5
256,252,176209,1,0
196,232,176378,1,8
288,148,176715,1,0
228,124,176883,1,0
344,176,177220,1,0
400,204,177389,1,0
348,88,177726,5,4
256,192,178400,12,0,182614
