osu file format v13

[General]
AudioFilename: MKAlieZ.mp3
AudioLeadIn: 2000
PreviewTime: 59720
Countdown: 0
SampleSet: None
StackLeniency: 0.5
Mode: 0
LetterboxInBreaks: 0
WidescreenStoryboard: 1

[Editor]
Bookmarks: 58218,59718,99018,100818,165068,168068
DistanceSpacing: 1
BeatDivisor: 8
GridSize: 4
TimelineZoom: 1.6

[Metadata]
Title:MKAlieZ
TitleUnicode:MKAlieZ
Artist:Mika Kobayashi
ArtistUnicode:小林未郁
Creator:jonathanlfj
Version:MK
Source:アルドノア・ゼロ
Tags:澤野弘之 Hiroyuki Sawano aldnoah.zero aldnoah zero ending ed 2 english german
BeatmapID:503708
BeatmapSetID:214344

[Difficulty]
HPDrainRate:6.5
CircleSize:4
OverallDifficulty:8
ApproachRate:9.2
SliderMultiplier:2.7
SliderTickRate:2

[Events]
//Background and Video events
0,0,"morebadass.jpg",0,0
//Break Periods
2,58420,59150
2,99145,100210
2,165230,167460
//Storyboard Layer 0 (Background)
//Storyboard Layer 1 (Fail)
//Storyboard Layer 2 (Pass)
//Storyboard Layer 3 (Foreground)
//Storyboard Sound Samples
//Background Colour Transformations
3,100,0,0,0

[TimingPoints]
620.438693710764,600,4,2,2,70,1,0
39020,-117.647058823529,4,2,2,60,0,0
58220,-117.647058823529,4,2,2,40,0,0
59720,-142.857142857143,4,2,2,30,0,0
60470,-142.857142857143,4,2,2,5,0,0
60620,-86.9565217391304,4,2,2,80,0,1
79745,-86.9565217391304,4,2,2,80,0,0
79820,-86.9565217391304,4,2,2,80,0,1
99020,-86.9565217391304,4,2,2,40,0,0
100780,500,4,2,2,70,1,0
101030,500,4,2,2,70,1,0
133030,-117.647058823529,4,2,2,60,0,0
141030,-111.111111111111,4,2,2,60,0,0
149030,-105.263157894737,4,2,2,65,0,0
157030,-100,4,2,2,70,0,0
165030,-100,4,2,2,50,0,0
168030,-62.5,4,2,2,50,0,0
168405,-76.9230769230769,4,2,2,50,0,0
169030,-83.3333333333333,4,2,2,80,0,1
184967,-83.3333333333333,4,2,2,80,0,0
185030,-90.9090909090909,4,2,2,70,0,1
185092,-90.9090909090909,4,2,2,70,0,0
201030,-111.111111111111,4,2,2,60,0,0

[Colours]
Combo1 : 250,207,80
Combo2 : 73,204,254
Combo3 : 119,253,216
Combo4 : 252,114,67

[HitObjects]
152,244,620,22,0,P|220:244|280:204,1,135,2|0,1:2|0:0,0:0:0:0:
268,100,1070,1,0,1:0:0:0:
92,160,1220,2,0,P|67:188|52:224,1,67.5
164,80,1520,2,0,P|156:44|132:0,1,67.5,2|0,1:2|0:0,0:0:0:0:
276,208,1820,1,0,0:0:0:0:
276,208,1970,2,0,P|332:224|404:200,1,135,0|0,1:0|0:0,0:0:0:0:
436,40,2420,2,0,L|400:116,1,67.5,0|0,1:0|1:0,0:0:0:0:
480,280,2720,2,0,L|512:208,1,67.5
380,316,3020,6,0,B|336:320|336:320|296:340|296:340|248:344,1,135,2|0,1:2|0:0,0:0:0:0:
104,352,3470,1,0,1:0:0:0:
200,244,3620,2,0,L|300:236,1,67.5
84,172,3920,2,0,L|64:244,1,67.5,2|0,1:2|0:0,0:0:0:0:
184,136,4220,1,0,0:0:0:0:
184,136,4370,2,0,L|168:56,2,67.5,0|0|0,1:0|0:0|0:0,0:0:0:0:
320,236,4820,1,0,1:0:0:0:
208,284,4970,1,0,1:0:0:0:
204,264,5045,1,0,1:0:0:0:
200,244,5120,1,0,0:0:0:0:
292,140,5270,1,0,0:0:0:0:
416,220,5420,6,0,P|416:248|404:288,1,67.5,2|0,1:2|0:0,0:0:0:0:
388,112,5720,2,0,P|436:112|464:120,1,67.5,0|0,0:0|1:0,0:0:0:0:
292,140,6020,1,0,0:0:0:0:
316,40,6170,1,0,0:0:0:0:
320,236,6320,2,0,L|312:304,1,67.5,2|0,1:2|0:0,0:0:0:0:
108,344,6620,1,0,0:0:0:0:
108,344,6770,2,0,L|88:200,1,135,0|0,1:0|0:0,0:0:0:0:
164,68,7220,1,0,1:0:0:0:
176,164,7370,1,0,1:0:0:0:
24,140,7520,2,0,L|12:60,1,67.5,0|0,1:0|0:0,0:0:0:0:
176,164,7820,6,0,P|252:160|320:128,1,135,2|0,1:2|0:0,0:0:0:0:
464,96,8270,2,0,P|368:88|308:108,1,135,0|0,1:0|0:0,0:0:0:0:
236,264,8720,2,0,P|272:264|312:256,1,67.5,2|0,1:2|0:0,0:0:0:0:
400,188,9020,1,0,0:0:0:0:
176,164,9170,2,0,P|142:167|104:184,1,67.5,0|0,1:0|0:0,0:0:0:0:
52,280,9470,1,0,0:0:0:0:
36,152,9620,1,0,1:0:0:0:
164,244,9770,1,0,1:0:0:0:
236,104,9920,2,0,P|244:72|244:28,1,67.5,0|0,1:0|1:0,0:0:0:0:
288,200,10220,6,0,P|280:276|288:344,1,135,2|0,1:2|0:0,0:0:0:0:
376,168,10670,2,0,B|368:136|368:136|368:92,1,67.5,0|0,1:0|0:0,0:0:0:0:
440,232,10970,1,0,0:0:0:0:
284,196,11120,2,0,B|249:189|249:189|208:192,1,67.5,2|0,1:2|0:0,0:0:0:0:
92,296,11420,1,0,0:0:0:0:
92,296,11570,2,0,L|176:292,2,67.5,0|0|0,1:0|0:0|0:0,0:0:0:0:
152,200,12020,1,0,1:0:0:0:
248,320,12170,1,0,1:0:0:0:
352,228,12320,2,0,P|312:228|276:240,1,67.5
448,308,12620,6,0,P|472:228|464:168,1,135,2|0,1:2|0:0,0:0:0:0:
324,56,13070,2,0,P|356:80|388:92,1,67.5,0|0,1:0|0:0,0:0:0:0:
476,88,13370,1,0,0:0:0:0:
300,32,13520,2,0,P|272:28|220:32,1,67.5,2|0,1:2|0:0,0:0:0:0:
144,152,13820,1,0,0:0:0:0:
144,152,13970,2,0,P|224:156|276:108,1,135,0|0,1:0|0:0,0:0:0:0:
80,20,14420,2,0,L|68:96,1,67.5,0|0,1:0|1:0,0:0:0:0:
69,86,14645,1,0,0:0:0:0:
69,86,14720,1,0,1:0:0:0:
188,68,14870,1,0,0:0:0:0:
52,180,15020,6,0,B|48:212|48:212|52:248,1,67.5,2|0,1:2|0:0,0:0:0:0:
268,128,15320,2,0,B|283:95|283:95|288:56,1,67.5,0|0,0:0|1:0,0:0:0:0:
192,220,15620,2,0,B|204:252|204:252|224:284,1,67.5
420,208,15920,2,0,B|388:200|388:200|352:200,1,67.5,2|0,1:2|0:0,0:0:0:0:
248,304,16220,1,0,0:0:0:0:
376,292,16370,2,0,L|444:300,1,67.5,0|0,1:0|0:0,0:0:0:0:
320,364,16670,1,0,0:0:0:0:
304,224,16820,1,0,1:0:0:0:
304,224,16970,1,0,1:0:0:0:
428,140,17120,2,0,L|420:216,1,67.5,0|0,1:0|0:0,0:0:0:0:
352,76,17420,6,0,P|276:68|216:96,1,135,2|0,1:2|0:0,0:0:0:0:
168,252,17870,2,0,P|200:188|204:124,1,135,0|0,1:0|0:0,0:0:0:0:
92,12,18320,2,0,L|104:100,1,67.5,2|0,1:2|0:0,0:0:0:0:
48,224,18620,1,0,0:0:0:0:
48,224,18770,2,0,L|36:300,2,67.5,0|0|0,1:0|0:0|0:0,0:0:0:0:
136,172,19220,1,0,1:0:0:0:
232,304,19370,1,0,1:0:0:0:
136,272,19520,1,0,1:0:0:0:
232,140,19670,1,0,1:0:0:0:
328,284,19820,5,2,1:2:0:0:
376,200,19970,2,0,L|444:196,1,67.5
316,304,20270,1,0,1:0:0:0:
396,160,20420,2,0,L|480:156,1,67.5
304,324,20720,2,0,L|232:332,1,67.5,2|0,1:2|0:0,0:0:0:0:
352,240,21020,1,0,0:0:0:0:
188,248,21170,2,0,B|100:256|100:256|52:288,1,135,0|0,1:0|0:0,0:0:0:0:
240,168,21620,1,2,1:2:0:0:
200,84,21770,1,0,1:0:0:0:
108,80,21920,2,0,L|32:88,1,67.5
244,172,22220,6,0,P|296:112|300:60,1,135,2|0,1:2|0:0,0:0:0:0:
144,164,22670,1,0,1:0:0:0:
336,144,22820,2,0,L|408:164,1,67.5
264,292,23120,2,0,L|252:216,1,67.5,2|0,1:2|0:0,0:0:0:0:
348,336,23420,1,0,0:0:0:0:
176,332,23570,2,0,L|152:196,1,135,0|0,1:0|0:0,0:0:0:0:
204,116,24020,1,0,1:0:0:0:
60,180,24170,1,0,1:0:0:0:
44,176,24245,1,0,1:0:0:0:
28,172,24320,1,0,0:0:0:0:
76,80,24470,1,0,0:0:0:0:
168,212,24620,6,0,P|240:208|292:164,1,135,2|0,1:2|0:0,0:0:0:0:
296,72,25070,1,0,1:0:0:0:
416,196,25220,2,0,L|432:276,1,67.5
392,100,25520,2,0,L|412:24,1,67.5,2|0,1:2|0:0,0:0:0:0:
320,168,25820,1,0,0:0:0:0:
488,132,25970,2,0,L|508:60,2,67.5,0|0|0,1:0|0:0|0:0,0:0:0:0:
320,168,26420,2,0,P|288:168|236:156,1,67.5,0|0,1:0|1:0,0:0:0:0:
296,72,26720,1,2,1:2:0:0:
392,100,26870,1,0,0:0:0:0:
384,240,27020,6,0,P|351:256|308:264,1,67.5,2|0,1:2|0:0,0:0:0:0:
132,296,27320,2,0,P|176:296|208:304,1,67.5,0|0,0:0|1:0,0:0:0:0:
368,344,27620,1,0,0:0:0:0:
276,360,27770,1,0,0:0:0:0:
216,284,27920,2,0,L|200:204,1,67.5,2|0,1:2|0:0,0:0:0:0:
276,60,28220,1,0,0:0:0:0:
328,156,28370,2,0,L|324:232,1,67.5,0|0,1:0|0:0,0:0:0:0:
196,120,28670,1,0,0:0:0:0:
304,48,28820,2,0,P|344:48|380:60,1,67.5,0|0,1:0|1:0,0:0:0:0:
200,124,29120,1,0,1:0:0:0:
156,8,29270,1,0,1:0:0:0:
88,188,29420,5,2,1:2:0:0:
204,128,29570,2,0,B|304:120|304:120|264:152,1,135,0|0,0:0|1:0,0:0:0:0:
84,192,30020,2,0,L|68:116,1,67.5
196,264,30320,2,0,L|188:332,1,67.5,2|0,1:2|0:0,0:0:0:0:
328,200,30620,1,0,0:0:0:0:
328,200,30770,2,0,L|348:348,1,135,0|0,1:0|0:0,0:0:0:0:
232,176,31220,1,0,1:0:0:0:
392,120,31370,1,0,1:0:0:0:
260,88,31520,2,0,L|248:20,1,67.5,2|0,0:0|0:0,0:0:0:0:
448,40,31820,6,0,P|488:100|476:168,1,135,2|0,1:2|0:0,0:0:0:0:
404,216,32270,1,0,1:0:0:0:
264,92,32420,2,0,L|252:24,1,67.5,0|0,0:0|0:0,0:0:0:0:
212,240,32720,2,0,L|196:164,1,67.5,2|0,1:2|0:0,0:0:0:0:
300,272,33020,1,0,0:0:0:0:
116,228,33170,2,0,P|108:304|132:364,1,135,0|0,1:0|0:0,0:0:0:0:
364,340,33620,2,0,P|383:310|392:272,1,67.5,0|0,1:0|1:0,0:0:0:0:
392,264,33845,1,0,0:0:0:0:
388,248,33920,1,0,1:0:0:0:
268,360,34070,1,0,0:0:0:0:
224,208,34220,6,0,L|208:132,1,67.5,2|0,1:2|0:0,0:0:0:0:
304,28,34520,1,0,0:0:0:0:
308,160,34670,1,0,1:0:0:0:
168,56,34820,2,0,P|132:48|84:56,1,67.5
128,168,35120,1,2,1:2:0:0:
248,96,35270,1,0,0:0:0:0:
312,252,35420,1,0,0:0:0:0:
312,252,35570,2,0,L|224:248,1,67.5,0|0,1:0|0:0,0:0:0:0:
400,176,35870,1,0,0:0:0:0:
420,332,36020,2,0,B|384:340|384:340|352:340,1,67.5,0|0,1:0|1:0,0:0:0:0:
184,332,36320,2,0,B|148:332|148:332|116:340,1,67.5,0|0,1:0|0:0,0:0:0:0:
232,248,36620,6,0,P|252:172|240:108,1,135,2|0,1:2|0:0,0:0:0:0:
64,132,37070,2,0,P|89:157|132:172,1,67.5,0|0,1:0|0:0,0:0:0:0:
148,72,37370,1,0,0:0:0:0:
308,96,37520,2,0,P|275:111|224:116,1,67.5,2|0,1:2|0:0,0:0:0:0:
144,68,37820,1,2,0:0:0:0:
184,200,37970,2,0,L|188:276,2,67.5,0|0|0,1:0|0:0|0:0,0:0:0:0:
48,352,38420,2,0,P|87:340|128:340,1,67.5,0|0,1:0|1:0,0:0:0:0:
248,352,38720,1,0,1:0:0:0:
268,356,38795,1,0,0:0:0:0:
288,356,38870,1,0,0:0:0:0:
308,352,38945,1,0,0:0:0:0:
324,344,39020,6,0,B|348:312|348:312|356:224,1,114.750002188683,2|0,0:0|3:0,0:0:0:0:
364,144,39470,1,0,0:0:0:0:
452,264,39620,2,0,L|460:324,1,57.3750010943413
459,320,39845,1,0,0:0:0:0:
459,320,39920,1,0,3:0:0:0:
360,232,40070,1,0,3:0:0:0:
464,160,40220,6,0,L|472:96,1,57.3750010943413
368,44,40520,1,0,3:0:0:0:
272,184,40670,2,0,L|268:220,2,28.6875005471707,0|0|0,0:0|0:0|0:0,0:0:0:0:
164,112,40970,1,0,0:0:0:0:
164,112,41045,1,0,0:0:0:0:
164,112,41120,2,0,L|100:104,1,57.3750010943413,0|0,3:0|3:0,0:0:0:0:
256,56,41420,6,0,B|296:44|296:44|368:44,1,114.750002188683,2|0,0:0|3:0,0:0:0:0:
196,204,41870,2,0,L|120:208,1,57.3750010943413
288,148,42170,1,0,0:0:0:0:
304,152,42245,1,0,0:0:0:0:
320,156,42320,1,0,3:0:0:0:
200,208,42470,1,0,3:0:0:0:
264,288,42620,6,0,L|268:336,2,28.6875005471707,2|0|0,0:0|0:0|0:0,0:0:0:0:
388,236,42920,2,0,L|396:304,1,57.3750010943413,0|0,3:0|0:0,0:0:0:0:
394,292,43145,1,0,0:0:0:0:
394,292,43220,1,0,0:0:0:0:
448,160,43370,2,0,L|488:152,1,28.6875005471707
424,144,43520,2,0,L|356:136,1,57.3750010943413,0|0,3:0|3:0,0:0:0:0:
196,72,43820,6,0,L|76:76,1,114.750002188683,2|0,0:0|3:0,0:0:0:0:
248,152,44270,1,0,0:0:0:0:
292,68,44420,1,0,0:0:0:0:
340,180,44570,1,0,0:0:0:0:
332,196,44645,1,0,0:0:0:0:
324,212,44720,2,0,L|336:272,1,57.3750010943413,0|0,3:0|3:0,0:0:0:0:
220,312,45020,6,0,L|212:352,2,28.6875005471707,0|0|0,0:0|0:0|0:0,0:0:0:0:
164,220,45320,1,0,3:0:0:0:
84,288,45470,1,0,0:0:0:0:
84,288,45545,1,0,0:0:0:0:
84,288,45620,1,0,0:0:0:0:
224,308,45770,2,0,L|272:304,2,28.6875005471707,0|0|0,0:0|0:0|3:0,0:0:0:0:
164,220,46070,2,0,L|176:188,1,28.6875005471707,0|0,3:0|0:0,0:0:0:0:
184,168,46220,6,0,P|128:180|52:176,1,114.750002188683,2|0,0:0|3:0,0:0:0:0:
240,92,46670,1,0,0:0:0:0:
276,180,46820,1,0,0:0:0:0:
372,116,46970,1,0,0:0:0:0:
352,112,47045,1,0,0:0:0:0:
332,108,47120,2,0,L|324:48,1,57.3750010943413,0|0,3:0|3:0,0:0:0:0:
452,132,47420,6,0,L|448:168,2,28.6875005471707,2|0|0,0:0|0:0|0:0,0:0:0:0:
372,208,47720,2,0,P|374:238|384:264,1,57.3750010943413,0|0,3:0|0:0,0:0:0:0:
408,288,47945,2,0,L|452:292,1,28.6875005471707
312,324,48170,1,0,0:0:0:0:
292,328,48245,1,0,0:0:0:0:
272,332,48320,1,0,3:0:0:0:
272,232,48470,1,0,3:0:0:0:
132,280,48620,6,0,L|204:284,1,57.3750010943413,4|0,1:0|0:0,0:0:0:0:
76,208,48920,1,0,3:0:0:0:
44,292,49070,1,0,0:0:0:0:
168,196,49220,2,0,L|172:128,1,57.3750010943413
104,100,49445,1,0,0:0:0:0:
104,100,49520,2,0,L|92:16,1,57.3750010943413,0|0,3:0|3:0,0:0:0:0:
20,136,49820,6,0,L|16:172,2,28.6875005471707,0|0|0,0:0|0:0|0:0,0:0:0:0:
92,16,50120,1,0,3:0:0:0:
196,104,50270,1,0,0:0:0:0:
196,104,50345,1,0,0:0:0:0:
196,104,50420,1,0,0:0:0:0:
308,24,50570,2,0,L|348:28,2,28.6875005471707,0|0|0,0:0|0:0|3:0,0:0:0:0:
180,16,50870,1,0,3:0:0:0:
304,124,51020,6,0,B|333:127|333:127|424:96,1,114.750002188683,4|0,1:0|3:0,0:0:0:0:
504,68,51470,1,0,0:0:0:0:
424,196,51620,2,0,P|416:220|420:256,1,57.3750010943413
424,268,51845,1,0,0:0:0:0:
432,284,51920,1,0,3:0:0:0:
508,232,52070,1,0,3:0:0:0:
368,124,52220,6,0,L|296:128,1,57.3750010943413
416,44,52520,1,0,3:0:0:0:
424,196,52670,2,0,L|420:232,2,28.6875005471707,0|0|0,0:0|0:0|0:0,0:0:0:0:
304,260,52970,2,0,L|316:300,1,28.6875005471707
320,312,53120,2,0,L|388:320,1,57.3750010943413,0|0,3:0|3:0,0:0:0:0:
224,316,53420,6,0,P|180:304|108:316,1,114.750002188683,4|0,1:0|3:0,0:0:0:0:
216,216,53870,2,0,P|228:184|232:152,1,57.3750010943413
132,124,54170,1,0,0:0:0:0:
136,144,54245,1,0,0:0:0:0:
140,164,54320,1,0,3:0:0:0:
208,72,54470,1,0,3:0:0:0:
60,28,54620,6,0,L|52:88,1,57.3750010943413,0|0,0:0|0:0,0:0:0:0:
64,268,54920,2,0,L|72:204,1,57.3750010943413,0|0,3:0|0:0,0:0:0:0:
84,200,55145,1,0,0:0:0:0:
96,188,55220,1,0,0:0:0:0:
216,216,55370,2,0,L|248:196,2,28.6875005471707,0|0|0,0:0|0:0|3:0,0:0:0:0:
328,276,55670,1,0,0:0:0:0:
328,276,55745,1,0,0:0:0:0:
328,276,55820,6,0,B|360:284|388:276|388:276|416:268|444:276,1,114.750002188683,4|0,1:0|3:0,0:0:0:0:
416,364,56270,1,0,0:0:0:0:
360,192,56420,2,0,L|352:124,1,57.3750010943413
424,96,56645,1,0,0:0:0:0:
424,96,56720,2,0,L|431:153,1,57.3750010943413,0|0,3:0|3:0,0:0:0:0:
356,56,57020,6,0,L|352:16,2,28.6875005471707,2|0|0,0:0|0:0|0:0,0:0:0:0:
208,116,57320,1,0,3:0:0:0:
300,132,57470,1,0,0:0:0:0:
300,132,57545,1,0,0:0:0:0:
300,132,57620,1,0,0:0:0:0:
188,28,57770,2,0,L|152:40,2,28.6875005471707,0|0|0,0:0|0:0|3:0,0:0:0:0:
240,200,58070,2,0,L|236:240,1,28.6875005471707,0|0,3:0|0:0,0:0:0:0:
256,300,58220,5,0,0:0:0:0:
208,248,59720,6,0,B|256:140|256:140|304:248,1,236.249992790222,2|0,0:0|0:0,0:0:0:0:
136,184,60620,6,0,P|76:176|4:236,1,155.250002961159,12|0,1:0|0:0,0:0:0:0:
216,252,61070,1,0,1:0:0:0:
300,184,61220,2,0,L|392:196,1,77.6250014805794
220,256,61520,1,2,1:2:0:0:
184,96,61670,2,0,L|192:12,1,77.6250014805794
376,84,61970,1,0,1:0:0:0:
296,180,62120,1,0,0:0:0:0:
168,116,62270,2,0,P|123:115|76:128,1,77.6250014805794,0|0,0:0|1:0,0:0:0:0:
224,260,62570,2,0,P|292:284|380:256,1,155.250002961159,0|0,1:0|0:0,0:0:0:0:
144,328,63020,6,0,P|123:288|120:240,1,77.6250014805794,2|0,1:2|0:0,0:0:0:0:
168,116,63320,1,0,0:0:0:0:
224,260,63470,1,0,1:0:0:0:
80,168,63620,2,0,L|0:172,1,77.6250014805794
256,164,63920,1,2,1:2:0:0:
256,164,64070,2,0,B|280:144|280:144|144:152,1,155.250002961159,0|0,0:0|1:0,0:0:0:0:
220,256,64520,1,0,0:0:0:0:
352,192,64670,1,0,0:0:0:0:
464,280,64820,2,0,L|472:364,1,77.6250014805794,0|0,1:0|1:0,0:0:0:0:
471,357,65045,1,0,1:0:0:0:
471,357,65120,1,0,0:0:0:0:
364,292,65270,1,0,0:0:0:0:
452,176,65420,6,0,P|456:116|448:88,1,77.6250014805794,2|0,1:2|0:0,0:0:0:0:
268,252,65720,2,0,P|260:296|268:340,1,77.6250014805794,0|0,0:0|1:0,0:0:0:0:
352,192,66020,1,0,0:0:0:0:
204,164,66170,1,0,0:0:0:0:
292,104,66320,1,2,1:2:0:0:
160,260,66470,2,0,P|104:200|108:124,1,155.250002961159,0|0,0:0|1:0,0:0:0:0:
352,192,66920,2,0,L|440:184,1,77.6250014805794
292,104,67220,1,0,1:0:0:0:
268,252,67370,1,0,1:0:0:0:
396,92,67520,2,0,P|400:60|392:8,1,77.6250014805794,0|0,1:0|0:0,0:0:0:0:
204,164,67820,6,0,B|164:172|164:172|112:160,1,77.6250014805794,2|0,1:2|0:0,0:0:0:0:
376,240,68120,2,0,B|384:276|384:276|376:320,1,77.6250014805794,0|0,0:0|1:0,0:0:0:0:
120,264,68420,2,0,B|80:260|80:260|40:268,1,77.6250014805794,2|0,0:0|0:0,0:0:0:0:
312,152,68720,2,0,B|324:116|324:116|320:68,1,77.6250014805794,0|0,1:0|0:0,0:0:0:0:
268,252,69020,5,2,0:0:0:0:
144,80,69170,2,0,P|68:72|8:116,1,155.250002961159,0|0,1:0|0:0,0:0:0:0:
204,164,69620,1,0,1:0:0:0:
16,240,69770,1,0,1:0:0:0:
140,360,69920,1,0,1:0:0:0:
100,172,70070,1,0,1:0:0:0:
296,216,70220,6,0,P|228:264|152:256,1,155.250002961159,12|0,1:0|0:0,0:0:0:0:
204,164,70670,1,0,1:0:0:0:
352,304,70820,2,0,P|393:315|448:308,1,77.6250014805794
484,140,71120,1,2,1:2:0:0:
484,140,71270,2,0,P|396:112|320:136,1,155.250002961159,0|0,0:0|1:0,0:0:0:0:
232,280,71720,2,0,P|264:268|304:228,1,77.6250014805794
204,164,72020,1,0,1:0:0:0:
116,244,72170,1,0,1:0:0:0:
104,104,72320,2,0,B|100:64|100:64|116:28,1,77.6250014805794
232,280,72620,6,0,L|220:368,1,77.6250014805794,2|0,1:2|0:0,0:0:0:0:
328,216,72920,1,0,0:0:0:0:
328,216,73070,1,0,1:0:0:0:
120,248,73220,2,0,L|108:336,1,77.6250014805794
204,172,73520,1,2,1:2:0:0:
172,72,73670,2,0,P|88:96|108:148,1,155.250002961159,0|0,0:0|1:0,0:0:0:0:
292,120,74120,2,0,P|340:115|376:124,1,77.6250014805794
468,240,74420,1,0,1:0:0:0:
328,216,74570,1,0,1:0:0:0:
328,216,74645,1,0,0:0:0:0:
328,216,74720,2,0,P|280:215|236:228,1,77.6250014805794,0|0,1:2|0:0,0:0:0:0:
428,144,75020,6,0,B|440:128|440:128|452:56,1,77.6250014805794,2|0,1:2|0:0,0:0:0:0:
268,20,75320,1,0,0:0:0:0:
344,88,75470,1,0,1:0:0:0:
168,56,75620,2,0,B|156:68|156:68|144:136,1,77.6250014805794
248,248,75920,1,2,1:2:0:0:
248,248,76070,2,0,B|212:216|212:216|92:236,1,155.250002961159,0|0,0:0|1:0,0:0:0:0:
256,348,76520,2,0,P|320:320|348:240,1,155.250002961159,0|0,0:0|1:0,0:0:0:0:
296,156,76970,1,0,1:0:0:0:
356,344,77120,2,0,P|392:364|440:368,1,77.6250014805794,0|0,1:0|0:0,0:0:0:0:
164,304,77420,6,0,L|64:312,1,77.6250014805794,2|0,1:2|0:0,0:0:0:0:
352,240,77720,2,0,L|444:252,1,77.6250014805794,0|0,0:0|1:0,0:0:0:0:
296,156,78020,1,2,0:0:0:0:
264,288,78170,1,0,0:0:0:0:
208,100,78320,2,0,P|208:60|220:16,1,77.6250014805794,0|0,1:0|0:0,0:0:0:0:
300,160,78620,5,2,0:0:0:0:
112,156,78770,2,0,P|81:136|52:92,1,77.6250014805794,0|0,1:0|0:0,0:0:0:0:
212,104,79070,1,2,0:0:0:0:
160,248,79220,1,0,1:0:0:0:
352,308,79370,1,0,1:0:0:0:
296,156,79520,1,2,1:2:0:0:
256,344,79670,1,0,1:0:0:0:
384,200,79820,6,0,L|468:192,1,77.6250014805794,12|0,1:0|0:0,0:0:0:0:
228,260,80120,2,0,L|312:268,1,77.6250014805794,0|0,0:0|1:0,0:0:0:0:
156,184,80420,2,0,P|144:108|176:32,1,155.250002961159,2|0,0:0|1:0,0:0:0:0:
256,160,80870,1,0,0:0:0:0:
96,104,81020,2,0,L|8:108,1,77.6250014805794,2|0,0:0|1:0,0:0:0:0:
272,24,81320,2,0,L|364:32,1,77.6250014805794
416,112,81620,1,0,1:0:0:0:
256,160,81770,1,0,1:0:0:0:
416,216,81920,2,0,P|456:208|488:184,1,77.6250014805794
312,248,82220,6,0,B|300:284|300:284|304:332,1,77.6250014805794,2|0,1:2|0:0,0:0:0:0:
256,160,82520,2,0,B|268:124|268:124|268:72,1,77.6250014805794,0|0,0:0|1:0,0:0:0:0:
32,192,82820,2,0,P|100:232|176:220,1,155.250002961159,2|0,0:0|1:0,0:0:0:0:
120,132,83270,1,0,0:0:0:0:
20,296,83420,2,0,L|16:376,2,77.6250014805794,2|0|0,0:0|1:0|0:0,0:0:0:0:
180,216,83870,1,0,0:0:0:0:
364,308,84020,2,0,P|324:320|280:316,1,77.6250014805794,0|0,1:0|1:0,0:0:0:0:
272,312,84245,1,0,1:0:0:0:
256,304,84320,1,0,0:0:0:0:
316,216,84470,1,0,0:0:0:0:
460,264,84620,6,0,L|468:344,1,77.6250014805794,2|0,1:2|0:0,0:0:0:0:
496,104,84920,2,0,L|508:24,1,77.6250014805794,0|0,0:0|1:0,0:0:0:0:
420,172,85220,2,0,B|378:160|378:160|324:184|268:168,1,155.250002961159,2|0,0:0|1:0,0:0:0:0:
192,100,85670,1,0,0:0:0:0:
264,260,85820,2,0,P|276:224|276:172,1,77.6250014805794,2|0,0:0|1:0,0:0:0:0:
80,152,86120,2,0,P|76:192|88:240,1,77.6250014805794
248,288,86420,1,0,1:0:0:0:
176,188,86570,1,0,1:0:0:0:
288,108,86720,2,0,P|296:72|296:28,1,77.6250014805794,0|0,1:0|0:0,0:0:0:0:
364,176,87020,5,2,1:2:0:0:
452,120,87170,1,0,0:0:0:0:
408,268,87320,2,0,L|400:360,1,77.6250014805794,0|0,0:0|1:0,0:0:0:0:
248,288,87620,1,2,0:0:0:0:
160,336,87770,1,0,0:0:0:0:
240,188,87920,2,0,P|244:152|236:96,1,77.6250014805794,0|0,1:0|0:0,0:0:0:0:
72,56,88220,5,2,0:0:0:0:
168,40,88370,1,0,1:0:0:0:
32,148,88520,2,0,L|28:232,1,77.6250014805794,0|0,1:0|0:0,0:0:0:0:
156,332,88820,1,0,1:0:0:0:
124,192,88970,1,0,1:0:0:0:
252,292,89120,1,0,1:0:0:0:
28,248,89270,1,0,1:0:0:0:
204,116,89420,6,0,P|224:156|232:196,1,77.6250014805794,12|0,1:0|0:0,0:0:0:0:
44,348,89720,2,0,P|80:320|124:308,1,77.6250014805794,0|0,0:0|1:0,0:0:0:0:
352,324,90020,2,0,P|276:352|204:320,1,155.250002961159,2|0,0:0|1:0,0:0:0:0:
280,252,90470,1,0,0:0:0:0:
456,328,90620,2,0,P|471:293|480:244,1,77.6250014805794,2|0,0:0|1:0,0:0:0:0:
376,172,90920,2,0,P|376:128|368:92,1,77.6250014805794
280,252,91220,1,0,1:0:0:0:
276,148,91370,1,0,1:0:0:0:
216,64,91520,2,0,P|184:52|128:48,1,77.6250014805794
16,200,91820,6,0,B|56:212|56:212|120:204,1,77.6250014805794,2|0,1:2|0:0,0:0:0:0:
276,148,92120,2,0,B|240:136|240:136|188:136,1,77.6250014805794,0|0,0:0|1:0,0:0:0:0:
8,300,92420,2,0,B|48:312|48:312|164:296,1,155.250002961159,2|0,0:0|1:0,0:0:0:0:
264,284,92870,1,0,0:0:0:0:
176,132,93020,2,0,P|180:176|200:216,1,77.6250014805794,2|0,0:0|1:0,0:0:0:0:
360,248,93320,2,0,P|416:248|444:256,1,77.6250014805794
392,344,93620,1,0,1:0:0:0:
264,284,93770,1,0,1:0:0:0:
260,264,93845,1,0,0:0:0:0:
256,244,93920,1,0,1:0:0:0:
312,156,94070,1,0,0:0:0:0:
268,304,94220,6,0,L|176:300,1,77.6250014805794,8|0,1:0|0:0,0:0:0:0:
316,144,94520,2,0,L|400:132,1,77.6250014805794,0|0,0:0|1:0,0:0:0:0:
140,212,94820,2,0,L|56:188,1,77.6250014805794,2|0,0:0|0:0,0:0:0:0:
216,144,95120,1,0,1:0:0:0:
216,144,95270,1,0,0:0:0:0:
352,240,95420,2,0,P|392:240|448:224,1,77.6250014805794,2|0,0:0|1:0,0:0:0:0:
404,64,95720,2,0,P|388:108|384:152,1,77.6250014805794
448,224,96020,1,0,1:0:0:0:
296,80,96170,1,0,1:0:0:0:
336,236,96320,2,0,L|324:324,1,77.6250014805794,0|0,1:0|0:0,0:0:0:0:
180,104,96620,6,0,B|164:68|164:68|164:24,2,77.6250014805794,2|0|0,1:2|0:0|0:0,0:0:0:0:
256,172,97070,1,0,1:0:0:0:
332,240,97220,2,0,B|348:276|348:276|348:320,1,77.6250014805794,2|0,0:0|0:0,0:0:0:0:
332,104,97520,2,0,B|364:84|364:84|416:80,1,77.6250014805794,0|0,1:0|0:0,0:0:0:0:
256,172,97820,5,2,0:0:0:0:
176,240,97970,1,0,1:0:0:0:
80,204,98120,2,0,B|64:168|64:168|64:120,1,77.6250014805794
180,244,98420,1,0,1:0:0:0:
260,176,98570,1,0,1:0:0:0:
336,244,98720,1,0,1:0:0:0:
364,240,98795,1,0,0:0:0:0:
392,236,98870,2,0,L|412:192,1,38.8125007402897,0|0,1:0|0:0,0:0:0:0:
408,200,100780,5,4,1:0:0:0:
196,336,101030,2,0,P|112:340|48:304,1,135,4|0,1:0|3:0,0:0:0:0:
240,248,101405,2,0,L|312:260,1,67.5,0|0,1:0|0:0,0:0:0:0:
356,352,101655,2,0,L|392:348,2,33.75,0|0|0,0:0|0:0|3:0,0:0:0:0:
176,328,101905,2,0,P|152:304|136:268,1,67.5,0|0,3:0|0:0,0:0:0:0:
168,120,102155,2,0,P|174:169|168:196,1,67.5,0|0,1:0|3:0,0:0:0:0:
44,256,102405,2,0,P|56:220|80:196,1,67.5,0|0,0:0|3:0,0:0:0:0:
248,240,102655,1,0,0:0:0:0:
260,244,102717,1,0,0:0:0:0:
272,248,102780,2,0,L|348:240,1,67.5,4|0,1:0|0:0,0:0:0:0:
372,64,103030,6,0,P|300:112|292:164,1,135,4|0,1:0|3:0,0:0:0:0:
388,160,103405,2,0,L|468:152,1,67.5,0|0,1:0|0:0,0:0:0:0:
360,248,103655,2,0,L|320:240,2,33.75,0|0|0,0:0|0:0|3:0,0:0:0:0:
456,268,103905,2,0,L|468:344,1,67.5,0|0,3:0|0:0,0:0:0:0:
328,340,104155,2,0,P|296:335|256:340,1,67.5,0|0,1:0|3:0,0:0:0:0:
112,304,104405,2,0,P|156:302|192:288,1,67.5,0|0,0:0|3:0,0:0:0:0:
224,212,104655,1,0,0:0:0:0:
220,196,104717,1,0,0:0:0:0:
216,180,104780,1,0,3:0:0:0:
212,164,105030,6,0,L|200:300,1,135,4|0,1:0|0:0,0:0:0:0:
352,204,105405,2,0,L|344:60,1,135,0|0,1:0|0:0,0:0:0:0:
208,148,105780,2,0,L|136:160,2,67.5,0|0|0,3:0|0:0|0:0,0:0:0:0:
364,224,106155,2,0,L|444:232,2,67.5,0|0|0,3:0|0:0|0:0,0:0:0:0:
176,292,106530,2,0,L|96:308,1,67.5,0|0,1:0|0:0,0:0:0:0:
340,340,106780,2,0,L|420:348,1,67.5,4|0,1:0|0:0,0:0:0:0:
272,264,107030,5,4,1:0:0:0:
176,292,107155,2,0,P|104:300|32:272,1,135,4|0,1:0|1:0,0:0:0:0:
200,196,107530,2,0,P|228:176|264:164,1,67.5
104,164,107780,2,0,P|69:165|28:152,1,67.5,0|0,3:0|0:0,0:0:0:0:
84,68,108030,1,0,0:0:0:0:
216,84,108155,2,0,P|256:80|292:68,2,67.5,0|0|0,3:0|0:0|0:0,0:0:0:0:
344,160,108530,2,0,P|384:160|416:168,1,67.5,4|0,1:0|1:0,0:0:0:0:
472,240,108780,1,0,1:0:0:0:
432,328,108905,1,0,0:0:0:0:
280,236,109030,6,0,P|248:176|260:104,1,135,4|0,1:0|3:0,0:0:0:0:
344,60,109405,2,0,L|416:56,1,67.5,0|0,1:0|0:0,0:0:0:0:
244,84,109655,2,0,L|184:80,2,33.75,0|0|0,0:0|0:0|3:0,0:0:0:0:
344,160,109905,2,0,P|368:192|376:224,1,67.5,0|0,3:0|0:0,0:0:0:0:
280,304,110155,2,0,P|276:256|284:228,1,67.5,0|0,1:0|3:0,0:0:0:0:
372,272,110405,1,0,0:0:0:0:
256,336,110530,2,0,L|184:332,1,67.5,0|0,3:0|0:0,0:0:0:0:
168,336,110717,1,0,0:0:0:0:
148,340,110780,2,0,P|156:304|152:268,1,67.5,4|0,1:0|0:0,0:0:0:0:
32,176,111030,6,0,P|32:264|64:308,1,135,4|0,1:0|3:0,0:0:0:0:
128,224,111405,2,0,P|172:220|200:224,1,67.5,0|0,1:0|0:0,0:0:0:0:
256,336,111655,1,0,0:0:0:0:
252,324,111717,1,0,0:0:0:0:
248,312,111780,1,0,3:0:0:0:
292,224,111905,1,0,3:0:0:0:
396,296,112030,2,0,L|388:372,1,67.5,0|0,0:0|1:0,0:0:0:0:
484,248,112280,2,0,L|496:320,1,67.5,0|0,3:0|0:0,0:0:0:0:
396,200,112530,2,0,P|400:172|420:132,1,67.5,0|0,3:0|0:0,0:0:0:0:
428,128,112717,1,0,0:0:0:0:
440,124,112780,2,0,L|368:116,1,67.5,0|0,3:0|0:0,0:0:0:0:
288,192,113030,6,0,P|264:152|272:56,1,135,4|0,1:0|0:0,0:0:0:0:
228,264,113405,2,0,P|244:184|224:128,1,135,0|0,1:0|0:0,0:0:0:0:
368,248,113780,2,0,L|384:180,2,67.5,0|0|0,3:0|0:0|0:0,0:0:0:0:
236,296,114155,2,0,L|256:376,2,67.5,0|0|0,3:0|0:0|0:0,0:0:0:0:
140,212,114530,2,0,P|110:216|60:204,1,67.5,0|0,1:0|0:0,0:0:0:0:
264,144,114780,2,0,P|280:188|280:220,1,67.5,4|0,1:0|0:0,0:0:0:0:
112,120,115030,5,4,1:0:0:0:
208,140,115155,2,0,P|260:144|352:120,1,135,4|0,1:0|1:0,0:0:0:0:
396,204,115530,2,0,L|384:272,1,67.5
436,116,115780,2,0,L|428:44,1,67.5,0|0,3:0|0:0,0:0:0:0:
296,20,116030,1,0,0:0:0:0:
296,20,116155,2,0,B|276:36|276:36|264:156,1,135,0|0,3:0|0:0,0:0:0:0:
336,296,116530,1,4,1:0:0:0:
256,240,116655,1,0,1:0:0:0:
164,276,116780,2,0,P|108:276|84:268,1,67.5,0|0,1:0|1:0,0:0:0:0:
212,152,117030,6,0,P|264:144|288:148,2,67.5,4|0|0,1:0|0:0|3:0,0:0:0:0:
348,212,117405,1,0,1:0:0:0:
416,140,117530,2,0,L|420:68,1,67.5
444,236,117780,2,0,P|424:276|396:300,1,67.5,0|0,3:0|0:0,0:0:0:0:
268,272,118030,2,0,P|232:266|184:272,1,67.5,0|0,0:0|3:0,0:0:0:0:
136,344,118280,1,0,3:0:0:0:
232,364,118405,1,0,0:0:0:0:
160,252,118530,2,0,L|152:184,1,67.5,0|0,1:0|0:0,0:0:0:0:
308,288,118780,2,0,L|320:368,1,67.5,4|0,1:0|0:0,0:0:0:0:
252,212,119030,6,0,L|264:76,1,135,4|0,1:0|3:0,0:0:0:0:
172,156,119405,2,0,L|160:20,1,135,0|0,1:0|0:0,0:0:0:0:
84,196,119780,2,0,P|48:204|8:200,1,67.5,0|0,3:0|0:0,0:0:0:0:
164,256,120030,1,0,0:0:0:0:
256,216,120155,1,0,3:0:0:0:
340,268,120280,2,0,P|378:272|424:264,1,67.5,0|0,3:0|0:0,0:0:0:0:
372,176,120530,1,0,1:0:0:0:
252,228,120655,1,0,0:0:0:0:
248,240,120717,1,0,0:0:0:0:
244,252,120780,2,0,L|256:324,1,67.5,0|0,3:0|0:0,0:0:0:0:
380,168,121030,6,0,P|384:104|344:16,1,135,4|0,1:0|0:0,0:0:0:0:
472,196,121405,2,0,L|480:268,2,67.5,0|0|0,1:0|0:0|0:0,0:0:0:0:
276,120,121780,2,0,P|240:124|200:116,1,67.5,0|0,3:0|0:0,0:0:0:0:
148,40,122030,1,0,0:0:0:0:
120,196,122155,2,0,P|112:136|120:112,1,67.5,0|0,3:0|0:0,0:0:0:0:
248,32,122405,1,0,0:0:0:0:
368,144,122530,2,0,L|376:212,1,67.5,0|0,1:0|0:0,0:0:0:0:
201,311,122780,2,0,B|200:328|208:244,1,67.5,4|0,1:0|0:0,0:0:0:0:
280,364,123030,5,4,1:0:0:0:
104,320,123155,2,0,B|72:292|72:292|60:248|80:200,1,135,4|0,1:0|1:0,0:0:0:0:
204,96,123530,2,0,P|218:131|220:176,1,67.5
196,256,123780,1,0,3:0:0:0:
196,256,123905,1,0,0:0:0:0:
368,164,124030,2,0,L|436:160,2,67.5,2|0|0,0:0|3:0|3:0,0:0:0:0:
104,84,124405,2,0,L|24:76,1,67.5,2|4,0:0|1:0,0:0:0:0:
172,172,124655,1,2,0:0:0:0:
292,108,124780,1,0,3:0:0:0:
300,92,124842,1,0,0:0:0:0:
304,72,124905,1,0,0:0:0:0:
300,56,124967,1,0,0:0:0:0:
292,44,125030,6,0,P|240:20|192:44,1,101.25,12|0,1:0|0:0,0:0:0:0:
180,76,125280,2,0,L|176:148,1,67.5,0|0,0:0|1:0,0:0:0:0:
320,304,125530,2,0,P|332:240|320:152,1,135,0|0,0:0|3:0,0:0:0:0:
188,52,125905,1,0,0:0:0:0:
104,128,126030,2,0,L|100:204,1,67.5,0|0,0:0|3:0,0:0:0:0:
224,288,126280,2,0,L|227:220,1,67.5,0|0,3:0|0:0,0:0:0:0:
32,260,126530,2,0,P|32:300|68:352,1,101.25,0|0,1:0|0:0,0:0:0:0:
104,356,126780,2,0,L|184:360,1,67.5,4|0,1:0|0:0,0:0:0:0:
384,316,127030,6,0,P|324:332|248:304,1,135,4|0,1:0|3:0,0:0:0:0:
324,232,127405,1,0,1:0:0:0:
464,256,127530,2,0,P|484:308|484:332,1,67.5
320,208,127780,2,0,P|324:172|340:136,1,67.5,0|0,3:0|0:0,0:0:0:0:
492,96,128030,1,0,0:0:0:0:
428,168,128155,1,0,3:0:0:0:
344,116,128280,2,0,L|260:108,1,67.5,0|0,3:0|0:0,0:0:0:0:
408,48,128530,1,0,1:0:0:0:
424,180,128655,1,0,0:0:0:0:
420,192,128717,1,0,0:0:0:0:
416,204,128780,2,0,L|344:216,1,67.5,0|0,3:0|0:0,0:0:0:0:
152,296,129030,6,0,B|192:280|192:280|292:296,1,135,4|0,1:0|0:0,0:0:0:0:
384,312,129405,1,0,1:0:0:0:
248,196,129530,2,0,L|260:116,1,67.5
100,212,129780,2,0,L|112:132,1,67.5,0|0,3:0|0:0,0:0:0:0:
176,76,130030,1,0,0:0:0:0:
264,220,130155,1,0,3:0:0:0:
344,160,130280,2,0,L|424:164,1,67.5
272,88,130530,2,0,B|264:56|264:56|272:12,1,67.5,0|0,1:0|0:0,0:0:0:0:
280,244,130780,2,0,B|284:280|284:280|276:320,1,67.5,4|0,1:0|0:0,0:0:0:0:
184,276,131030,5,4,1:0:0:0:
340,156,131155,2,0,L|484:164,1,135,4|0,1:0|1:0,0:0:0:0:
268,92,131530,1,0,0:0:0:0:
284,248,131655,2,0,L|288:292,2,33.75,0|0|0,0:0|0:0|3:0,0:0:0:0:
344,160,131905,1,0,0:0:0:0:
176,136,132030,2,0,L|168:60,1,67.5,0|0,0:0|3:0,0:0:0:0:
372,4,132280,2,0,L|364:80,1,67.5
344,172,132530,5,4,1:0:0:0:
184,152,132655,1,0,0:0:0:0:
276,80,132780,1,4,1:0:0:0:
256,240,132905,1,0,1:0:0:0:
168,120,133030,6,0,L|180:0,1,114.750002188683,2|0,1:2|3:0,0:0:0:0:
72,144,133405,1,0,0:0:0:0:
140,216,133530,2,0,L|148:288,1,57.3750010943413,8|0,1:3|0:0,0:0:0:0:
44,328,133780,2,0,L|52:264,1,57.3750010943413
168,120,134030,1,0,1:0:0:0:
264,148,134155,1,0,0:0:0:0:
356,176,134280,1,0,3:0:0:0:
356,176,134530,2,0,P|376:228|372:300,1,114.750002188683,8|0,1:3|0:0,0:0:0:0:
300,352,134905,1,0,3:0:0:0:
200,256,135030,6,0,P|164:256|136:264,1,57.3750010943413,0|0,1:0|0:0,0:0:0:0:
264,148,135280,2,0,P|268:124|264:88,1,57.3750010943413,0|0,3:0|0:0,0:0:0:0:
80,56,135530,2,0,P|116:100|168:120,1,114.750002188683,8|0,1:3|0:0,0:0:0:0:
256,72,135905,1,0,0:0:0:0:
404,116,136030,2,0,L|332:116,1,57.3750010943413,0|0,3:0|0:0,0:0:0:0:
256,56,136280,1,0,1:0:0:0:
256,40,136530,2,0,L|256:160,1,114.750002188683,8|0,1:3|0:0,0:0:0:0:
256,256,136905,1,0,0:0:0:0:
456,216,137030,6,0,P|376:200|336:208,1,114.750002188683,2|0,1:0|0:0,0:0:0:0:
256,260,137405,1,0,3:0:0:0:
176,328,137530,2,0,P|128:328|64:296,1,114.750002188683,8|0,1:3|0:0,0:0:0:0:
256,268,137905,1,0,0:0:0:0:
332,332,138030,2,0,L|400:328,1,57.3750010943413,0|0,1:0|0:0,0:0:0:0:
352,176,138280,2,0,L|284:168,1,57.3750010943413,0|0,0:0|3:0,0:0:0:0:
436,124,138530,2,0,B|452:152|452:152|444:252,1,114.750002188683,8|0,1:3|0:0,0:0:0:0:
436,332,138905,1,0,3:0:0:0:
256,268,139030,6,0,P|224:264|184:268,1,57.3750010943413,0|0,1:0|0:0,0:0:0:0:
64,324,139280,2,0,P|97:331|136:328,1,57.3750010943413
104,228,139530,2,0,P|96:176|104:96,1,114.750002188683,8|0,1:3|0:0,0:0:0:0:
176,48,139905,1,0,3:0:0:0:
344,136,140030,2,0,L|260:128,1,57.3750010943413,0|0,1:0|3:0,0:0:0:0:
180,52,140280,1,0,0:0:0:0:
184,56,140530,2,0,P|196:108|192:172,1,114.750002188683,8|0,1:3|0:0,0:0:0:0:
396,352,141030,5,4,1:0:0:0:
412,256,141155,1,0,0:0:0:0:
320,292,141280,2,0,P|292:292|256:280,1,60.7499981460572,0|0,3:0|0:0,0:0:0:0:
360,156,141530,2,0,P|400:192|412:260,1,121.499996292114,8|0,1:3|0:0,0:0:0:0:
264,176,141905,2,0,P|264:140|276:104,1,60.7499981460572,0|0,3:0|1:0,0:0:0:0:
432,28,142155,2,0,P|444:60|444:96,2,60.7499981460572,0|0|0,0:0|3:0|0:0,0:0:0:0:
296,80,142530,2,0,P|236:84|168:60,1,121.499996292114,8|0,1:3|3:0,0:0:0:0:
80,320,143030,5,0,1:0:0:0:
160,264,143155,1,0,0:0:0:0:
240,320,143280,2,0,P|280:320|312:312,1,60.7499981460572,0|0,3:0|0:0,0:0:0:0:
220,184,143530,2,0,P|152:164|92:188,1,121.499996292114,8|0,1:3|0:0,0:0:0:0:
260,100,143905,2,0,P|296:96|320:88,1,60.7499981460572,0|0,3:0|1:0,0:0:0:0:
428,16,144155,1,0,0:0:0:0:
428,16,144280,2,0,P|424:88|432:136,1,121.499996292114,0|8,3:0|1:3,0:0:0:0:
492,220,144655,1,0,3:0:0:0:
488,224,144780,1,0,3:0:0:0:
484,228,144905,1,0,3:0:0:0:
480,232,145030,6,0,L|472:300,1,60.7499981460572,0|0,1:0|0:0,0:0:0:0:
368,276,145280,2,0,L|380:340,1,60.7499981460572,0|0,3:0|0:0,0:0:0:0:
272,244,145530,2,0,P|300:200|364:176,1,121.499996292114,8|0,1:3|0:0,0:0:0:0:
292,340,145905,2,0,P|261:339|224:328,1,60.7499981460572,0|0,3:0|1:0,0:0:0:0:
172,256,146155,1,0,3:0:0:0:
172,256,146280,2,0,L|108:260,1,60.7499981460572
24,344,146530,2,0,B|40:316|40:316|24:212,1,121.499996292114,8|0,1:3|3:0,0:0:0:0:
212,40,147030,5,0,1:0:0:0:
292,100,147155,1,0,0:0:0:0:
364,32,147280,2,0,L|436:24,1,60.7499981460572,0|0,3:0|0:0,0:0:0:0:
292,100,147530,2,0,P|288:164|320:220,1,121.499996292114,8|0,1:3|0:0,0:0:0:0:
412,240,147905,2,0,L|476:236,2,60.7499981460572,0|0|0,3:0|1:0|0:0,0:0:0:0:
296,248,148280,2,0,B|256:252|256:252|232:288|184:292,1,121.499996292114,0|8,3:0|1:3,0:0:0:0:
100,252,148655,1,0,3:0:0:0:
176,192,148780,1,0,3:0:0:0:
84,156,148905,1,0,3:0:0:0:
164,96,149030,6,0,P|224:80|300:96,1,128.249996575356,12|0,1:0|0:0,0:0:0:0:
376,136,149405,1,0,0:0:0:0:
296,248,149530,2,0,P|248:256|240:180,1,128.249996575356,8|0,1:3|0:0,0:0:0:0:
132,348,150030,2,0,P|84:288|76:228,1,128.249996575356,2|0,1:2|0:0,0:0:0:0:
108,140,150405,1,0,0:0:0:0:
212,236,150530,2,0,L|288:244,1,64.1249982876778,8|0,1:3|0:0,0:0:0:0:
376,136,150780,2,0,L|296:144,1,64.1249982876778,2|0,0:0|0:0,0:0:0:0:
468,248,151030,6,0,P|476:228|480:184,1,64.1249982876778,2|0,1:2|0:0,0:0:0:0:
392,52,151280,2,0,L|256:64,1,128.249996575356,0|8,0:0|1:3,0:0:0:0:
100,308,151780,1,2,0:0:0:0:
52,220,151905,2,0,P|40:160|64:84,1,128.249996575356
156,224,152280,2,0,P|188:236|224:240,1,64.1249982876778
336,144,152530,2,0,P|256:128|200:148,1,128.249996575356,8|0,1:3|0:0,0:0:0:0:
152,228,152905,1,0,0:0:0:0:
252,320,153030,6,0,P|285:326|328:324,1,64.1249982876778,2|0,1:0|0:0,0:0:0:0:
408,292,153280,2,0,P|404:208|424:160,2,128.249996575356,0|8|0,3:0|1:3|0:0,0:0:0:0:
292,228,153905,2,0,L|300:152,1,64.1249982876778,0|0,3:0|1:0,0:0:0:0:
396,76,154155,2,0,L|404:8,2,64.1249982876778,0|0|0,3:0|0:0|0:0,0:0:0:0:
276,136,154530,2,0,B|232:148|232:148|136:120,1,128.249996575356,8|0,1:3|0:0,0:0:0:0:
56,96,154905,1,0,0:0:0:0:
120,264,155030,6,0,L|108:344,1,64.1249982876778,0|0,1:0|0:0,0:0:0:0:
32,216,155280,2,0,P|28:152|56:96,1,128.249996575356,0|8,3:0|1:3,0:0:0:0:
256,232,155780,1,0,0:0:0:0:
256,232,155905,2,0,L|248:308,1,64.1249982876778,0|0,3:0|1:0,0:0:0:0:
360,336,156155,2,0,L|348:208,1,128.249996575356,0|0,3:0|0:0,0:0:0:0:
376,116,156530,1,8,1:3:0:0:
472,112,156655,1,0,3:0:0:0:
508,200,156780,1,0,3:0:0:0:
432,256,156905,1,0,3:0:0:0:
348,208,157030,6,0,P|282:200|208:212,1,135,12|0,1:0|0:0,0:0:0:0:
80,280,157405,2,0,P|117:286|164:280,1,67.5,0|8,0:0|1:3,0:0:0:0:
376,116,157780,1,0,0:0:0:0:
288,68,157905,1,0,0:0:0:0:
200,120,158030,2,0,P|128:120|48:96,1,135,2|0,1:2|0:0,0:0:0:0:
200,20,158405,1,0,0:0:0:0:
288,172,158530,2,0,L|280:244,1,67.5,8|0,1:3|0:0,0:0:0:0:
376,116,158780,2,0,L|444:136,1,67.5,2|0,0:0|0:0,0:0:0:0:
296,260,159030,6,0,P|252:256|220:260,1,67.5,2|0,1:2|0:0,0:0:0:0:
364,332,159280,2,0,P|396:268|376:200,1,135,0|8,0:0|1:3,0:0:0:0:
128,240,159780,1,2,0:0:0:0:
164,336,159905,1,0,0:0:0:0:
128,240,160030,2,0,B|136:208|136:208|136:160,1,67.5,0|0,1:0|0:0,0:0:0:0:
52,12,160280,2,0,B|32:40|32:40|40:144,1,135,2|8,0:0|1:3,0:0:0:0:
32,256,160655,2,0,B|28:288|28:288|36:328,2,67.5,0|0|0,0:0|0:0|0:0,0:0:0:0:
160,144,161030,6,0,P|204:156|240:156,1,67.5,2|0,1:0|0:0,0:0:0:0:
316,104,161280,2,0,P|348:164|308:212,1,135,0|8,3:0|1:3,0:0:0:0:
232,156,161655,1,0,0:0:0:0:
228,56,161780,2,0,P|280:12|360:16,1,135,0|0,3:0|1:0,0:0:0:0:
412,80,162155,1,0,0:0:0:0:
320,204,162280,2,0,P|308:276|332:340,1,135,0|8,3:0|1:3,0:0:0:0:
424,368,162655,2,0,P|428:336|424:300,2,67.5,0|0|0,0:0|3:0|0:0,0:0:0:0:
236,320,163030,6,0,P|228:296|224:252,1,67.5,0|0,1:0|0:0,0:0:0:0:
232,156,163280,1,0,3:0:0:0:
140,352,163530,2,0,P|112:328|92:292,1,67.5,8|0,1:3|0:0,0:0:0:0:
68,208,163780,1,0,3:0:0:0:
136,136,163905,1,0,0:0:0:0:
232,156,164030,2,0,L|304:152,1,67.5,0|0,1:0|0:0,0:0:0:0:
164,232,164280,1,0,3:0:0:0:
168,236,164530,1,8,1:3:0:0:
324,152,164655,1,0,0:0:0:0:
412,304,164780,1,0,3:0:0:0:
172,240,165030,5,2,0:1:0:0:
140,236,168030,22,0,B|180:136|180:136|220:236,1,216,2|0,0:0|0:0,0:0:0:0:
288,136,168405,6,0,B|356:136|356:136|292:236|292:236|368:236,1,263.249987949372,0|4,0:0|1:0,0:0:0:0:
112,336,169030,6,0,P|48:284|48:192,1,161.999995056153,12|0,1:0|3:0,0:0:0:0:
140,236,169405,1,0,0:0:0:0:
212,312,169530,2,0,P|256:312|296:300,1,80.9999975280763
204,156,169780,2,0,P|168:140|120:136,1,80.9999975280763,0|0,3:0|0:0,0:0:0:0:
300,116,170030,1,0,0:0:0:0:
300,116,170155,2,0,P|376:128|460:96,1,161.999995056153,0|0,3:0|0:0,0:0:0:0:
432,216,170530,2,0,L|428:308,1,80.9999975280763,0|0,3:0|0:0,0:0:0:0:
304,240,170780,2,0,L|288:324,1,80.9999975280763,0|0,1:0|0:0,0:0:0:0:
204,156,171030,6,0,P|168:140|120:136,1,80.9999975280763,4|0,1:0|0:0,0:0:0:0:
60,244,171280,2,0,P|102:245|140:236,1,80.9999975280763,0|0,3:0|0:0,0:0:0:0:
324,308,171530,1,0,0:0:0:0:
240,252,171655,1,0,0:0:0:0:
208,156,171780,2,0,P|204:112|212:64,1,80.9999975280763,0|0,3:0|0:0,0:0:0:0:
312,176,172030,1,0,0:0:0:0:
312,176,172155,2,0,P|384:160|472:184,1,161.999995056153,0|0,3:0|0:0,0:0:0:0:
324,308,172530,2,0,L|240:288,1,80.9999975280763,0|0,3:0|0:0,0:0:0:0:
216,284,172717,1,0,0:0:0:0:
188,288,172780,2,0,L|108:300,1,80.9999975280763,0|0,1:0|0:0,0:0:0:0:
204,180,173030,6,0,B|216:136|216:136|200:72|144:44,1,161.999995056153,12|0,1:0|3:0,0:0:0:0:
48,44,173405,1,0,0:0:0:0:
240,84,173530,2,0,P|293:84|328:76,1,80.9999975280763
456,164,173780,1,0,3:0:0:0:
456,164,173905,2,0,P|360:168|296:200,2,161.999995056153,0|0|0,0:0|3:0|0:0,0:0:0:0:
368,84,174530,2,0,P|356:44|360:0,1,80.9999975280763,0|0,3:0|0:0,0:0:0:0:
484,184,174780,2,0,P|488:224|480:272,1,80.9999975280763,4|0,1:0|0:0,0:0:0:0:
336,320,175030,6,0,P|296:308|240:312,1,80.9999975280763,4|0,1:0|0:0,0:0:0:0:
100,316,175280,2,0,P|152:280|168:252,1,80.9999975280763,0|0,3:0|0:0,0:0:0:0:
248,48,175530,2,0,P|232:120|244:212,1,161.999995056153,0|0,0:0|3:0,0:0:0:0:
316,280,175905,1,0,0:0:0:0:
388,208,176030,2,0,L|480:224,2,80.9999975280763,0|0|0,0:0|3:0|0:0,0:0:0:0:
224,232,176405,2,0,L|132:244,1,80.9999975280763,0|0,0:0|3:0,0:0:0:0:
24,152,176655,1,0,0:0:0:0:
40,256,176780,1,0,1:0:0:0:
128,140,176905,1,0,1:0:0:0:
248,236,177030,6,0,P|308:232|376:152,1,161.999995056153,12|0,1:0|3:0,0:0:0:0:
276,136,177405,1,0,0:0:0:0:
344,256,177530,2,0,P|396:272|436:268,1,80.9999975280763
488,144,177780,2,0,P|428:132|396:136,1,80.9999975280763,0|0,3:0|0:0,0:0:0:0:
240,268,178030,1,0,0:0:0:0:
240,268,178155,2,0,P|172:284|92:236,1,161.999995056153,0|0,3:0|0:0,0:0:0:0:
88,140,178530,2,0,L|96:48,1,80.9999975280763,0|0,3:0|0:0,0:0:0:0:
180,184,178780,1,0,1:0:0:0:
276,136,178905,1,0,0:0:0:0:
364,192,179030,6,0,L|380:276,1,80.9999975280763,4|0,1:0|0:0,0:0:0:0:
240,268,179280,2,0,L|232:352,1,80.9999975280763,0|0,3:0|0:0,0:0:0:0:
184,180,179530,1,0,0:0:0:0:
280,132,179655,1,0,0:0:0:0:
376,84,179780,2,0,L|464:76,1,80.9999975280763,0|0,3:0|0:0,0:0:0:0:
360,196,180030,1,0,0:0:0:0:
284,128,180155,2,0,B|252:96|252:96|124:84,1,161.999995056153,0|0,3:0|0:0,0:0:0:0:
32,76,180530,1,0,3:0:0:0:
156,112,180655,1,0,3:0:0:0:
172,144,180717,1,0,0:0:0:0:
184,180,180780,2,0,P|188:232|180:272,1,80.9999975280763,0|0,1:0|0:0,0:0:0:0:
88,324,181030,6,0,P|64:248|80:156,1,161.999995056153,6|0,1:0|3:0,0:0:0:0:
136,84,181405,1,0,0:0:0:0:
240,96,181530,2,0,P|280:88|324:68,2,80.9999975280763,0|0|0,0:0|0:0|3:0,0:0:0:0:
348,164,181905,2,0,P|408:156|432:160,1,80.9999975280763
256,220,182155,2,0,P|208:216|168:200,1,80.9999975280763,0|0,3:0|0:0,0:0:0:0:
348,268,182405,1,0,0:0:0:0:
348,268,182530,2,0,L|340:352,1,80.9999975280763,0|0,3:0|0:0,0:0:0:0:
464,176,182780,2,0,L|456:88,1,80.9999975280763,4|0,1:0|0:0,0:0:0:0:
292,72,183030,6,0,B|256:92|256:92|216:96,1,80.9999975280763,4|0,1:0|0:0,0:0:0:0:
48,28,183280,2,0,B|92:32|92:32|132:56,1,80.9999975280763,0|0,3:0|0:0,0:0:0:0:
100,304,183530,2,0,B|124:252|124:252|116:204|116:204|136:152,1,161.999995056153,0|0,0:0|3:0,0:0:0:0:
216,216,183905,1,0,0:0:0:0:
16,244,184030,2,0,P|12:184|20:156,1,80.9999975280763,0|0,0:0|3:0,0:0:0:0:
248,40,184280,2,0,P|256:92|244:136,1,80.9999975280763
108,208,184530,5,0,3:0:0:0:
156,84,184655,1,0,1:0:0:0:
216,216,184780,1,0,1:0:0:0:
68,120,184905,1,0,1:0:0:0:
252,44,185030,6,0,L|328:48,1,74.2500022659302,12|0,1:0|0:0,0:0:0:0:
484,100,185280,2,0,L|396:108,1,74.2500022659302,0|0,3:0|0:0,0:0:0:0:
284,184,185530,2,0,L|196:180,1,74.2500022659302
368,240,185780,2,0,L|452:232,1,74.2500022659302,0|0,3:0|0:0,0:0:0:0:
328,332,186030,1,0,0:0:0:0:
244,280,186155,2,0,B|208:268|172:280|172:280|136:292|96:280,1,148.50000453186,0|0,3:0|0:0,0:0:0:0:
140,188,186530,2,0,P|152:140|152:108,1,74.2500022659302,0|0,3:0|0:0,0:0:0:0:
88,40,186780,1,4,1:0:0:0:
52,132,186905,1,0,1:0:0:0:
168,196,187030,6,0,P|212:196|252:184,1,74.2500022659302,4|0,1:0|0:0,0:0:0:0:
324,40,187280,2,0,P|308:96|308:120,1,74.2500022659302,0|0,3:0|0:0,0:0:0:0:
472,172,187530,1,0,0:0:0:0:
408,96,187655,1,0,0:0:0:0:
372,188,187780,2,0,L|368:264,1,74.2500022659302,0|0,3:0|0:0,0:0:0:0:
272,348,188030,1,0,0:0:0:0:
272,348,188155,2,0,P|200:360|120:332,1,148.50000453186,0|0,3:0|0:0,0:0:0:0:
268,248,188530,1,0,3:0:0:0:
376,364,188655,2,0,L|416:364,2,37.1250011329651,0|0|0,0:0|0:0|1:0,0:0:0:0:
276,344,188905,1,0,1:0:0:0:
364,204,189030,6,0,P|368:160|364:124,1,74.2500022659302,6|0,1:0|0:0,0:0:0:0:
452,256,189280,2,0,P|464:296|488:332,1,74.2500022659302,0|0,3:0|0:0,0:0:0:0:
268,248,189530,2,0,P|236:232|184:224,1,74.2500022659302
104,332,189780,1,0,3:0:0:0:
204,324,189905,1,0,0:0:0:0:
96,232,190030,1,0,0:0:0:0:
96,232,190155,2,0,B|72:204|72:204|64:92,1,148.50000453186,0|0,3:0|0:0,0:0:0:0:
192,20,190530,2,0,L|184:100,1,74.2500022659302,0|0,3:0|0:0,0:0:0:0:
304,192,190780,2,0,L|316:272,1,74.2500022659302,4|0,1:0|0:0,0:0:0:0:
384,128,191030,5,4,1:0:0:0:
288,92,191155,2,0,P|216:128|140:124,1,148.50000453186,4|0,1:0|3:0,0:0:0:0:
44,20,191530,2,0,P|52:72|48:112,1,74.2500022659302
44,260,191780,2,0,P|56:220|80:184,1,74.2500022659302,0|0,3:0|0:0,0:0:0:0:
176,172,192030,1,0,0:0:0:0:
176,172,192155,1,0,3:0:0:0:
312,244,192280,2,0,P|248:252|212:240,1,74.2500022659302
244,96,192530,2,0,P|284:96|328:112,1,74.2500022659302,0|0,3:0|0:0,0:0:0:0:
404,192,192780,1,0,3:0:0:0:
428,200,192842,1,0,0:0:0:0:
452,204,192905,1,0,0:0:0:0:
476,204,192967,1,0,0:0:0:0:
500,200,193030,6,0,L|496:280,1,74.2500022659302,12|0,1:0|0:0,0:0:0:0:
460,104,193280,2,0,L|452:28,1,74.2500022659302,0|0,3:0|0:0,0:0:0:0:
356,256,193530,2,0,L|352:340,1,74.2500022659302
308,136,193780,2,0,P|276:128|224:132,1,74.2500022659302,0|0,3:0|0:0,0:0:0:0:
120,228,194030,1,0,0:0:0:0:
120,228,194155,2,0,P|188:248|268:220,1,148.50000453186,0|0,3:0|0:0,0:0:0:0:
68,312,194530,2,0,P|40:288|20:236,1,74.2500022659302,0|0,3:0|0:0,0:0:0:0:
48,156,194780,1,4,1:0:0:0:
148,128,194905,1,0,1:0:0:0:
200,292,195030,6,0,B|228:316|228:316|272:328,1,74.2500022659302,4|0,1:0|0:0,0:0:0:0:
436,304,195280,2,0,B|400:296|400:296|356:308,1,74.2500022659302,0|0,3:0|0:0,0:0:0:0:
268,152,195530,2,0,P|272:208|284:240,1,74.2500022659302
432,172,195780,2,0,P|436:132|432:96,1,74.2500022659302,0|0,3:0|0:0,0:0:0:0:
360,28,196030,1,0,0:0:0:0:
240,120,196155,2,0,P|232:184|260:268,1,148.50000453186,0|0,3:0|0:0,0:0:0:0:
132,156,196530,2,0,L|44:148,1,74.2500022659302,0|0,3:0|0:0,0:0:0:0:
58,149,196717,1,0,0:0:0:0:
58,149,196780,1,0,1:0:0:0:
152,252,196905,1,0,0:0:0:0:
284,196,197030,6,0,P|328:192|368:200,1,74.2500022659302,4|0,1:0|0:0,0:0:0:0:
156,256,197280,2,0,L|148:344,1,74.2500022659302,0|0,3:0|0:0,0:0:0:0:
196,144,197530,2,0,P|228:112|264:96,1,74.2500022659302
252,292,197780,2,0,L|268:364,1,74.2500022659302,0|0,3:0|0:0,0:0:0:0:
424,356,198030,1,0,0:0:0:0:
356,276,198155,2,0,P|344:232|356:132,1,148.50000453186,0|0,3:0|0:0,0:0:0:0:
448,12,198530,2,0,P|452:56|444:96,1,74.2500022659302,0|0,3:0|0:0,0:0:0:0:
360,136,198780,1,4,1:0:0:0:
284,68,198905,1,0,1:0:0:0:
196,120,199030,6,0,L|112:116,1,74.2500022659302,4|0,1:0|0:0,0:0:0:0:
212,216,199280,2,0,B|100:212|100:212|60:196,1,148.50000453186,4|0,1:0|0:0,0:0:0:0:
20,112,199655,1,0,0:0:0:0:
116,20,199780,2,0,L|204:24,1,74.2500022659302,0|0,3:0|0:0,0:0:0:0:
284,68,200030,1,0,0:0:0:0:
212,216,200155,2,0,B|192:276|208:332|208:332|228:304,1,148.50000453186,0|0,3:0|0:0,0:0:0:0:
316,196,200530,2,0,P|372:196|400:204,1,74.2500022659302,0|0,3:0|0:0,0:0:0:0:
464,308,200780,1,0,3:0:0:0:
436,320,200842,1,0,3:0:0:0:
404,324,200905,1,0,3:0:0:0:
372,320,200967,1,0,0:0:0:0:
344,308,201030,6,0,P|288:296|224:308,1,121.499996292114,2|0,1:2|0:0,0:0:0:0:
152,368,201405,1,0,0:0:0:0:
136,272,201530,2,0,L|140:208,1,60.7499981460572,8|0,1:3|0:0,0:0:0:0:
28,176,201780,2,0,L|40:248,1,60.7499981460572
136,208,202030,1,0,1:0:0:0:
192,128,202155,1,0,0:0:0:0:
188,32,202280,1,0,3:0:0:0:
188,32,202530,2,0,B|216:32|216:32|240:44|240:44|272:32|312:44,1,121.499996292114,8|0,1:3|0:0,0:0:0:0:
384,96,202905,1,0,3:0:0:0:
304,224,203030,6,0,P|304:263|312:296,1,60.7499981460572,0|0,1:0|0:0,0:0:0:0:
432,184,203280,2,0,P|432:216|428:244,1,60.7499981460572,0|0,3:0|0:0,0:0:0:0:
348,132,203530,2,0,P|296:124|228:156,1,121.499996292114,8|0,1:3|0:0,0:0:0:0:
208,244,203905,1,0,0:0:0:0:
116,216,204030,2,0,L|44:220,2,60.7499981460572,0|0|0,3:0|0:0|1:0,0:0:0:0:
212,248,204405,1,0,0:0:0:0:
304,280,204530,2,0,B|348:276|348:276|380:256|380:256|420:252,1,121.499996292114,8|0,1:3|0:0,0:0:0:0:
412,348,204905,1,0,0:0:0:0:
312,184,205030,6,0,P|300:128|316:56,1,121.499996292114,10|0,1:0|0:0,0:0:0:0:
444,56,205405,1,0,3:0:0:0:
444,56,205530,2,0,P|462:113|456:180,1,121.499996292114,8|0,1:3|0:0,0:0:0:0:
388,240,205905,1,0,0:0:0:0:
284,164,206030,2,0,L|208:160,1,60.7499981460572,0|0,1:0|0:0,0:0:0:0:
316,72,206280,2,0,L|244:68,1,60.7499981460572,0|0,0:0|3:0,0:0:0:0:
132,124,206530,2,0,B|124:156|124:156|140:252,1,121.499996292114,8|0,1:3|0:0,0:0:0:0:
156,336,206905,1,0,3:0:0:0:
288,280,207030,6,0,P|256:276|216:280,1,60.7499981460572,0|0,1:0|0:0,0:0:0:0:
360,344,207280,2,0,P|393:351|432:348,1,60.7499981460572
308,264,207530,2,0,P|296:216|308:128,1,121.499996292114,8|0,1:3|0:0,0:0:0:0:
384,92,207905,1,0,3:0:0:0:
384,92,208030,2,0,P|393:57|392:24,1,60.7499981460572,0|0,1:0|3:0,0:0:0:0:
436,172,208280,1,0,0:0:0:0:
436,172,208530,2,0,P|432:240|448:300,1,121.499996292114,8|0,1:3|0:0,0:0:0:0:
360,344,208905,1,0,3:0:0:0:
280,284,209030,6,0,L|144:280,1,121.499996292114,12|0,1:0|0:0,0:0:0:0:
128,184,209405,1,0,3:0:0:0:
128,184,209530,2,0,L|212:188,1,60.7499981460572,8|0,1:3|0:0,0:0:0:0:
64,256,209780,2,0,P|36:204|48:132,1,121.499996292114,0|0,3:0|0:0,0:0:0:0:
128,88,210155,2,0,P|180:104|220:164,1,121.499996292114,0|0,3:0|0:0,0:0:0:0:
184,312,210530,2,0,L|200:248,1,60.7499981460572,8|0,1:3|0:0,0:0:0:0:
313,253,210780,2,0,L|327:311,1,60.7499981460572,4|0,1:0|0:0,0:0:0:0:
293,156,211030,6,0,P|327:107|384:88,1,121.499996292114,4|0,1:0|3:0,0:0:0:0:
384,184,211405,1,0,0:0:0:0:
220,224,211530,2,0,L|148:216,1,60.7499981460572,8|0,1:3|0:0,0:0:0:0:
104,136,211780,1,0,3:0:0:0:
172,64,211905,1,0,0:0:0:0:
296,160,212030,2,0,P|316:204|320:228,1,60.7499981460572,0|0,1:0|3:0,0:0:0:0:
236,348,212280,2,0,P|264:312|288:296,1,60.7499981460572
372,296,212530,2,0,P|416:304|440:304,1,60.7499981460572,8|0,1:3|3:0,0:0:0:0:
496,268,212717,1,0,3:0:0:0:
496,268,212780,2,0,L|512:200,1,60.7499981460572,0|0,3:0|0:0,0:0:0:0:
432,92,213030,6,0,B|436:132|436:132|412:164|416:212,1,121.499996292114,6|0,1:0|3:0,0:0:0:0:
436,308,213405,1,0,0:0:0:0:
320,236,213530,2,0,P|280:236|248:244,1,60.7499981460572,8|0,1:3|0:0,0:0:0:0:
204,320,213780,1,0,3:0:0:0:
300,332,213905,1,0,0:0:0:0:
224,224,214030,2,0,P|212:188|212:148,1,60.7499981460572,0|0,1:0|3:0,0:0:0:0:
244,76,214280,1,0,0:0:0:0:
244,76,214530,2,0,L|312:72,1,60.7499981460572,8|0,1:3|0:0,0:0:0:0:
384,124,214780,2,0,L|460:120,1,60.7499981460572,4|0,1:0|0:0,0:0:0:0:
308,68,215030,5,4,1:0:0:0:
312,188,215155,2,0,P|320:252|344:324,1,121.499996292114,4|0,1:0|3:0,0:0:0:0:
204,320,215530,2,0,P|144:312|72:320,1,121.499996292114,8|0,1:3|3:0,0:0:0:0:
224,224,215905,1,0,0:0:0:0:
328,284,216030,2,0,P|376:284|408:276,1,60.7499981460572,0|0,1:0|3:0,0:0:0:0:
452,184,216280,2,0,P|420:172|388:168,1,60.7499981460572
224,224,216530,5,8,1:3:0:0:
236,324,216655,1,0,1:0:0:0:
308,164,216780,1,0,1:0:0:0:
292,64,216905,1,0,1:0:0:0:
