osu file format v12

[General]
AudioFilename: Bios MK+nZk Version.mp3
AudioLeadIn: 1625
PreviewTime: 111771
Countdown: 0
SampleSet: Normal
StackLeniency: 0.4
Mode: 0
LetterboxInBreaks: 0
WidescreenStoryboard: 0

[Editor]
DistanceSpacing: 1.25
BeatDivisor: 4
GridSize: 4

[Metadata]
Title:Bios (MK + nZK ver.)
TitleUnicode:βios (MK + nZK ver.)
Artist:Mika Kobayashi
ArtistUnicode:小林美香
Creator:meiikyuu
Version:Nyquill's Hard
Source:Guilty Crown
Tags:nyquill theme songs collection hiroyuki sawano
BeatmapID:164827
BeatmapSetID:54123

[Difficulty]
HPDrainRate:5
CircleSize:4
OverallDifficulty:5
ApproachRate:7
SliderMultiplier:1.2
SliderTickRate:1

[Events]
//Background and Video events
0,0,"meii biosbg.jpg",0,0
//Break Periods
2,10503,17909
2,102050,108372
2,121689,125537
2,210720,218785
//Storyboard Layer 0 (Background)
//Storyboard Layer 1 (Fail)
//Storyboard Layer 2 (Pass)
//Storyboard Layer 3 (Foreground)
//Storyboard Sound Samples
//Background Colour Transformations
3,100,163,162,255

[TimingPoints]
407,309.278350515464,4,2,1,45,1,0
10303,-100,4,2,0,25,0,0
20200,-100,4,2,1,45,0,0
20664,-100,4,1,1,45,0,0
20742,-100,4,2,1,45,0,0
22056,-100,4,1,1,45,0,0
22133,-100,4,2,1,45,0,0
23138,-100,4,1,1,45,0,0
23216,-100,4,2,1,45,0,0
24530,-100,4,1,1,45,0,0
24608,-100,4,2,1,45,0,0
25613,-100,4,1,1,45,0,0
25690,-100,4,2,1,45,0,0
27004,-100,4,1,1,45,0,0
27082,-100,4,2,1,45,0,0
28087,-100,4,1,1,45,0,0
28164,-100,4,2,1,45,0,0
29479,-100,4,1,1,45,0,0
29556,-100,4,2,1,45,0,0
30097,-100,4,2,0,45,0,0
30175,-100,4,2,1,45,0,0
30561,-100,4,1,1,45,0,0
30638,-100,4,2,1,45,0,0
31953,-100,4,1,1,45,0,0
32030,-100,4,2,1,45,0,0
33035,-100,4,1,1,45,0,0
33113,-100,4,2,1,45,0,0
33963,-100,4,1,1,45,0,0
34041,-100,4,2,1,45,0,0
34427,-100,4,1,1,45,0,0
34504,-100,4,2,1,45,0,0
35510,-100,4,1,1,45,0,0
35587,-100,4,2,1,45,0,0
36901,-100,4,1,1,45,0,0
36979,-100,4,2,1,45,0,0
37984,-100,4,1,1,45,0,0
38061,-100,4,2,1,45,0,0
38757,-100,4,1,1,45,0,0
38834,-100,4,2,1,45,0,0
39994,-100,4,2,0,45,0,0
40071,-100,4,2,1,45,0,0
49891,-100,4,2,0,45,0,0
49968,-100,4,2,1,45,0,0
58396,-100,4,1,1,50,0,0
59788,-100,4,1,1,50,0,1
99376,-100,4,1,1,50,0,0
121644,-100,4,2,1,40,0,0
131541,-100,4,1,1,40,0,0
141437,-100,4,2,1,30,0,0
151334,-100,4,2,1,45,0,0
161231,-100,4,1,2,40,0,0
181025,-100,4,1,1,40,0,0
200819,-100,4,1,1,30,0,0
219685,-153.846153846153,4,1,1,20,0,0
220613,-100,4,1,1,50,0,1
260200,-100,4,1,1,50,0,0

[Colours]
Combo1 : 115,255,255
Combo2 : 254,82,138
Combo3 : 0,112,223
Combo4 : 196,0,0

[HitObjects]
272,120,407,1,2,0:0:0:0:
240,188,561,2,0,B|236:256,1,60,2|0,0:0|0:0,0:0:0:0:
164,272,870,2,0,B|172:144,1,120,2|0,0:0|0:0,0:0:0:0:
204,84,1334,1,0,0:0:0:0:
272,120,1489,2,0,B|344:144|400:84,1,120,2|0,0:0|0:0,0:0:0:0:
456,124,1953,2,0,B|484:180|456:248,1,120,0|2,0:0|0:0,0:0:0:0:
312,276,2571,1,0,0:0:0:0:
244,248,2726,1,0,0:0:0:0:
172,276,2881,6,0,B|92:268,1,60,2|2,0:0|0:0,0:0:0:0:
112,344,3190,1,0,0:0:0:0:
188,356,3345,2,0,B|324:368,1,120,2|0,0:0|0:0,0:0:0:0:
364,320,3809,1,0,0:0:0:0:
300,280,3963,2,0,B|328:152,1,120,2|0,0:0|0:0,0:0:0:0:
252,140,4427,2,0,B|176:156|124:100,2,120,0|2|0,0:0|0:0|0:0,0:0:0:0:
296,80,5200,1,0,0:0:0:0:
372,88,5355,6,0,B|452:84,1,60,2|2,0:0|0:0,0:0:0:0:
472,148,5664,1,0,0:0:0:0:
432,212,5819,2,0,B|372:228|372:228|308:180,1,120,2|0,0:0|0:0,0:0:0:0:
256,168,6283,1,0,0:0:0:0:
188,196,6437,2,0,B|142:231|142:231|82:215,1,120,2|0,0:0|0:0,0:0:0:0:
52,148,6901,2,0,B|64:20,1,120,0|2,0:0|0:0,0:0:0:0:
208,72,7520,1,0,0:0:0:0:
284,60,7675,1,0,0:0:0:0:
352,88,7829,6,0,B|432:92,2,60,2|2|0,0:0|0:0|0:0,0:0:0:0:
300,144,8293,2,0,B|176:140,1,120,2|0,0:0|0:0,0:0:0:0:
136,84,8757,1,0,0:0:0:0:
104,152,8912,2,0,B|96:272,1,120,2|0,0:0|0:0,0:0:0:0:
184,316,9376,2,0,B|172:252,1,60,0|2,0:0|0:0,0:0:0:0:
260,212,9685,2,0,B|256:280,1,60,2|2,0:0|0:0,0:0:0:0:
344,320,9994,2,0,B|332:256,1,60,0|2,0:0|0:0,0:0:0:0:
388,212,10303,5,4,0:0:0:0:
176,104,18809,6,0,B|172:236,1,120
244,208,19272,2,0,B|244:272,1,60,2|2,0:0|0:0,0:0:0:0:
320,256,19582,2,0,B|324:320,1,60,0|0,1:0|0:0,0:0:0:0:
400,304,19891,2,0,B|424:360,1,60,0|0,0:0|0:0,0:0:0:0:
480,308,20200,6,0,B|516:248|484:168,1,120,4|0,0:0|0:0,0:0:0:0:
452,108,20664,1,0,0:0:0:0:
360,140,20819,2,0,P|368:188|416:244,1,120
452,108,21283,2,0,B|456:40|392:-4|308:8|304:16,1,180
256,36,21901,2,0,P|208:44|176:40,2,60
308,92,22365,2,0,B|300:168,1,60
240,196,22675,6,0,L|228:324,1,120
140,264,23138,2,0,B|152:140,1,120
220,116,23602,2,0,B|256:164|332:172|392:132|388:52,1,240
336,0,24376,1,0,0:0:0:0:
312,68,24530,2,0,B|316:104|348:128,1,60
408,152,24839,2,0,B|448:160|476:136,1,60
436,72,25149,6,0,B|416:268,2,180
300,140,26386,1,0,0:0:0:0:
256,208,26541,1,0,0:0:0:0:
276,280,26695,1,0,0:0:0:0:
128,260,27004,2,0,B|118:200,1,60
156,136,27314,2,0,B|160:60,1,60
228,48,27623,6,0,B|220:240,2,180
300,32,28705,1,0,0:0:0:0:
300,108,28860,2,0,B|296:168,1,60,2|2,0:0|0:0,0:0:0:0:
364,228,29169,2,0,B|368:164,1,60,0|2,0:0|0:0,0:0:0:0:
288,244,29479,2,0,B|284:304,1,60,0|2,0:0|0:0,0:0:0:0:
356,364,29788,2,0,B|359:304,1,60,0|2,0:0|0:0,0:0:0:0:
268,376,30097,6,0,B|208:384|152:336|156:260,1,180,4|0,0:0|0:0,0:0:0:0:
204,204,30716,2,0,B|216:64,1,120
380,80,31644,5,0,0:0:0:0:
452,212,31953,1,0,0:0:0:0:
340,312,32262,1,0,0:0:0:0:
260,184,32571,6,0,B|200:156|124:176|100:244,1,180
48,180,33190,2,0,B|40:52,1,120
184,56,33809,2,0,B|268:56,1,60
312,84,34118,1,0,0:0:0:0:
416,192,34427,1,0,0:0:0:0:
336,336,34736,1,0,0:0:0:0:
260,336,34891,1,0,0:0:0:0:
184,336,35046,6,0,B|132:336|132:336|80:316|80:316|8:316,4,180
260,360,37056,1,0,0:0:0:0:
336,336,37211,2,0,B|360:308|356:272,1,60
384,196,37520,6,0,B|344:176|288:192|256:240|272:296,2,180
456,220,38602,1,0,0:0:0:0:
444,144,38757,2,0,B|444:72,1,60,8|0,0:0|0:0,0:0:0:0:
372,56,39066,2,0,B|372:116,1,60,0|8,0:0|0:0,0:0:0:0:
300,92,39376,2,0,B|300:20,1,60,0|8,0:0|0:0,0:0:0:0:
228,16,39685,1,8,0:0:0:0:
136,136,39994,6,0,B|144:280,1,120,4|0,0:0|0:0,0:0:0:0:
200,304,40458,1,0,0:0:0:0:
264,268,40613,1,0,0:0:0:0:
328,304,40767,2,0,B|448:312,1,120
448,236,41231,2,0,B|420:180|420:180|432:116,1,120
364,92,41695,2,0,B|336:232,1,120
272,184,42159,2,0,B|284:120,1,60,8|0,0:0|0:0,0:0:0:0:
280,48,42468,6,0,B|232:48|232:48|208:64|208:64|148:64,2,120
332,100,43242,2,0,B|408:100,2,60,0|8|0,0:0|0:0|0:0,0:0:0:0:
264,128,43705,2,0,B|256:260,1,120
184,272,44169,2,0,B|192:144,1,120
116,168,44633,2,0,B|112:248,1,60,8|0,0:0|0:0,0:0:0:0:
112,304,44943,6,0,B|128:348|156:360|192:360|216:344,1,120,8|0,0:0|0:0,0:0:0:0:
256,292,45407,1,0,0:0:0:0:
304,348,45561,2,0,B|320:360|356:360|384:348|400:304,1,120,0|8,0:0|0:0,0:0:0:0:
368,236,46025,1,0,0:0:0:0:
324,172,46180,2,0,B|336:92,2,60
248,184,46644,2,0,B|268:44,1,120,0|8,0:0|0:0,0:0:0:0:
192,84,47108,2,0,B|180:152,1,60
176,220,47417,5,0,0:0:0:0:
228,272,47571,1,0,0:0:0:0:
304,260,47726,1,0,0:0:0:0:
332,188,47881,1,8,0:0:0:0:
392,236,48035,2,0,B|460:252,1,60
456,324,48345,2,0,B|392:308,1,60
332,348,48654,1,8,0:0:0:0:
276,300,48809,2,8,B|236:320,2,30
276,224,49118,1,0,0:0:0:0:
332,172,49272,2,0,B|400:160,1,60,0|8,0:0|0:0,0:0:0:0:
420,232,49582,2,0,B|360:244,1,60,0|8,0:0|0:0,0:0:0:0:
276,224,49891,6,0,B|212:212|188:144,1,120,4|0,0:0|0:0,0:0:0:0:
160,80,50355,1,0,0:0:0:0:
100,124,50510,2,0,B|64:180|88:256,1,120,0|8,0:0|0:0,0:0:0:0:
124,300,50974,1,0,0:0:0:0:
188,260,51128,2,0,B|228:252|264:268,1,60
308,304,51437,1,0,0:0:0:0:
372,348,51592,2,0,B|440:324|440:248,1,120,8|0,0:0|0:0,0:0:0:0:
412,188,52056,2,0,B|408:128,1,60,8|0,0:0|0:0,0:0:0:0:
336,108,52365,6,0,B|348:248,1,120
308,292,52829,1,0,0:0:0:0:
268,228,52984,2,0,B|264:160,1,60
188,160,53293,2,0,B|192:232,1,60,8|0,0:0|0:0,0:0:0:0:
216,292,53602,1,0,0:0:0:0:
144,304,53757,1,0,0:0:0:0:
88,252,53912,1,0,0:0:0:0:
116,184,54066,1,0,0:0:0:0:
188,160,54221,2,0,B|184:96,1,60,8|0,0:0|0:0,0:0:0:0:
252,72,54530,2,0,B|260:152,1,60,8|0,0:0|0:0,0:0:0:0:
256,208,54839,6,0,B|304:208|304:208|328:196|328:196|384:196,1,120
364,272,55303,1,0,0:0:0:0:
348,344,55458,2,0,B|308:360|256:332|260:280,1,120,8|0,0:0|0:0,0:0:0:0:
184,288,55922,1,0,0:0:0:0:
164,216,56077,2,0,B|160:136,1,60
216,108,56386,1,8,0:0:0:0:
252,172,56541,2,0,B|260:300,1,120
328,268,57004,2,0,B|324:204,1,60,8|0,0:0|0:0,0:0:0:0:
348,136,57314,5,2,0:0:0:0:
256,300,58396,6,0,B|256:332,2,30
296,236,58705,1,0,0:0:0:0:
220,236,58860,1,0,0:0:0:0:
256,172,59015,1,0,0:0:0:0:
216,104,59169,2,0,B|156:104,1,60
296,104,59479,2,0,B|344:104|344:104|368:124|368:124|412:124,1,120,0|4,0:0|0:0,0:0:0:0:
400,332,60097,5,0,0:0:0:0:
332,300,60252,1,0,0:0:0:0:
260,328,60407,2,0,B|192:336|148:280,1,120,8|0,0:0|0:0,0:0:0:0:
132,212,60870,1,0,0:0:0:0:
172,144,61025,2,0,B|184:116|176:76,1,60
104,104,61334,2,0,B|88:144|96:180|116:212|148:216,1,120,0|8,0:0|0:0,0:0:0:0:
268,272,61953,1,0,0:0:0:0:
332,232,62108,1,0,0:0:0:0:
400,264,62262,6,0,B|468:280|520:240,1,120
496,172,62726,1,0,0:0:0:0:
448,112,62881,2,0,B|448:36,1,60,8|0,0:0|0:0,0:0:0:0:
380,24,63190,1,0,0:0:0:0:
312,56,63345,2,0,B|316:200,1,120
272,236,63809,2,0,B|208:240,2,60,0|0|8,0:0|0:0|0:0,0:0:0:0:
336,276,64272,2,0,B|404:276,2,60
284,332,64736,6,0,B|220:364|164:328,1,120,4|0,0:0|0:0,0:0:0:0:
124,272,65200,1,0,0:0:0:0:
156,204,65355,2,0,B|176:144|148:80,1,120,8|0,0:0|0:0,0:0:0:0:
192,24,65819,1,0,0:0:0:0:
236,84,65974,2,0,B|256:156,1,60
328,140,66283,2,0,B|308:72,1,60
328,8,66592,2,0,B|368:12|384:44|384:44|404:104,1,120,8|0,0:0|0:0,0:0:0:0:
424,240,67211,6,0,B|380:296|304:268,1,120
260,224,67675,1,0,0:0:0:0:
188,244,67829,2,0,B|128:212|64:260,1,120,8|0,0:0|0:0,0:0:0:0:
16,300,68293,1,0,0:0:0:0:
240,304,68602,1,0,0:0:0:0:
260,224,68757,2,0,B|264:152,1,60
192,96,69066,2,0,B|188:172,1,60,8|0,0:0|0:0,0:0:0:0:
276,76,69376,2,0,B|280:4,1,60
204,16,69685,6,0,B|152:16|152:16|132:36|132:36|88:36,1,120,4|0,0:0|0:0,0:0:0:0:
32,84,70149,1,0,0:0:0:0:
100,116,70303,2,0,B|96:240,1,120,8|0,0:0|0:0,0:0:0:0:
152,288,70767,1,0,0:0:0:0:
212,240,70922,2,0,B|336:240,2,120,0|0|8,0:0|0:0|0:0,0:0:0:0:
152,288,71695,1,0,0:0:0:0:
88,248,71850,1,0,0:0:0:0:
112,176,72004,1,0,0:0:0:0:
188,168,72159,6,0,B|216:116|196:36,1,120,4|0,0:0|0:0,0:0:0:0:
264,12,72623,1,0,0:0:0:0:
316,64,72778,2,0,B|388:72|432:36,1,120,8|0,0:0|0:0,0:0:0:0:
460,108,73242,2,0,B|484:160|484:160|464:220,1,120
396,248,73705,2,0,B|336:220|264:236,1,120,0|8,0:0|0:0,0:0:0:0:
208,260,74169,1,0,0:0:0:0:
140,228,74324,2,0,B|104:232|72:216,1,60
112,152,74633,6,0,B|236:136,1,120,4|0,0:0|0:0,0:0:0:0:
300,168,75097,1,0,0:0:0:0:
372,184,75252,2,0,B|372:144|372:144|360:112|360:112|360:48,1,120,8|0,0:0|0:0,0:0:0:0:
432,84,75716,1,0,0:0:0:0:
444,156,75870,2,0,B|444:236,1,60
384,260,76180,2,0,B|336:260|336:260|312:252|312:252|256:252,2,120,0|8|0,0:0|0:0|0:0,0:0:0:0:
252,328,77108,6,0,B|192:352|124:296,1,120,4|0,0:0|0:0,0:0:0:0:
92,248,77571,1,0,0:0:0:0:
132,184,77726,2,0,B|144:152|140:116,1,60,8|0,0:0|0:0,0:0:0:0:
64,124,78035,2,0,B|52:156|56:192,1,60,8|8,0:0|0:0,0:0:0:0:
92,248,78345,2,0,B|100:328,1,60
172,316,78654,2,0,B|164:236,1,60
132,184,78963,1,0,0:0:0:0:
124,108,79118,1,0,0:0:0:0:
172,48,79272,1,0,0:0:0:0:
248,56,79427,1,0,0:0:0:0:
284,124,79582,6,0,B|352:152|420:96,1,120,4|0,0:0|0:0,0:0:0:0:
444,52,80046,1,0,0:0:0:0:
484,116,80200,2,0,B|508:184|472:248,1,120,8|0,0:0|0:0,0:0:0:0:
432,292,80664,1,0,0:0:0:0:
372,248,80819,2,0,P|352:180|368:120,1,120
316,72,81283,1,0,0:0:0:0:
248,36,81437,2,0,B|120:44,1,120,8|0,0:0|0:0,0:0:0:0:
52,172,82056,6,0,B|20:116|36:44,1,120
96,16,82520,1,0,0:0:0:0:
168,36,82675,2,0,B|200:92|184:164,1,120,8|0,0:0|0:0,0:0:0:0:
172,224,83138,1,0,0:0:0:0:
312,280,83448,1,0,0:0:0:0:
380,296,83602,1,0,0:0:0:0:
420,232,83757,1,0,0:0:0:0:
388,160,83912,2,0,B|372:128|384:96,1,60,8|0,0:0|0:0,0:0:0:0:
448,64,84221,2,0,B|464:96|452:128,1,60,0|0,0:0|0:0,0:0:0:0:
376,24,84530,6,0,B|316:0|248:28,1,120,4|0,0:0|0:0,0:0:0:0:
192,60,84994,1,0,0:0:0:0:
212,132,85149,2,0,B|204:268,1,120,8|0,0:0|0:0,0:0:0:0:
248,312,85613,1,0,0:0:0:0:
280,244,85767,2,0,B|288:116,1,120
320,56,86231,1,0,0:0:0:0:
363,116,86386,2,0,B|356:236,1,120,8|0,0:0|0:0,0:0:0:0:
484,316,87004,6,0,P|380:348|356:340,1,120
304,324,87468,1,0,0:0:0:0:
236,292,87623,2,0,B|176:276|108:288,1,120,8|0,0:0|0:0,0:0:0:0:
56,244,88087,2,0,B|68:112,1,120,0|8,0:0|0:0,0:0:0:0:
124,80,88551,1,0,0:0:0:0:
168,144,88705,1,0,0:0:0:0:
236,116,88860,2,0,B|304:104,1,60,8|0,0:0|0:0,0:0:0:0:
300,180,89169,2,0,B|224:192,1,60,8|8,0:0|0:0,0:0:0:0:
176,224,89479,6,0,B|152:280|176:344,1,120,4|0,0:0|0:0,0:0:0:0:
337,341,90097,2,0,B|360:280|336:224,1,120,8|0,0:0|0:0,0:0:0:0:
408,200,90561,2,0,B|416:76,1,120
344,100,91025,2,0,B|340:176,1,60
268,176,91334,2,0,B|276:56,1,120,8|0,0:0|0:0,0:0:0:0:
132,104,91953,6,0,B|148:248,1,120
216,248,92417,1,0,0:0:0:0:
288,236,92571,2,0,B|348:200|408:236,1,120,8|0,0:0|0:0,0:0:0:0:
260,308,93190,2,0,B|200:280|212:200,1,120
272,164,93654,1,0,0:0:0:0:
344,144,93809,2,0,B|396:144|396:144|424:136|424:136|480:136,1,120,8|0,0:0|0:0,0:0:0:0:
324,216,94427,6,0,B|256:192|260:112,1,120,4|0,0:0|0:0,0:0:0:0:
212,68,94891,1,0,0:0:0:0:
184,140,95046,2,0,B|176:204|192:260,1,120,8|0,0:0|0:0,0:0:0:0:
264,276,95510,2,0,B|408:264,1,120,0|8,0:0|0:0,0:0:0:0:
364,340,95974,2,0,B|300:344,1,60
228,348,96283,1,8,0:0:0:0:
92,288,96592,1,0,0:0:0:0:
120,220,96747,1,0,0:0:0:0:
88,152,96901,6,0,B|132:108|200:120,1,120
264,160,97365,2,0,B|248:208,2,30,0|0|8,0:0|0:0|0:0,0:0:0:0:
320,108,97675,1,8,0:0:0:0:
372,160,97829,1,8,0:0:0:0:
324,216,97984,1,0,0:0:0:0:
264,260,98138,6,0,B|260:292|272:332,1,60
340,348,98448,2,0,B|344:316|332:276,1,60
324,216,98757,1,0,0:0:0:0:
256,180,98912,1,0,0:0:0:0:
192,216,99066,2,0,B|120:216,1,60
60,188,99376,1,4,0:0:0:0:
256,192,99530,12,4,101850,0:0:0:0:
192,156,109272,6,0,B|164:104|176:60|176:60|204:76,1,120
256,116,109736,1,0,0:0:0:0:
320,156,109891,2,0,B|348:104|336:60|336:60|308:76,1,120,8|0,0:0|0:0,0:0:0:0:
256,116,110355,1,0,0:0:0:0:
204,172,110510,2,0,B|192:204|208:236,1,60
306,230,110819,2,0,B|320:204|308:172,1,60
256,116,111128,2,0,B|220:92|168:96|136:128|136:128,1,120,8|0,0:0|0:0,0:0:0:0:
148,272,111747,6,0,B|141:266|173:298|225:302|261:278,1,120,4|0,0:0|0:0,0:0:0:0:
312,224,112211,1,0,0:0:0:0:
372,268,112365,2,0,B|416:248|456:252|492:288,1,120,8|0,0:0|0:0,0:0:0:0:
424,328,112829,1,0,0:0:0:0:
348,340,112984,2,0,B|308:332|300:284,1,60
312,224,113293,2,0,B|328:196|368:188,1,60
432,200,113602,2,0,B|424:72,1,120,8|0,0:0|0:0,0:0:0:0:
284,132,114221,6,0,B|212:144|160:92,1,120,4|0,0:0|0:0,0:0:0:0:
116,52,114685,1,0,0:0:0:0:
68,108,114839,2,0,B|44:164|68:232,1,120,8|0,0:0|0:0,0:0:0:0:
120,276,115303,1,0,0:0:0:0:
184,236,115458,2,0,B|228:236|228:236|256:260|256:260|296:260,2,120,0|0|8,0:0|0:0|0:0,0:0:0:0:
316,168,116386,1,0,0:0:0:0:
376,124,116541,1,0,0:0:0:0:
444,156,116695,6,0,B|488:200|476:272,1,120,4|0,0:0|0:0,0:0:0:0:
420,316,117159,1,0,0:0:0:0:
348,296,117314,2,0,B|288:292,1,60,8|0,0:0|0:0,0:0:0:0:
240,216,117623,2,0,B|320:220,1,60
192,280,117932,2,0,B|144:240|164:164,1,120
232,140,118396,1,0,0:0:0:0:
304,156,118551,2,0,B|348:104|328:28,1,120,8|0,0:0|0:0,0:0:0:0:
256,32,119015,1,0,0:0:0:0:
180,43,119169,6,0,B|164:104|208:156,1,120,4|0,0:0|0:0,0:0:0:0:
256,212,119633,1,0,0:0:0:0:
300,272,119788,2,0,B|312:312|296:344,1,60,8|0,0:0|0:0,0:0:0:0:
210,331,120097,2,0,B|200:312|212:272,1,60,0|0,0:0|0:0,0:0:0:0:
256,212,120407,2,0,B|320:192|320:192|376:228,1,120
416,276,120870,1,0,0:0:0:0:
488,296,121025,2,0,B|488:248|488:248|472:224|472:224|472:176,1,120,8|8,0:0|0:0,0:0:0:0:
408,140,121489,1,8,0:0:0:0:
44,232,126437,5,0,0:0:0:0:
44,232,126515,1,0,0:0:0:0:
44,232,126592,2,0,B|96:256|160:216,1,120
212,268,127056,1,0,0:0:0:0:
252,204,127211,2,0,B|312:176|380:220,1,120,8|0,0:0|0:0,0:0:0:0:
424,260,127675,1,0,0:0:0:0:
496,244,127829,2,0,B|508:120,1,120
384,40,128448,2,0,B|320:60|296:120|328:192,1,180,8|0,0:0|0:0,0:0:0:0:
364,252,129066,6,0,B|360:376,1,120
292,340,129530,1,0,0:0:0:0:
236,292,129685,2,0,B|240:152,1,120,8|0,0:0|0:0,0:0:0:0:
176,128,130149,2,0,B|124:64|76:64|76:64|64:132,1,180
64,272,130922,2,0,B|120:300|184:260,1,120,8|0,0:0|0:0,0:0:0:0:
228,208,131386,1,0,0:0:0:0:
288,252,131541,6,0,B|316:312|288:376,1,120
220,352,132004,1,0,0:0:0:0:
160,308,132159,2,0,B|104:280|40:296,1,120,8|0,0:0|0:0,0:0:0:0:
32,220,132623,2,0,P|100:200|128:156,1,120
52,140,133087,1,0,0:0:0:0:
192,188,133396,1,8,0:0:0:0:
256,52,133705,1,0,0:0:0:0:
368,152,134015,6,0,B|436:136|440:64,1,120
352,64,134479,1,0,0:0:0:0:
280,124,134633,2,0,B|280:172|280:172|300:192|300:192|300:252,1,120,8|0,0:0|0:0,0:0:0:0:
224,232,135097,2,0,B|168:248|100:224|84:136,1,180
236,144,135870,1,8,0:0:0:0:
356,236,136180,1,0,0:0:0:0:
228,312,136489,6,0,B|184:312|184:312|160:304|160:304|92:304,1,120
124,376,136953,1,0,0:0:0:0:
52,360,137108,2,0,B|24:304|36:236,1,120,8|0,0:0|0:0,0:0:0:0:
104,212,137571,2,0,B|192:192|192:192|248:112,1,180
388,164,138345,2,0,B|392:288,1,120,8|0,0:0|0:0,0:0:0:0:
328,324,138809,1,0,0:0:0:0:
284,264,138963,6,0,B|144:260,1,120
100,300,139427,1,0,0:0:0:0:
64,232,139582,2,0,B|64:180|64:180|52:160|52:160|52:104,1,120,8|0,0:0|0:0,0:0:0:0:
128,120,140046,2,0,B|184:80|256:80|300:124,1,180
384,240,140819,1,8,0:0:0:0:
176,324,141437,6,0,B|112:320|76:256,1,120,4|0,0:0|0:0,0:0:0:0:
128,204,141901,1,0,0:0:0:0:
88,140,142056,1,0,0:0:0:0:
156,104,142211,2,0,B|288:92,1,120
312,160,142675,2,0,B|188:172,1,120
128,204,143138,1,0,0:0:0:0:
484,328,143912,6,0,B|496:200,1,120,2|0,0:0|0:0,0:0:0:0:
436,164,144376,1,0,0:0:0:0:
372,204,144530,2,0,B|288:212,1,60
272,144,144839,2,0,B|296:72,1,60
364,76,145149,2,0,B|396:144,1,60
372,204,145458,1,0,0:0:0:0:
344,276,145613,2,0,B|216:284,1,120
160,244,146077,1,0,0:0:0:0:
196,180,146231,1,0,0:0:0:0:
136,136,146386,6,0,B|12:112,1,120,2|0,0:0|0:0,0:0:0:0:
16,188,146850,1,0,0:0:0:0:
68,240,147004,2,0,B|88:308|64:360,1,120
212,332,147623,2,0,B|336:324,1,120
396,288,148087,1,0,0:0:0:0:
80,88,148860,6,0,B|56:148|72:216,1,120,2|0,0:0|0:0,0:0:0:0:
124,260,149324,1,0,0:0:0:0:
184,216,149479,1,0,0:0:0:0:
232,272,149633,2,0,B|364:268,1,120
404,216,150097,2,0,B|440:160|432:96,1,120
340,72,150561,2,0,B|304:120|312:192,1,120
328,268,151025,1,0,0:0:0:0:
328,268,151180,1,0,0:0:0:0:
280,324,151334,6,0,B|176:340|132:224,1,180,4|0,0:0|0:0,0:0:0:0:
168,168,151953,2,0,B|160:36,1,120,4|8,0:0|0:0,0:0:0:0:
280,160,152571,2,0,B|352:184|412:132,1,120,4|0,0:0|0:0,0:0:0:0:
432,80,153035,1,0,0:0:0:0:
488,152,153190,2,0,B|496:188|488:224,1,60
416,276,153499,2,0,B|404:236|420:200,1,60
496,288,153809,6,0,B|492:332|460:368|400:360,1,120,4|0,0:0|0:0,0:0:0:0:
352,320,154272,1,0,0:0:0:0:
292,272,154427,2,0,B|168:260,1,120,4|8,0:0|0:0,0:0:0:0:
32,316,155046,2,0,B|8:248|24:188,1,120,0|4,0:0|0:0,0:0:0:0:
88,160,155510,2,0,B|220:148,1,120
264,216,155974,2,0,B|232:236|192:224,1,60
336,172,156283,6,0,B|400:144|472:160,1,120,4|0,0:0|0:0,0:0:0:0:
484,224,156747,1,0,0:0:0:0:
412,236,156901,2,0,B|412:280|412:280|424:312|424:312|424:360,1,120,4|8,0:0|0:0,0:0:0:0:
280,308,157520,2,0,B|220:280|152:300,1,120,0|4,0:0|0:0,0:0:0:0:
92,324,157984,1,0,0:0:0:0:
32,280,158138,1,0,0:0:0:0:
24,204,158293,1,0,0:0:0:0:
84,156,158448,2,0,B|132:116,1,60,0|4,0:0|0:0,0:0:0:0:
205,129,158757,5,0,0:0:0:0:
256,188,158912,1,0,0:0:0:0:
304,128,159066,1,0,0:0:0:0:
256,72,159221,1,4,0:0:0:0:
324,280,161231,6,0,B|380:252|388:184,1,120,4|0,0:0|0:0,0:0:0:0:
192,56,161850,2,0,B|172:120|196:196,1,120,0|4,0:0|0:0,0:0:0:0:
321,174,162468,2,0,B|340:120|320:56,1,120
124,184,163087,2,0,B|132:252|188:280,1,120,4|0,0:0|0:0,0:0:0:0:
328,232,163705,6,0,B|348:168|348:168|332:104,1,120,4|0,0:0|0:0,0:0:0:0:
268,80,164169,1,0,0:0:0:0:
208,128,164324,2,0,B|144:140|84:104,1,120,0|4,0:0|0:0,0:0:0:0:
60,256,164943,1,0,0:0:0:0:
128,220,165097,2,0,B|196:216,1,60
244,268,165407,1,0,0:0:0:0:
296,212,165561,2,0,B|340:252|336:328,1,120
175,320,166180,6,0,B|172:252|216:212,1,120,4|0,0:0|0:0,0:0:0:0:
256,148,166644,1,4,0:0:0:0:
324,116,166798,2,0,B|460:108,1,120
428,260,167417,2,0,B|296:272,1,120
120,192,168035,2,0,B|260:176,1,120
216,328,168654,6,0,B|20:352,1,180,0|4,0:0|0:0,0:0:0:0:
4,284,169272,1,0,0:0:0:0:
88,160,169582,1,0,0:0:0:0:
224,220,169891,2,0,B|304:160|288:48,1,180
216,40,170510,2,0,B|88:28,1,120
100,296,171128,6,0,B|188:328|188:328|280:280,1,180,4|0,0:0|0:0,0:0:0:0:
280,364,171747,2,0,B|392:304,1,120,0|0,0:0|0:0,0:0:0:0:
312,176,172365,2,0,B|196:240,1,120
356,240,172984,1,0,0:0:0:0:
420,200,173138,1,0,0:0:0:0:
428,124,173293,1,0,0:0:0:0:
380,68,173448,1,0,0:0:0:0:
312,104,173602,6,0,B|244:116|180:88,1,120,4|0,0:0|0:0,0:0:0:0:
132,52,174066,1,0,0:0:0:0:
112,124,174221,2,0,B|92:252,1,120,0|4,0:0|0:0,0:0:0:0:
212,336,174839,2,0,B|224:264,1,60
276,224,175149,1,4,0:0:0:0:
416,168,175458,2,0,B|396:304,1,120,0|4,0:0|0:0,0:0:0:0:
276,224,176077,6,0,B|240:176|172:160|108:184,1,180,4|0,0:0|0:0,0:0:0:0:
48,224,176695,2,0,B|32:80,1,120,0|4,0:0|0:0,0:0:0:0:
184,88,177314,2,0,B|220:40|288:24|352:48,1,180,4|0,0:0|0:0,0:0:0:0:
396,104,177932,2,0,B|388:236,1,120
240,240,178551,6,0,B|176:240|176:240|136:224|136:224|44:224,1,180,4|0,0:0|0:0,0:0:0:0:
88,152,179169,2,0,B|96:20,1,120,0|4,0:0|0:0,0:0:0:0:
256,96,179788,1,0,0:0:0:0:
404,356,180407,1,0,0:0:0:0:
256,260,180716,1,0,0:0:0:0:
104,360,181025,6,0,B|48:316|56:244,1,120,4|0,0:0|0:0,0:0:0:0:
108,204,181489,1,0,0:0:0:0:
184,208,181644,2,0,B|252:224|304:180,1,120,8|0,0:0|0:0,0:0:0:0:
348,132,182108,1,0,0:0:0:0:
404,180,182262,2,0,B|400:316,1,120,0|0,0:0|0:0,0:0:0:0:
328,280,182726,1,0,0:0:0:0:
256,252,182881,2,0,B|184:248,1,60,8|0,0:0|0:0,0:0:0:0:
172,320,183190,2,0,B|248:324,1,60
304,348,183499,6,0,B|356:312|344:220,1,120,4|0,0:0|0:0,0:0:0:0:
296,184,183963,1,0,0:0:0:0:
236,136,184118,2,0,B|240:8,1,120,8|0,0:0|0:0,0:0:0:0:
164,24,184582,1,0,0:0:0:0:
160,100,184736,2,0,B|156:184,1,60
80,224,185046,2,0,B|84:152,1,60
160,236,185355,2,0,B|212:236|212:236|236:224|236:224|292:224,1,120,8|0,0:0|0:0,0:0:0:0:
388,324,185974,6,0,B|440:284|432:204,1,120,4|0,0:0|0:0,0:0:0:0:
372,172,186437,1,0,0:0:0:0:
316,120,186592,2,0,B|268:132|236:108|196:118,1,120,8|0,0:0|0:0,0:0:0:0:
148,172,187056,2,0,L|156:48,1,120
216,8,187520,1,0,0:0:0:0:
352,68,187829,1,8,0:0:0:0:
348,216,188138,1,0,0:0:0:0:
204,300,188448,6,0,B|140:328|72:292,1,120
112,228,188912,1,0,0:0:0:0:
88,156,189066,2,0,B|64:36,1,120,8|0,0:0|0:0,0:0:0:0:
140,52,189530,2,0,B|200:68|268:36,1,120,0|8,0:0|0:0,0:0:0:0:
294,108,189994,2,0,B|304:168,1,60,8|0,0:0|0:0,0:0:0:0:
208,168,190303,2,0,B|220:92,1,60,8|0,0:0|0:0,0:0:0:0:
256,224,190613,2,0,B|256:292,1,60,8|8,0:0|0:0,0:0:0:0:
324,316,190922,6,0,B|312:364|256:384|196:364|184:312,1,180,4|0,0:0|0:0,0:0:0:0:
168,244,191541,2,0,B|192:176|160:104,1,120,8|0,0:0|0:0,0:0:0:0:
96,140,192004,1,0,0:0:0:0:
28,168,192159,2,0,B|-8:104|20:40,1,120
92,56,192623,1,0,0:0:0:0:
160,84,192778,2,0,B|232:68,1,60,8|0,0:0|0:0,0:0:0:0:
268,128,193087,2,0,B|264:196,1,60
192,212,193396,6,0,B|204:336,1,120,4|0,0:0|0:0,0:0:0:0:
280,324,193860,1,0,0:0:0:0:
352,348,194015,2,0,B|420:324|432:240,1,120,8|0,0:0|0:0,0:0:0:0:
456,192,194479,1,0,0:0:0:0:
424,124,194633,2,0,B|416:-8,1,120
336,132,195252,2,0,B|332:48,1,60,8|0,0:0|0:0,0:0:0:0:
260,48,195561,2,0,P|216:36|192:32,1,60
140,76,195870,6,0,B|116:132|148:208,1,120,4|0,0:0|0:0,0:0:0:0:
156,280,196334,1,0,0:0:0:0:
224,248,196489,2,0,B|280:208|348:268,1,120,8|0,0:0|0:0,0:0:0:0:
380,196,196953,2,0,B|328:144|360:68,2,120
456,200,197726,2,0,B|508:148|476:72,1,120,8|0,0:0|0:0,0:0:0:0:
332,68,198345,6,0,B|248:60,1,60
244,132,198654,2,0,B|312:140,1,60
364,184,198963,1,8,0:0:0:0:
256,288,199272,1,0,0:0:0:0:
184,272,199427,2,0,B|116:240|120:164,1,120,0|8,0:0|0:0,0:0:0:0:
36,228,199891,2,0,B|32:292,1,60
108,360,200200,2,0,B|112:288,1,60,8|0,0:0|0:0,0:0:0:0:
28,372,200510,1,0,0:0:0:0:
28,372,200664,1,0,0:0:0:0:
28,372,200819,5,0,0:0:0:0:
132,264,201128,1,0,0:0:0:0:
204,240,201283,2,0,B|272:236,1,60
420,280,201747,2,0,B|460:220|420:148,1,120
292,92,202365,2,0,B|252:152|292:224,1,120
428,164,202984,1,0,0:0:0:0:
364,28,203293,6,0,B|304:-8|244:16|244:16|204:84,1,180,4|0,0:0|0:0,0:0:0:0:
148,100,203912,2,0,B|140:224,1,120
272,292,204530,2,0,B|264:228,1,60
356,196,204839,2,0,B|352:268,1,60
444,228,205149,2,0,B|428:96,1,120
284,80,205767,6,0,B|228:48|168:60|168:60|156:88|104:104,1,180,4|0,0:0|0:0,0:0:0:0:
92,28,206386,2,0,B|56:32|40:64|32:108|52:136,1,120
112,256,207004,1,0,0:0:0:0:
168,308,207159,1,0,0:0:0:0:
188,236,207314,2,0,B|256:228,1,60
268,156,207623,2,0,B|140:172,1,120
256,64,208242,5,0,0:0:0:0:
332,72,208396,1,0,0:0:0:0:
372,136,208551,1,0,0:0:0:0:
340,204,208705,1,0,0:0:0:0:
268,232,208860,2,0,B|232:288|272:360,1,120
416,356,209479,2,0,B|452:300|412:228,1,120
336,116,210097,1,0,0:0:0:0:
256,252,219685,6,0,B|256:128,1,116.999994644165,0|2,2:0|2:0,0:0:0:0:
308,320,220613,6,0,B|256:348|256:348|200:320,1,120,4|0,0:0|0:0,0:0:0:0:
144,272,221077,1,0,0:0:0:0:
172,204,221231,2,0,B|196:136|180:76,1,120,8|0,0:0|0:0,0:0:0:0:
256,68,221695,2,0,B|256:200,2,120
329,85,222468,2,0,B|316:136|340:204,1,120,8|0,0:0|0:0,0:0:0:0:
368,272,222932,1,0,0:0:0:0:
320,332,223087,6,0,B|268:332|268:332|244:324|244:324|196:320,1,120
128,336,223551,1,0,0:0:0:0:
72,284,223705,2,0,B|52:252|64:212,1,60,8|0,0:0|0:0,0:0:0:0:
136,236,224015,1,8,0:0:0:0:
124,164,224169,2,0,B|160:160|192:172|212:208|208:252,1,120
284,220,224633,2,0,B|424:216,1,120,0|8,0:0|0:0,0:0:0:0:
448,156,225097,1,0,0:0:0:0:
380,120,225252,2,0,B|380:72|380:72|392:48|392:48|392:-4,1,120,0|4,0:0|0:0,0:0:0:0:
276,96,225870,5,0,0:0:0:0:
204,120,226025,1,0,0:0:0:0:
132,100,226180,2,0,B|68:72|4:104,1,120,8|0,0:0|0:0,0:0:0:0:
40,168,226644,1,0,0:0:0:0:
8,236,226798,2,0,P|4:288|12:360,1,120
144,284,227417,2,0,B|208:260|264:284,1,120,8|0,0:0|0:0,0:0:0:0:
328,320,227881,1,0,0:0:0:0:
392,360,228035,6,0,B|424:296|396:232,1,120,0|0,0:0|0:0,0:0:0:0:
340,200,228499,1,0,0:0:0:0:
280,152,228654,2,0,B|264:116|276:80,1,60,8|0,0:0|0:0,0:0:0:0:
324,40,228963,1,8,0:0:0:0:
352,112,229118,2,0,B|368:152|364:188|340:216|304:224,1,120
244,220,229582,2,0,B|172:212,1,60
120,304,229891,2,0,B|200:292,1,60,8|0,0:0|0:0,0:0:0:0:
248,384,230200,2,0,B|172:372,1,60
320,336,230510,6,0,B|452:328,1,120,4|0,0:0|0:0,0:0:0:0:
432,256,230974,1,0,0:0:0:0:
356,260,231128,2,0,B|304:260|304:260|280:268|280:268|224:268,1,120,8|0,0:0|0:0,0:0:0:0:
240,192,231592,1,0,0:0:0:0:
312,172,231747,2,0,B|340:120|320:48,1,120
172,32,232365,2,0,B|144:84|164:156,1,120,8|0,0:0|0:0,0:0:0:0:
216,200,232829,1,0,0:0:0:0:
240,272,232984,6,0,B|209:326|133:306,1,120,0|0,0:0|0:0,0:0:0:0:
88,248,233448,1,0,0:0:0:0:
128,184,233602,2,0,B|136:112,2,60,8|0|8,0:0|0:0|0:0,0:0:0:0:
56,160,234066,2,0,B|72:40,1,120
148,56,234530,2,0,B|272:48,1,120,0|8,0:0|0:0,0:0:0:0:
216,132,234994,2,0,B|352:120,1,120
396,168,235458,6,0,B|420:224|420:224|400:288,1,120,4|0,0:0|0:0,0:0:0:0:
328,268,235922,1,0,0:0:0:0:
260,236,236077,2,0,B|192:216|132:264,1,120,8|0,0:0|0:0,0:0:0:0:
84,296,236541,1,0,0:0:0:0:
44,232,236695,2,0,B|36:104,1,120
184,128,237314,1,8,0:0:0:0:
256,148,237468,1,0,0:0:0:0:
240,76,237623,1,0,0:0:0:0:
368,156,237932,6,0,B|392:220|372:288,1,120,4|0,0:0|0:0,0:0:0:0:
312,312,238396,1,0,0:0:0:0:
248,276,238551,2,0,B|180:252,1,60,8|0,0:0|0:0,0:0:0:0:
128,292,238860,1,0,0:0:0:0:
128,292,239015,1,8,0:0:0:0:
108,220,239169,2,0,B|104:140,1,60,8|0,0:0|0:0,0:0:0:0:
156,104,239479,1,8,0:0:0:0:
156,104,239633,1,0,0:0:0:0:
220,144,239788,2,0,B|284:136,1,60,8|8,0:0|0:0,0:0:0:0:
320,224,240097,2,8,B|252:232,1,60
364,148,240407,6,0,B|412:192|400:268,1,120,4|0,0:0|0:0,0:0:0:0:
332,280,240870,1,0,0:0:0:0:
264,316,241025,2,0,B|228:312|196:320,1,60,8|0,0:0|0:0,0:0:0:0:
132,292,241334,2,0,B|104:264|104:224,1,60
92,164,241644,2,0,B|132:148|164:172|180:192|184:228,1,120
256,208,242108,1,0,0:0:0:0:
329,217,242262,2,0,B|332:192|348:172|380:148|420:164,1,120,8|0,0:0|0:0,0:0:0:0:
408,236,242726,1,0,0:0:0:0:
356,288,242881,6,0,B|300:288|300:288|276:280|276:280|224:280,1,120
184,336,243345,1,0,0:0:0:0:
160,264,243499,2,0,B|152:188,1,60,8|0,0:0|0:0,0:0:0:0:
224,144,243809,2,0,B|232:212,1,60
304,188,244118,2,0,B|380:188,1,60
428,144,244427,1,0,0:0:0:0:
428,144,244582,1,0,0:0:0:0:
484,192,244736,2,0,B|512:168|512:128|496:88|456:76,1,120,8|0,0:0|0:0,0:0:0:0:
428,144,245200,1,0,0:0:0:0:
368,188,245355,6,0,B|228:188,1,120,4|0,0:0|0:0,0:0:0:0:
176,172,245819,1,0,0:0:0:0:
112,208,245974,2,0,B|72:156|96:80,1,120,8|0,0:0|0:0,0:0:0:0:
156,52,246437,1,0,0:0:0:0:
220,88,246592,2,0,B|280:112|344:80,1,120
404,52,247056,1,0,0:0:0:0:
432,124,247211,2,0,B|440:188,1,60,8|0,0:0|0:0,0:0:0:0:
364,256,247520,2,0,B|356:188,1,60
448,260,247829,6,0,B|460:388,1,120
388,356,248293,1,0,0:0:0:0:
320,328,248448,2,0,B|276:328|276:328|252:316|252:316|202:316,1,120,8|0,0:0|0:0,0:0:0:0:
144,272,248912,1,0,0:0:0:0:
196,216,249066,2,0,B|212:180|200:144,1,60
140,116,249376,2,0,B|124:152|136:188,1,60
76,224,249685,2,0,B|40:232|12:220,1,60,8|0,0:0|0:0,0:0:0:0:
44,152,249994,1,8,0:0:0:0:
44,152,250149,1,8,0:0:0:0:
100,104,250303,6,0,B|240:100,1,120,4|0,0:0|0:0,0:0:0:0:
284,60,250767,1,0,0:0:0:0:
328,124,250922,2,0,B|356:192|332:256,1,120,8|0,0:0|0:0,0:0:0:0:
272,276,251386,2,0,B|184:256|184:256|84:284,1,180
44,140,252159,2,0,B|180:104,1,120,8|0,0:0|0:0,0:0:0:0:
292,184,252778,6,0,B|380:204|380:204|480:176,1,180
436,112,253396,2,0,B|376:128,1,60,8|0,0:0|0:0,0:0:0:0:
320,80,253705,2,0,B|240:56,1,60
196,100,254015,2,0,B|164:160|200:232,1,120
260,244,254479,1,0,0:0:0:0:
328,216,254633,2,0,B|452:212,1,120,8|0,0:0|0:0,0:0:0:0:
324,300,255252,6,0,B|264:276|264:276|244:208,1,120,4|0,0:0|0:0,0:0:0:0:
272,152,255716,1,0,0:0:0:0:
200,164,255870,2,0,B|152:164|152:164|132:152|132:152|80:152,1,120,8|0,0:0|0:0,0:0:0:0:
96,228,256334,2,0,B|88:356,1,120
164,336,256798,2,0,B|168:272,1,60
236,244,257108,1,8,0:0:0:0:
376,292,257417,2,0,B|456:284,1,60,0|8,0:0|0:0,0:0:0:0:
480,224,257726,1,0,0:0:0:0:
256,192,257881,12,4,260200,0:0:0:0:
