osu file format v12

[General]
AudioFilename: Bios MK+nZk Version.mp3
AudioLeadIn: 1625
PreviewTime: 111771
Countdown: 0
SampleSet: Soft
StackLeniency: 0.4
Mode: 0
LetterboxInBreaks: 0
WidescreenStoryboard: 0

[Editor]
DistanceSpacing: 1.1
BeatDivisor: 4
GridSize: 4

[Metadata]
Title:Bios (MK + nZK ver.)
TitleUnicode:βios (MK + nZK ver.)
Artist:Mika Kobayashi
ArtistUnicode:小林美香
Creator:meiikyuu
Version:Insane
Source:Guilty Crown
Tags:nyquill theme songs collection hiroyuki sawano
BeatmapID:164713
BeatmapSetID:54123

[Difficulty]
HPDrainRate:7
CircleSize:4
OverallDifficulty:7
ApproachRate:9
SliderMultiplier:1.6
SliderTickRate:1

[Events]
//Background and Video events
0,0,"meii biosbg.jpg",0,0
//Break Periods
2,10503,18672
2,102050,110219
2,121843,125837
2,210916,219085
//Storyboard Layer 0 (Background)
//Storyboard Layer 1 (Fail)
//Storyboard Layer 2 (Pass)
//Storyboard Layer 3 (Foreground)
//Storyboard Sound Samples
//Background Colour Transformations
3,100,163,162,255

[TimingPoints]
407,309.278350515464,4,2,1,35,1,0
10303,-100,4,2,0,20,0,0
19272,-100,4,2,1,35,0,0
19582,-100,4,1,1,35,0,0
19891,-100,4,1,1,20,0,0
20200,-100,4,2,1,50,0,0
22056,-100,4,1,1,50,0,0
22133,-100,4,2,1,50,0,0
23138,-100,4,1,1,50,0,0
23216,-100,4,2,1,50,0,0
24530,-100,4,1,1,50,0,0
24608,-100,4,2,1,50,0,0
27004,-100,4,1,1,50,0,0
27082,-100,4,2,1,50,0,0
28087,-100,4,1,1,50,0,0
28164,-100,4,2,1,50,0,0
29479,-100,4,1,1,50,0,0
29556,-100,4,2,1,50,0,0
30561,-100,4,1,1,50,0,0
30638,-100,4,2,1,50,0,0
31953,-100,4,1,1,50,0,0
32030,-100,4,2,1,50,0,0
33035,-100,4,1,1,50,0,0
33113,-100,4,2,1,50,0,0
34427,-100,4,1,1,50,0,0
34504,-100,4,2,1,50,0,0
36901,-100,4,1,1,50,0,0
36979,-100,4,2,1,50,0,0
37984,-100,4,1,1,50,0,0
38061,-100,4,2,1,50,0,0
58396,-100,4,1,1,50,0,0
59788,-100,4,1,1,60,0,1
99376,-100,4,1,1,50,0,0
110819,-100,4,1,1,60,0,0
121644,-100,4,2,1,10,0,0
126437,-100,4,2,1,40,0,0
131541,-100,4,1,1,45,0,0
141437,-133.333333333333,4,2,1,30,0,0
141901,-133.333333333333,4,2,1,10,0,0
142056,-133.333333333333,4,2,1,30,0,0
142211,-133.333333333333,4,2,1,10,0,0
142365,-133.333333333333,4,2,1,30,0,0
143138,-133.333333333333,4,2,1,10,0,0
143293,-133.333333333333,4,2,1,30,0,0
144376,-133.333333333333,4,2,1,10,0,0
144530,-133.333333333333,4,2,1,30,0,0
146541,-133.333333333333,4,2,1,10,0,0
146695,-133.333333333333,4,2,1,30,0,0
146850,-133.333333333333,4,2,1,10,0,0
147004,-133.333333333333,4,2,1,30,0,0
149015,-133.333333333333,4,2,1,10,0,0
149169,-133.333333333333,4,2,1,30,0,0
149633,-133.333333333333,4,2,1,10,0,0
149788,-133.333333333333,4,2,1,30,0,0
150407,-133.333333333333,4,2,1,25,0,0
150561,-133.333333333333,4,2,1,10,0,0
150716,-133.333333333333,4,2,1,25,0,0
150870,-133.333333333333,4,2,1,10,0,0
151025,-133.333333333333,4,2,1,25,0,0
151334,-100,4,2,2,45,0,0
161231,-100,4,1,2,40,0,0
181025,-100,4,1,1,40,0,0
200819,-100,4,1,1,30,0,0
219685,-153.846153846153,4,2,1,30,0,0
220613,-100,4,1,1,60,0,1
260200,-100,4,1,1,60,0,0

[Colours]
Combo1 : 115,255,255
Combo2 : 254,82,138
Combo3 : 0,112,223
Combo4 : 196,0,0

[HitObjects]
112,276,407,2,0,B|200:272|200:140,1,160,2|0,0:0|0:0,0:0:0:0:
200,162,870,2,0,B|200:272|288:276,1,160,2|0,0:0|0:0,0:0:0:0:
285,275,1334,2,0,B|373:271|373:139,1,160,2|0,0:0|0:0,0:0:0:0:
372,161,1798,2,0,B|458:209,1,80
416,84,2108,2,0,B|344:40,1,80,0|2,0:0|0:0,0:0:0:0:
236,76,2417,2,0,B|280:144,2,80,0|2|0,0:0|0:0|0:0,0:0:0:0:
152,104,2881,6,0,B|112:128|96:176,2,80,2|0|0,0:0|0:0|0:0,0:0:0:0:
152,104,3345,2,0,B|149:191|214:251,1,160,2|0,0:0|0:0,0:0:0:0:
209,247,3809,2,0,B|270:191|268:104,1,160,2|0,0:0|0:0,0:0:0:0:
316,248,4272,2,0,B|344:212|348:160,2,80
444,252,4736,2,0,B|453:207|434:158,1,80,2|0,0:0|0:0,0:0:0:0:
404,24,5046,2,0,B|380:64|396:104,1,80
300,100,5355,6,0,B|272:136|224:140,1,80,2|0,0:0|0:0,0:0:0:0:
148,112,5664,1,0,0:0:0:0:
104,188,5819,2,0,B|112:272|180:328,1,160,2|0,0:0|0:0,0:0:0:0:
264,324,6283,1,0,0:0:0:0:
340,284,6437,2,0,B|361:202|318:129,1,160,2|0,0:0|0:0,0:0:0:0:
260,64,6901,2,0,B|232:96|236:144,1,80
148,112,7211,2,0,B|128:196|60:256,1,160,2|0,0:0|0:0,0:0:0:0:
366,118,7829,6,0,B|366:210,1,80,2|0,0:0|0:0,0:0:0:0:
278,166,8138,2,0,B|278:82,1,80,0|2,0:0|0:0,0:0:0:0:
278,86,8448,2,0,B|190:90|138:174,1,160,0|0,0:0|0:0,0:0:0:0:
144,164,8912,2,0,B|190:238|278:242,1,160,2|0,0:0|0:0,0:0:0:0:
238,322,9376,2,0,B|190:318|142:282,1,80,0|2,0:0|0:0,0:0:0:0:
80,328,9685,2,0,B|56:284|80:232,1,80,2|0,0:0|0:0,0:0:0:0:
124,180,9994,2,0,B|148:136|124:84,1,80
212,48,10303,1,4,2:0:0:0:
256,136,19272,5,2,0:0:0:0:
352,56,19582,1,8,0:0:0:0:
396,132,19736,1,0,0:0:0:0:
352,212,19891,1,0,0:0:0:0:
256,320,20200,5,4,0:0:0:0:
72,196,20510,1,0,0:0:0:0:
72,196,20664,2,0,P|112:136|192:108,1,160,8|0,0:0|0:0,0:0:0:0:
256,172,21128,2,0,P|292:180|348:156,1,80
380,92,21437,2,0,P|416:72|472:68,2,80,0|0|0,0:0|0:0|0:0,0:0:0:0:
380,296,22056,6,0,B|332:328|288:312|288:312|224:332,1,160,0|0,0:0|0:0,0:0:0:0:
176,256,22520,1,0,0:0:0:0:
88,264,22675,2,0,B|88:160|136:100,1,160,0|0,0:0|0:0,0:0:0:0:
204,68,23138,1,0,0:0:0:0:
280,112,23293,2,0,B|304:160|304:200,1,80
364,80,23602,2,0,B|396:152|404:252,1,160,0|0,0:0|0:0,0:0:0:0:
402,234,24221,6,0,B|328:288|232:268,1,160,0|0,0:0|0:0,0:0:0:0:
284,188,24685,1,0,0:0:0:0:
200,144,24839,1,0,0:0:0:0:
164,232,24994,1,0,0:0:0:0:
72,252,25149,1,0,0:0:0:0:
16,88,25458,6,0,B|68:76|108:104,1,80,0|8,0:0|0:0,0:0:0:0:
128,176,25767,2,0,B|160:208|216:200,1,80
264,140,26077,1,0,0:0:0:0:
340,88,26231,1,0,0:0:0:0:
352,176,26386,2,0,B|328:256|328:256|356:332,1,160
420,248,26850,2,0,B|444:168,1,80
262,171,27159,2,0,B|240:248,1,80
172,304,27468,1,0,0:0:0:0:
108,240,27623,6,0,B|76:156|128:80,1,160
188,144,28087,2,0,B|184:192|240:216,1,80
284,144,28396,1,0,0:0:0:0:
304,56,28551,2,0,B|352:68|392:120|360:200,1,160
52,300,29169,2,0,B|108:320|108:320|160:264|160:264|200:260,1,160
208,344,29633,1,0,0:0:0:0:
288,304,29788,1,0,0:0:0:0:
368,344,29943,1,0,0:0:0:0:
448,304,30097,6,0,B|472:224|448:136,1,160,4|0,0:0|0:0,0:0:0:0:
450,145,30561,2,0,B|372:176|280:140,1,160
212,184,31025,1,0,0:0:0:0:
240,268,31180,1,0,0:0:0:0:
176,328,31334,1,0,0:0:0:0:
96,296,31489,1,0,0:0:0:0:
95,296,31644,6,0,B|140:226|120:142,1,160,0|0,0:0|0:0,0:0:0:0:
392,52,32262,2,0,B|372:136|424:220,1,160,0|8,0:0|0:0,0:0:0:0:
464,132,32726,1,0,0:0:0:0:
328,208,32881,5,0,0:0:0:0:
256,152,33035,2,0,B|224:200|224:200|224:268|224:268|256:312,1,160
244,295,33499,2,0,B|180:348,1,80
104,308,33809,2,0,B|80:272|92:224,1,80,0|0,0:0|1:0,0:0:0:0:
164,184,34118,2,0,B|180:136|160:88,1,80,0|0,0:0|0:0,0:0:0:0:
252,88,34427,2,0,B|332:44,1,80
336,132,34736,1,0,0:0:0:0:
288,208,34891,1,0,0:0:0:0:
368,248,35046,6,0,B|436:268|480:216|480:216|516:244,2,160
300,304,35819,1,0,0:0:0:0:
212,312,35974,2,0,P|168:296|140:272,1,80
120,188,36283,2,0,L|140:104,1,80
224,92,36592,1,0,0:0:0:0:
268,172,36747,1,0,0:0:0:0:
248,291,36901,2,0,P|268:332|296:360,1,80
380,344,37211,2,0,L|460:292,1,80
376,208,37520,6,0,B|328:292|228:292,1,160,8|0,0:0|0:0,0:0:0:0:
256,200,37984,2,0,B|172:160|180:72,1,160
276,80,38448,2,0,B|312:20|388:44|384:120,1,160,8|0,0:0|1:0,0:0:0:0:
312,188,38912,1,0,0:0:0:0:
240,240,39066,6,0,B|276:328,1,80
148,236,39376,2,0,B|148:332,1,80
56,236,39685,2,0,B|24:320,2,80,0|0|4,0:0|0:0|0:0,0:0:0:0:
240,72,40303,5,0,0:0:0:0:
308,128,40458,1,0,0:0:0:0:
236,184,40613,2,0,B|172:240,1,80
228,308,40922,1,0,0:0:0:0:
312,340,41077,1,0,0:0:0:0:
400,312,41231,2,0,B|440:244|400:156,1,160
352,84,41695,1,0,0:0:0:0:
228,308,42159,5,0,0:0:0:0:
228,308,42314,1,0,0:0:0:0:
156,260,42468,2,0,B|100:224|100:156|100:156|128:112,1,160,0|0,0:0|0:0,0:0:0:0:
184,64,42932,1,0,0:0:0:0:
272,64,43087,2,0,B|312:92|316:136,1,80
264,212,43396,2,0,B|224:184|220:140,1,80
404,112,43705,2,0,B|424:144|424:144|424:212|368:248,1,160
292,288,44169,1,0,0:0:0:0:
292,288,44633,5,0,0:0:0:0:
408,72,44943,2,0,P|363:136|368:217,1,160
448,164,45407,1,0,0:0:0:0:
292,104,45561,2,0,P|276:176|304:264,1,160
176,368,46180,2,0,P|192:296|164:208,1,160
156,120,46644,1,0,0:0:0:0:
156,120,47108,5,0,0:0:0:0:
400,68,47417,2,0,B|364:88|360:144,1,80
365,239,47726,2,0,B|412:236|432:200,1,80
292,176,48035,2,0,B|264:212|272:264,1,80
97,252,48345,2,0,B|176:236,1,80
224,148,48654,2,0,B|228:88|196:36|120:36,1,160
276,36,49118,2,0,B|308:72|308:136|308:136|376:112,1,160
420,184,49582,1,0,0:0:0:0:
448,272,49736,1,0,0:0:0:0:
360,252,49891,6,0,B|268:272|248:368,1,160,4|0,0:0|0:0,0:0:0:0:
164,336,50355,2,0,P|128:300|120:264,1,80,0|0,0:0|0:0,0:0:0:0:
124,184,50664,1,0,0:0:0:0:
124,184,50742,1,0,0:0:0:0:
124,184,50819,2,0,L|160:96,1,80
124,28,51128,5,0,0:0:0:0:
336,176,51437,2,0,L|264:104,1,80
400,112,51747,2,0,B|436:152|436:212|384:252,1,160,0|0,0:0|0:0,0:0:0:0:
92,268,52365,6,0,B|104:176|104:176|112:172|112:172|132:104,1,160
383,116,52984,2,0,B|400:172|400:172|408:176|408:176|420:268,1,160
419,267,53448,1,0,0:0:0:0:
336,240,53602,2,0,B|284:284|300:360|348:392,1,160
388,312,54066,2,0,B|212:312,1,160
172,240,54530,1,0,0:0:0:0:
172,240,54685,1,0,0:0:0:0:
240,180,54839,6,0,B|240:100,1,80,4|0,0:0|0:0,0:0:0:0:
400,252,55149,2,0,L|444:176,1,80
328,196,55458,2,0,B|345:117,2,80
316,284,55922,1,0,0:0:0:0:
252,344,56077,2,0,B|184:352|184:352|144:320|140:264,1,160
209,232,56541,2,0,L|141:273,1,80
152,160,56850,2,0,L|68:172,1,80
152,68,57159,2,0,L|64:48,1,80,0|2,0:0|0:0,0:0:0:0:
408,84,58396,5,0,0:0:0:0:
408,84,58474,1,0,0:0:0:0:
408,84,58551,1,8,0:0:0:0:
356,156,58705,1,0,0:0:0:0:
432,212,58860,2,0,B|476:145,1,80
340,236,59169,2,0,B|351:315,1,80
451,355,59479,2,0,B|440:276,1,80
356,156,59788,6,0,B|264:152|200:212,1,160,4|0,0:0|0:0,0:0:0:0:
140,272,60252,1,0,0:0:0:0:
224,300,60407,2,0,P|264:280|292:248,1,80,8|0,0:0|0:0,0:0:0:0:
216,96,60716,2,0,P|171:100|133:120,1,80,0|0,0:0|0:0,0:0:0:0:
96,192,61025,6,0,B|32:228|40:320|84:344,1,160
212,324,61489,2,0,B|256:240,1,80,0|8,0:0|0:0,0:0:0:0:
292,168,61798,1,0,0:0:0:0:
340,84,61953,2,0,B|396:120|388:200,1,120
372,232,62262,2,0,B|340:268|356:332,1,80,4|0,0:0|0:0,0:0:0:0:
428,368,62571,2,0,B|460:332|444:268,1,80
276,212,62881,6,0,P|216:256|204:336,1,160,8|0,0:0|0:0,0:0:0:0:
276,212,63345,2,0,P|232:144|156:96,1,160
104,160,63809,2,0,P|68:176|24:180,1,80
40,268,64118,2,0,P|80:312|92:332,1,80,8|0,0:0|0:0,0:0:0:0:
156,192,64427,2,0,P|132:156|124:112,1,80
216,48,64736,6,0,P|288:56|368:96,1,160,4|0,0:0|0:0,0:0:0:0:
372,200,65200,1,0,0:0:0:0:
328,296,65355,2,0,P|256:288|176:248,1,160,8|0,0:0|0:0,0:0:0:0:
180,160,65819,1,0,0:0:0:0:
100,192,65974,2,0,P|56:204|16:208,1,80
48,324,66283,2,0,P|88:352|112:380,1,80
224,344,66592,2,0,P|280:328|308:224,1,160,8|0,0:0|0:0,0:0:0:0:
204,212,67056,1,0,0:0:0:0:
160,112,67211,6,0,B|236:68|308:128,1,160,4|0,0:0|0:0,0:0:0:0:
336,212,67675,1,0,0:0:0:0:
336,212,67752,1,0,0:0:0:0:
336,212,67829,2,0,B|360:248|416:260,1,80,8|0,0:0|0:0,0:0:0:0:
296,292,68138,2,0,B|220:340,1,80
204,244,68448,2,0,B|124:212,1,80,0|0,0:0|0:0,0:0:0:0:
111,111,68757,2,0,B|184:144,1,80
152,316,69066,2,0,B|68:284,1,80,8|0,0:0|0:0,0:0:0:0:
204,244,69376,2,0,B|278:273,1,80
360,324,69685,6,0,B|400:288|400:288|376:224|408:180,1,160,4|0,0:0|0:0,0:0:0:0:
368,96,70149,1,0,0:0:0:0:
276,76,70303,2,0,L|334:21,1,80,8|0,0:0|0:0,0:0:0:0:
180,88,70613,2,0,L|112:45,1,80
236,168,70922,2,0,P|256:224|252:292,1,120
252,300,71231,2,0,L|184:368,1,80
152,272,71541,2,0,L|72:244,1,80,8|0,0:0|0:0,0:0:0:0:
152,272,71850,2,0,B|112:192|160:96,1,160,0|0,0:0|0:0,0:0:0:0:
204,48,72314,5,0,0:0:0:0:
272,104,72468,1,0,0:0:0:0:
336,44,72623,1,0,0:0:0:0:
400,104,72778,2,0,B|440:184|400:264,1,160,8|0,0:0|0:0,0:0:0:0:
344,324,73242,1,0,0:0:0:0:
332,332,73319,1,0,0:0:0:0:
320,336,73396,2,0,B|280:356|232:352,1,80
196,268,73705,2,0,B|136:328,1,80
35,304,74015,2,0,B|92:248,1,80,8|0,0:0|0:0,0:0:0:0:
148,180,74324,1,0,0:0:0:0:
196,268,74479,1,0,0:0:0:0:
285,200,74633,6,0,B|316:116|268:48,1,160
364,60,75097,1,0,0:0:0:0:
285,200,75252,2,0,B|224:284|304:356,1,160,8|0,0:0|0:0,0:0:0:0:
292,344,75716,1,0,0:0:0:0:
340,272,75870,2,0,B|436:272,1,80
440,184,76180,2,0,B|348:184,1,80
236,272,76489,2,0,B|160:304|72:292,2,160,8|0|0,0:0|0:0|0:0,0:0:0:0:
196,192,77262,6,0,B|156:208|104:204,1,80
60,128,77571,1,0,0:0:0:0:
117,204,77726,2,0,B|80:280,1,80,8|0,0:0|0:0,0:0:0:0:
148,124,78035,2,0,B|184:44,1,80
355,58,78345,2,0,B|324:132,1,80,8|0,0:0|0:0,0:0:0:0:
234,128,78654,2,0,B|268:56,1,80
412,132,78963,1,0,0:0:0:0:
432,216,79118,1,0,0:0:0:0:
396,296,79272,1,0,0:0:0:0:
320,340,79427,1,0,0:0:0:0:
232,340,79582,6,0,B|200:256|220:176,1,160,4|0,0:0|0:0,0:0:0:0:
300,212,80046,1,0,0:0:0:0:
128,272,80200,2,0,B|128:316|108:360,2,80,8|0|0,0:0|0:0|0:0,0:0:0:0:
104,188,80664,1,0,0:0:0:0:
72,104,80819,2,0,B|152:64|232:100,1,160
226,97,81283,2,0,B|268:124|320:96,1,80,0|8,0:0|0:0,0:0:0:0:
268,24,81592,1,0,0:0:0:0:
180,176,81747,1,0,0:0:0:0:
220,256,81901,1,0,0:0:0:0:
288,188,82056,6,0,B|320:224|324:280|288:320|288:320|288:348,1,160
220,256,82520,1,0,0:0:0:0:
288,188,82675,2,0,B|363:160,1,80,8|0,0:0|0:0,0:0:0:0:
395,48,82984,2,0,B|320:76,1,80
396,248,83293,2,0,B|471:220,2,80,0|0|0,0:0|0:0|0:0,0:0:0:0:
340,328,83757,1,0,0:0:0:0:
244,348,83912,2,0,B|152:344|96:284,1,160,8|0,0:0|0:0,0:0:0:0:
92,192,84376,1,0,0:0:0:0:
92,192,84530,6,0,B|88:112,1,80,4|0,0:0|0:0,0:0:0:0:
280,112,84839,2,0,B|276:192,1,80,0|0,0:0|0:0,0:0:0:0:
184,220,85149,2,0,B|184:56,1,160,8|0,0:0|0:0,0:0:0:0:
280,112,85613,1,0,0:0:0:0:
296,128,85690,1,0,0:0:0:0:
312,144,85767,2,0,B|376:204,1,80
436,154,86077,2,0,B|370:198,1,80
348,48,86386,2,0,B|425:80|425:80|450:113|434:162,1,160,8|0,0:0|0:0,0:0:0:0:
436,248,86850,1,0,0:0:0:0:
376,320,87004,6,0,B|288:348,1,80
193,235,87314,2,0,B|272:252,1,80
308,164,87623,1,8,0:0:0:0:
136,332,87932,2,0,B|72:332|56:276|56:276|64:200,1,160
120,152,88396,1,0,0:0:0:0:
208,116,88551,2,0,P|204:64|188:24,1,80
204,212,88860,2,0,P|248:224|300:224,1,80,8|0,0:0|0:0,0:0:0:0:
120,152,89169,2,0,P|72:160|28:184,1,80
96,256,89479,6,0,P|144:256|204:156,1,160,4|0,0:0|0:0,0:0:0:0:
156,76,89943,2,0,P|112:72|72:84,1,80,0|8,0:0|0:0,0:0:0:0:
244,60,90252,1,0,0:0:0:0:
296,138,90407,2,0,B|310:217,1,80
352,296,90716,2,0,B|432:244,1,80
310,217,91025,2,0,B|226:261,1,80
176,315,91334,2,0,B|97:268,1,80,8|0,0:0|0:0,0:0:0:0:
59,199,91644,1,0,0:0:0:0:
87,116,91798,1,0,0:0:0:0:
160,164,91953,6,0,B|232:216|320:196,1,160
260,112,92417,1,0,0:0:0:0:
216,284,92571,2,0,B|300:304|376:268,1,160,8|0,0:0|0:0,0:0:0:0:
436,208,93035,2,0,B|496:144,2,80
376,144,93499,1,0,0:0:0:0:
316,80,93654,1,0,0:0:0:0:
256,144,93809,2,0,B|212:212|128:236,1,160,8|0,0:0|0:0,0:0:0:0:
129,235,94272,1,0,0:0:0:0:
236,284,94427,6,0,B|276:264|300:232,1,80,4|0,0:0|0:0,0:0:0:0:
129,235,94736,2,0,B|88:264|72:304,1,80
298,234,95046,2,0,B|310:150|234:82,1,160,8|0,0:0|0:0,0:0:0:0:
176,336,95664,1,0,0:0:0:0:
243,91,95974,2,0,B|304:36,1,80
388,192,96283,1,8,0:0:0:0:
256,308,96592,1,0,0:0:0:0:
124,192,96901,6,0,B|172:116,1,80
236,180,97211,2,0,B|312:228,1,80
248,292,97520,2,0,B|200:368,1,80,8|0,0:0|0:0,0:0:0:0:
136,304,97829,2,0,B|60:256,1,80
104,176,98138,6,0,B|132:144|136:100|136:100,1,80,8|0,0:0|0:0,0:0:0:0:
256,160,98448,2,0,B|288:188|332:192|332:192,1,80,0|0,0:0|0:0,0:0:0:0:
272,312,98757,2,0,B|244:344|240:388|240:388,1,80,8|0,0:0|0:0,0:0:0:0:
120,328,99066,2,0,B|88:300|44:296|44:296,1,80,0|0,0:0|0:0,0:0:0:0:
20,204,99376,1,4,0:0:0:0:
256,192,99453,12,4,101850,0:0:0:0:
256,288,110819,5,0,0:0:0:0:
328,60,111128,2,0,L|395:17,1,80,8|0,0:0|0:0,0:0:0:0:
380,184,111437,2,0,L|459:193,1,80,0|0,0:0|0:0,0:0:0:0:
268,156,111747,6,0,P|200:208|116:216,1,160,4|0,0:0|0:0,0:0:0:0:
60,164,112211,1,0,0:0:0:0:
96,84,112365,2,0,P|164:32|248:24,1,160,8|0,0:0|0:0,0:0:0:0:
324,124,112829,1,0,0:0:0:0:
280,248,112984,2,0,P|204:244|152:176,1,160
256,56,113448,1,0,0:0:0:0:
336,92,113602,2,8,B|352:132|329:168,1,80,8|0,0:0|0:0,0:0:0:0:
182,168,113912,2,8,B|160:132|176:92,1,80,0|0,0:0|0:0,0:0:0:0:
256,164,114221,6,0,B|256:324,1,160
256,324,114685,1,0,0:0:0:0:
324,248,114839,2,0,P|252:216|184:252,1,160,8|0,0:0|0:0,0:0:0:0:
124,316,115303,1,0,0:0:0:0:
108,228,115458,2,0,B|124:152|124:152|152:136|152:136|164:84,1,160
256,80,115922,1,0,0:0:0:0:
348,87,116077,2,0,B|360:136|360:136|388:152|388:152|404:228,1,160,8|0,0:0|0:0,0:0:0:0:
352,300,116541,1,0,0:0:0:0:
336,288,116618,1,0,0:0:0:0:
324,276,116695,6,0,B|304:192,1,80
206,198,117004,2,0,B|188:276,1,80
368,352,117314,2,0,B|412:328|432:284,1,80,8|0,0:0|0:0,0:0:0:0:
388,132,117623,1,0,0:0:0:0:
352,52,117778,1,0,0:0:0:0:
292,116,117932,6,0,B|232:180|144:192,1,160
72,132,118396,1,0,0:0:0:0:
156,108,118551,2,0,P|208:148|232:248,1,160,8|0,0:0|0:0,0:0:0:0:
252,320,119015,1,0,0:0:0:0:
316,260,119169,2,0,B|316:176,1,80
444,144,119479,2,0,B|444:224,1,80
360,116,119788,2,0,B|360:32,1,80,8|0,0:0|0:0,0:0:0:0:
444,224,120097,2,0,B|388:296,1,80
320,332,120407,5,0,0:0:0:0:
232,336,120561,1,0,0:0:0:0:
164,280,120716,1,0,0:0:0:0:
152,192,120870,1,0,0:0:0:0:
216,128,121025,2,0,B|265:192,1,80,8|0,0:0|0:0,0:0:0:0:
328,120,121334,2,0,B|412:80,2,80,8|8|8,0:0|0:0|0:0,0:0:0:0:
352,160,126437,5,0,0:0:0:0:
352,160,126515,1,0,0:0:0:0:
352,160,126592,1,8,0:0:0:0:
420,220,126747,1,0,0:0:0:0:
447,134,126901,2,0,B|476:108|472:60,1,80
336,256,127211,2,0,B|312:300|332:344,1,80,0|0,1:0|0:0,0:0:0:0:
240,308,127520,2,0,B|212:344|164:344,1,80
36,168,127829,6,0,B|116:192|168:260,1,160,8|0,0:0|0:0,0:0:0:0:
220,188,128293,1,0,0:0:0:0:
248,104,128448,2,0,B|316:144|316:144|412:144,1,160,0|0,1:0|0:0,0:0:0:0:
400,56,128912,1,0,0:0:0:0:
400,232,129066,6,0,B|388:352|292:336,1,160,10|0,0:0|0:0,0:0:0:0:
212,232,129530,2,0,B|224:352|320:336,1,160,10|0,0:0|0:0,0:0:0:0:
305,337,129994,2,0,B|304:164,1,160,8|0,0:0|0:0,0:0:0:0:
268,96,130458,1,0,0:0:0:0:
204,32,130613,2,0,B|144:64|184:152|96:160,1,160,0|0,0:0|1:0,0:0:0:0:
28,148,131077,1,0,0:0:0:0:
40,240,131231,1,0,0:0:0:0:
40,240,131386,1,0,0:0:0:0:
112,288,131541,6,0,B|192:320|288:280,1,160
356,296,132004,1,0,0:0:0:0:
428,240,132159,2,0,B|448:160|428:80,1,160,8|0,0:0|0:0,0:0:0:0:
344,48,132623,1,0,0:0:0:0:
260,76,132778,2,0,B|240:154|260:234,1,160
340,152,133396,1,8,0:0:0:0:
136,256,133705,1,0,0:0:0:0:
140,64,134015,6,0,B|184:76|204:112,1,80
248,184,134324,1,0,0:0:0:0:
304,112,134479,2,0,B|344:132|336:196,2,80,0|8|0,0:0|0:0|0:0,0:0:0:0:
248,184,134943,1,0,0:0:0:0:
172,232,135097,2,0,B|196:308,1,80
112,328,135407,2,0,B|84:240,1,80
72,164,135716,2,0,B|88:80,1,80,0|8,0:0|0:0,0:0:0:0:
172,108,136025,1,0,0:0:0:0:
264,116,136180,2,0,B|336:168|288:268,1,160
208,280,136644,1,0,0:0:0:0:
232,192,136798,6,0,B|284:148|356:168|380:236,1,160,0|8,0:0|0:0,0:0:0:0:
416,136,137262,2,0,B|460:156|460:204,1,80
416,272,137571,2,0,B|356:340,1,80
304,264,137881,2,0,B|252:200,1,80
184,256,138190,2,0,B|116:304,1,80,0|8,0:0|0:0,0:0:0:0:
204,168,138499,2,0,B|176:136|128:136,1,80
292,176,138809,2,0,B|352:232,2,80
360,120,139272,6,0,L|392:44,1,80
280,272,139582,2,0,L|248:345,1,80,8|0,0:0|0:0,0:0:0:0:
292,176,139891,1,0,0:0:0:0:
328,340,140046,2,0,P|256:348|200:284,1,160
112,272,140510,2,0,L|36:324,1,80
88,188,140819,2,0,L|0:188,1,80,8|0,0:0|0:0,0:0:0:0:
110,103,141128,2,0,L|45:58,1,80
176,200,141437,6,0,L|196:128,1,60.0000022888184,6|0,0:0|0:0,0:0:0:0:
248,80,141747,2,0,L|304:136,1,60.0000022888184
160,232,142056,2,0,L|118:190,1,60.0000022888184,2|0,0:0|0:0,0:0:0:0:
120,64,142365,2,0,L|188:36,1,60.0000022888184
248,80,142675,1,2,0:0:0:0:
405,251,142984,2,0,L|428:196,1,60.0000022888184
414,64,143293,2,0,L|392:120,1,60.0000022888184
336,184,143602,2,0,B|264:184,1,60.0000022888184,0|0,0:0|0:0,0:0:0:0:
196,164,143912,6,0,B|186:104,1,60.0000022888184,2|0,0:0|0:0,0:0:0:0:
152,236,144221,2,0,B|118:285,1,60.0000022888184,0|0,0:0|0:0,0:0:0:0:
248,232,144530,2,0,B|284:288,1,60.0000022888184,2|0,0:0|0:0,0:0:0:0:
364,300,144839,1,0,0:0:0:0:
432,256,144994,1,0,0:0:0:0:
448,172,145149,2,0,P|420:120|356:84,1,120.000004577637,0|0,0:0|0:0,0:0:0:0:
288,108,145613,1,0,0:0:0:0:
279,215,145767,2,0,L|328:180,1,60.0000022888184
220,64,146077,2,0,L|171:99,1,60.0000022888184
96,64,146386,6,0,B|68:128,1,60.0000022888184,2|0,0:0|0:0,0:0:0:0:
128,180,146695,2,0,B|196:180,1,60.0000022888184
204,264,147004,2,0,B|112:341,1,120.000004577637,2|0,0:0|0:0,0:0:0:0:
308,132,147623,2,0,B|348:180|416:180,1,120.000004577637,2|0,0:0|0:0,0:0:0:0:
480,128,148087,1,2,0:0:0:0:
96,256,148860,6,0,B|96:184,1,60.0000022888184,6|0,0:0|0:0,0:0:0:0:
172,100,149169,2,0,B|172:160,1,60.0000022888184
248,256,149479,2,0,B|248:196,1,60.0000022888184,2|0,0:0|0:0,0:0:0:0:
164,276,149788,2,0,B|164:336,1,60.0000022888184
300,172,150097,1,6,0:0:0:0:
300,172,150407,2,0,B|344:112,1,60.0000022888184
464,124,150716,2,0,B|499:172,1,60.0000022888184
400,244,151025,2,0,B|400:164,1,60.0000022888184
344,76,151334,6,0,B|260:52|184:80,1,160,4|0,0:0|0:0,0:0:0:0:
120,136,151798,1,0,0:0:0:0:
120,224,151953,2,0,B|200:268|272:216,1,160,4|0,0:0|0:0,0:0:0:0:
328,284,152417,1,0,0:0:0:0:
388,212,152571,2,0,B|452:284|380:368,2,160,0|4|0,0:0|0:0|0:0,0:0:0:0:
288,132,153499,2,0,L|212:108,1,80
188,108,153731,1,0,0:0:0:0:
168,108,153809,6,0,B|128:188|172:264,1,160,4|0,0:0|0:0,0:0:0:0:
240,184,154272,1,0,0:0:0:0:
312,108,154427,2,0,B|352:188|308:264,1,160,0|4,0:0|0:0,0:0:0:0:
168,108,155046,1,0,0:0:0:0:
228,328,155355,1,4,0:0:0:0:
286,261,155510,6,0,B|383:262,1,80
368,172,155819,2,0,B|456:172,1,80
400,80,156128,2,0,B|308:80,1,80,0|4,0:0|0:0,0:0:0:0:
192,180,156592,2,0,B|188:88,1,80
96,56,156901,2,0,B|88:136,1,80
32,204,157211,1,4,0:0:0:0:
228,336,157520,6,0,B|228:248,1,80,0|0,0:0|0:0,0:0:0:0:
200,172,157829,2,0,B|164:152|164:152|140:116,2,80
288,160,158293,1,0,0:0:0:0:
282,69,158448,2,0,L|348:24,1,80
408,92,158757,5,4,0:0:0:0:
445,172,158912,1,0,0:0:0:0:
388,240,159066,1,0,0:0:0:0:
425,320,159221,1,4,0:0:0:0:
136,192,161231,6,0,B|136:252|136:252|184:276|196:336,1,160,4|0,0:0|0:0,0:0:0:0:
256,264,161695,1,0,0:0:0:0:
317,328,161850,2,0,B|328:276|376:252|376:252|376:192,1,160,0|0,0:0|0:0,0:0:0:0:
376,104,162314,1,0,0:0:0:0:
376,104,162468,2,0,B|280:108|252:204,1,160
216,116,162932,2,0,B|180:136|128:136,2,80
256,192,163396,1,0,0:0:0:0:
256,280,163551,1,0,0:0:0:0:
328,228,163705,6,0,B|372:192|372:156|372:156|448:120,1,160,4|0,0:0|0:0,0:0:0:0:
184,228,164324,2,0,B|140:192|140:156|140:156|64:120,1,160,0|4,0:0|0:0,0:0:0:0:
74,124,164788,1,0,0:0:0:0:
72,212,164943,5,4,0:0:0:0:
256,80,165252,1,0,0:0:0:0:
440,212,165561,1,4,0:0:0:0:
256,304,165870,1,0,0:0:0:0:
144,68,166180,6,0,P|144:124|216:196,1,160,4|0,0:0|0:0,0:0:0:0:
256,120,166644,1,0,0:0:0:0:
368,68,166798,2,0,P|368:124|296:196,1,160,4|0,0:0|0:0,0:0:0:0:
256,304,167262,1,4,0:0:0:0:
344,316,167417,1,0,0:0:0:0:
424,284,167571,1,0,0:0:0:0:
476,212,167726,1,0,0:0:0:0:
256,80,168035,5,0,0:0:0:0:
256,332,168345,1,0,0:0:0:0:
352,136,168654,2,0,B|400:116|400:68|400:68|456:64|476:12,2,160,4|0|0,0:0|0:0|0:0,0:0:0:0:
256,332,169582,1,0,0:0:0:0:
160,136,169891,2,0,B|112:116|112:68|112:68|56:64|36:12,2,160
168,232,170664,2,0,L|124:260,2,40
240,164,170974,1,0,0:0:0:0:
236,308,171128,6,0,P|280:304|320:280,1,80,4|0,0:0|0:0,0:0:0:0:
315,143,171437,2,0,P|271:147|240:164,1,80,0|0,0:0|0:0,0:0:0:0:
376,220,171747,2,0,P|416:144|380:68,1,160,4|0,0:0|0:0,0:0:0:0:
244,84,172211,1,0,0:0:0:0:
244,84,172365,2,0,B|245:244,1,160
244,340,172829,1,0,0:0:0:0:
316,276,172984,2,0,P|240:244|172:276,1,160
26,164,173602,6,0,B|48:204|88:212,1,80,4|0,0:0|0:0,0:0:0:0:
165,95,173912,2,0,B|144:56|104:48,1,80
52,96,174221,2,0,B|179:192,1,160
256,264,174685,1,0,0:0:0:0:
256,352,174839,1,4,0:0:0:0:
368,192,175149,1,0,0:0:0:0:
144,192,175458,1,0,0:0:0:0:
256,352,175767,1,0,0:0:0:0:
308,64,176077,6,0,P|336:108|320:216,1,160,4|0,0:0|0:0,0:0:0:0:
252,144,176541,1,0,0:0:0:0:
308,64,176695,2,0,P|376:108|444:172,1,160,0|4,0:0|0:0,0:0:0:0:
308,316,177314,2,0,P|228:304|140:324,1,160,4|4,0:0|0:0,0:0:0:0:
68,272,177778,1,0,0:0:0:0:
72,176,177932,2,0,P|96:132|104:92,1,80
180,56,178242,1,0,0:0:0:0:
256,248,178551,6,0,B|296:276|296:276|336:288|372:276|404:224,1,160,4|0,0:0|0:0,0:0:0:0:
256,192,179169,12,4,180407,0:0:0:0:
208,76,181025,6,0,B|292:88|232:176|332:208,1,160,4|0,0:0|0:0,0:0:0:0:
380,152,181489,1,0,0:0:0:0:
332,300,181644,2,0,B|256:332|256:332|180:296,1,160,8|0,0:0|0:0,0:0:0:0:
76,240,182108,1,0,0:0:0:0:
104,116,182262,2,0,B|148:80|148:80|204:68|204:68|268:84,1,160,0|0,0:0|0:0,0:0:0:0:
320,136,182726,1,0,0:0:0:0:
396,88,182881,2,0,B|436:88|480:60,1,80,8|0,0:0|0:0,0:0:0:0:
432,176,183190,2,0,B|432:260,1,80
348,336,183499,6,0,B|348:256,1,80,0|0,0:3|0:3,0:3:0:0:
229,147,183809,2,0,B|264:220,1,80,0|0,0:0|0:0,0:0:0:0:
188,268,184118,2,0,B|152:320|92:320|56:264,1,160,8|0,0:0|0:0,0:0:0:0:
56,172,184582,1,0,0:0:0:0:
187,77,184736,2,0,B|151:25|91:25|56:80,2,160,0|0|8,0:0|0:0|0:0,0:0:0:0:
256,264,185664,1,0,0:0:0:0:
428,56,185974,6,0,B|428:144|428:144|393:161|388:210,1,160,4|0,0:0|0:0,0:0:0:0:
389,201,186437,1,0,0:0:0:0:
304,244,186592,2,0,B|303:156|303:156|338:139|343:90,1,160,8|0,0:0|0:0,0:0:0:0:
392,288,187056,1,0,0:0:0:0:
464,344,187211,2,0,B|396:408|316:344,1,160,0|8,0:0|0:0,0:0:0:0:
240,308,187675,1,0,0:0:0:0:
160,348,187829,2,0,B|92:412|12:348,1,160,8|0,0:0|0:0,0:0:0:0:
188,196,188448,2,0,B|284:60,1,160
256,224,188912,1,0,0:0:0:0:
324,196,189066,2,0,B|228:60,1,160,8|0,0:0|0:0,0:0:0:0:
48,284,189685,6,0,B|120:236,1,80
176,324,189994,2,0,B|200:248,1,80
336,324,190303,2,0,B|312:248,1,80,8|0,0:0|0:0,0:0:0:0:
464,284,190613,2,0,B|392:236,1,80,8|0,0:0|0:0,0:0:0:0:
188,80,190922,6,0,P|204:152|280:196,1,160,4|0,0:0|0:0,0:0:0:0:
276,108,191386,1,0,0:0:0:0:
124,196,191541,2,0,B|168:276|256:284,1,160,8|0,0:0|0:0,0:0:0:0:
336,280,192004,1,0,0:0:0:0:
392,212,192159,2,0,B|432:184|428:140,1,80
368,40,192468,2,0,B|344:128,1,80
288,184,192778,2,0,B|236:128|268:32,1,160,8|0,0:0|0:0,0:0:0:0:
176,112,193242,1,0,0:0:0:0:
88,116,193396,6,0,B|92:168|132:188|132:188|132:236|180:252,1,160
256,248,193860,1,0,0:0:0:0:
345,246,194015,2,0,B|380:236|380:188|380:188|420:168|424:116,1,160,8|0,0:0|0:0,0:0:0:0:
100,288,194633,1,0,0:0:0:0:
412,288,194943,1,0,0:0:0:0:
256,60,195252,1,8,0:0:0:0:
256,304,195561,2,0,B|256:224,1,80
316,160,195870,6,0,B|348:192|340:236,1,80,4|0,0:0|0:0,0:0:0:0:
171,232,196180,2,0,B|164:192|196:160,1,80
316,84,196489,2,0,P|368:80|404:64,1,80,8|0,0:0|0:0,0:0:0:0:
196,84,196798,2,0,P|144:80|108:64,1,80
188,212,197108,2,0,B|212:236|212:236|256:212|304:236|304:236|328:204,1,160
428,52,197726,5,8,0:0:0:0:
460,140,197881,1,0,0:0:0:0:
436,228,198035,1,0,0:0:0:0:
372,292,198190,1,0,0:0:0:0:
288,324,198345,2,0,B|236:312|232:264,1,80
356,132,198654,1,0,0:0:0:0:
372,224,198809,1,0,0:0:0:0:
288,200,198963,2,0,B|188:64,1,160,8|0,0:0|0:0,0:0:0:0:
100,88,199427,2,0,B|148:156,1,80
100,244,199736,2,0,B|56:176,2,80
156,308,200200,5,8,0:0:0:0:
200,260,200355,1,8,0:0:0:0:
256,228,200510,1,8,0:0:0:0:
312,260,200664,1,8,0:0:0:0:
356,308,200819,6,0,P|440:260|408:124,1,240,4|0,0:0|0:0,0:0:0:0:
340,100,201437,2,0,P|304:112|248:112,1,80,0|0,0:0|0:0,0:0:0:0:
194,36,201747,2,0,P|228:24|272:24,1,80
256,196,202056,6,0,L|220:284,1,80
256,352,202365,1,0,0:0:0:0:
392,196,202675,1,0,0:0:0:0:
120,196,202984,1,0,0:0:0:0:
296,196,203293,6,0,B|320:112|292:32,1,160,0|0,0:0|0:0,0:0:0:0:
220,136,203757,1,0,0:0:0:0:
144,68,203912,2,0,B|120:152|148:232,1,160
300,308,204530,2,0,B|376:308|376:308|392:328|392:328|464:328,2,160
124,308,205458,1,0,0:0:0:0:
40,152,205767,6,0,B|112:204|200:180,1,160
256,124,206231,1,0,0:0:0:0:
324,180,206386,2,0,B|403:201|475:149,1,160
184,60,207004,2,0,P|256:28|326:58,1,160
256,124,207468,1,0,0:0:0:0:
256,212,207623,2,0,B|256:376,1,160
108,276,208242,6,0,B|152:272|152:272|132:204|184:152,1,160
404,276,208860,2,0,B|360:272|360:272|380:204|338:163,1,160
200,272,209479,2,0,B|240:256|256:168|256:168|272:256|316:276,1,240
348,184,210097,5,0,0:0:0:0:
304,100,210252,1,0,0:0:0:0:
208,100,210407,1,0,0:0:0:0:
164,184,210561,1,0,0:0:0:0:
200,272,210716,1,2,2:0:0:0:
64,220,219685,6,0,B|80:300|168:348,1,155.999992858887,0|0,0:0|0:0,0:0:0:0:
112,88,220613,6,0,B|132:124|124:192,1,80,4|0,0:0|0:0,0:0:0:0:
223,241,220922,2,0,P|212:208|209:163,1,80
352,128,221231,1,8,0:0:0:0:
352,128,221386,2,0,B|296:72|200:76,1,160
124,108,221850,2,0,B|152:164|212:164|212:164|236:228,1,160
248,300,222314,1,0,0:0:0:0:
292,376,222468,2,0,B|384:376|428:292,2,160,8|0|0,0:0|0:0|0:0,0:0:0:0:
204,376,223242,1,0,0:0:0:0:
124,340,223396,1,0,0:0:0:0:
72,272,223551,1,0,0:0:0:0:
56,188,223705,6,0,B|128:136|216:140,1,160,8|0,0:0|0:0,0:0:0:0:
200,228,224169,2,0,B|244:224|272:196,1,80
180,52,224479,2,0,B|228:44|264:72,1,80
356,76,224788,1,0,0:0:0:0:
400,168,224943,1,8,0:0:0:0:
400,168,225020,1,0,0:0:0:0:
400,168,225097,2,0,B|428:248|376:332,1,160
308,276,225561,6,0,B|236:256|236:256|144:264|80:340,1,240,4|0,0:0|0:0,0:0:0:0:
88,224,226180,2,0,P|112:184|124:140,1,80,8|0,0:0|0:0,0:0:0:0:
200,44,226489,2,0,L|204:140,1,80
288,164,226798,2,0,L|284:84,1,80,0|0,0:0|0:0,0:0:0:0:
124,164,227108,2,0,B|40:184,1,80
136,252,227417,2,0,B|212:288|296:252,1,160,8|0,0:0|0:0,0:0:0:0:
423,77,228035,6,0,B|344:44|268:80,1,160,4|0,0:0|0:0,0:0:0:0:
196,132,228499,1,0,0:0:0:0:
196,132,228577,1,0,0:0:0:0:
196,132,228654,2,0,B|120:176,1,80,8|0,0:0|0:0,0:0:0:0:
112,260,228963,2,0,B|128:344,1,80
204,296,229272,2,0,B|188:216,1,80
32,296,229582,2,0,B|48:380,1,80
112,260,229891,2,0,B|96:176,1,80,8|0,0:0|0:0,0:0:0:0:
80,96,230200,1,0,0:0:0:0:
80,96,230355,1,0,0:0:0:0:
168,88,230510,6,0,P|256:84|328:132,1,160,4|0,0:0|0:0,0:0:0:0:
396,160,230974,1,0,0:0:0:0:
396,160,231051,1,0,0:0:0:0:
396,160,231128,2,0,P|428:124|444:80,1,80,8|0,0:0|0:0,0:0:0:0:
260,184,231437,2,0,P|240:220|236:268,1,80
176,324,231747,2,0,P|134:263|138:179,1,160
300,232,232211,2,0,P|376:196|396:124,1,160,8|0,0:0|0:0,0:0:0:0:
300,232,232675,2,0,P|312:276|344:304,1,80
396,364,232984,6,0,P|460:296|464:224,1,160,0|0,0:0|0:0,0:0:0:0:
400,172,233448,1,0,0:0:0:0:
456,104,233602,2,0,B|420:72|420:72|360:48|292:88,1,160,8|0,0:0|0:0,0:0:0:0:
220,68,234066,1,0,0:0:0:0:
196,152,234221,2,0,L|176:236,1,80
28,172,234530,2,0,L|46:94,1,80
132,76,234839,2,0,L|88:252,1,160,8|0,0:0|0:0,0:0:0:0:
128,312,235303,1,0,0:0:0:0:
216,292,235458,6,0,P|272:280|304:280,1,80,4|0,0:0|0:0,0:0:0:0:
340,356,235767,2,0,B|396:368|396:368|448:348|476:300,1,160,0|8,0:0|0:0,0:0:0:0:
408,64,236386,1,0,0:0:0:0:
416,152,236541,1,0,0:0:0:0:
336,192,236695,2,0,B|248:160|256:64,1,160
176,192,237159,2,0,B|264:160|256:64,1,160,8|0,0:0|0:0,0:0:0:0:
176,88,237623,2,0,B|256:48|352:96,1,160,0|4,0:0|0:0,0:0:0:0:
396,148,238087,5,0,0:0:0:0:
360,232,238242,1,0,0:0:0:0:
416,304,238396,1,0,0:0:0:0:
360,232,238551,2,0,B|328:260|288:232|288:232|244:200|216:232,1,160,8|0,0:0|0:0,0:0:0:0:
160,300,239015,1,0,0:0:0:0:
100,236,239169,1,8,0:0:0:0:
160,168,239324,1,0,0:0:0:0:
160,168,239479,2,0,B|160:68,1,80,0|0,0:0|0:0,0:0:0:0:
248,108,239788,2,0,B|288:36,1,80,0|0,0:0|0:0,0:0:0:0:
348,136,240097,2,0,B|416:88,1,80,0|0,0:0|0:0,0:0:0:0:
269,190,240407,6,0,B|288:264|256:348,1,160,4|0,0:0|0:0,0:0:0:0:
188,220,240870,1,0,0:0:0:0:
360,280,241025,2,0,B|360:324|380:368,2,80,8|0|0,0:0|0:0|0:0,0:0:0:0:
384,196,241489,1,0,0:0:0:0:
416,112,241644,2,0,B|336:72|256:108,1,160
262,105,242108,2,0,B|220:132|168:104,1,80,0|8,0:0|0:0,0:0:0:0:
220,32,242417,1,0,0:0:0:0:
140,184,242571,2,0,L|88:116,1,80
236,192,242881,6,0,P|240:280|184:332,1,160,4|0,0:0|0:0,0:0:0:0:
100,300,243345,1,0,0:0:0:0:
84,288,243422,1,0,0:0:0:0:
72,272,243499,2,0,P|48:232|48:192,1,80,8|0,0:0|0:0,0:0:0:0:
188,128,243809,2,0,P|212:168|213:200,1,80,0|0,0:0|0:0,0:0:0:0:
92,128,244118,2,0,L|148:60,1,80
268,248,244427,2,0,L|217:309,1,80
132,332,244736,1,8,0:0:0:0:
180,120,245046,5,0,0:0:0:0:
180,120,245200,1,0,0:0:0:0:
180,120,245355,2,0,B|180:168|152:200|152:200|168:228|176:272,1,160,4|0,0:0|0:0,0:0:0:0:
256,304,245819,1,0,0:0:0:0:
336,269,245974,2,0,B|344:228|360:200|360:200|332:168|332:120,1,160,8|0,0:0|0:0,0:0:0:0:
332,120,246437,1,0,0:0:0:0:
436,240,246592,2,0,B|412:288|404:336|404:336|376:364|336:364,1,160
256,364,247056,1,0,0:0:0:0:
159,362,247211,2,0,B|136:364|108:336|108:336|100:288|76:240,1,160,8|0,0:0|0:0,0:0:0:0:
104,148,247675,1,0,0:0:0:0:
104,148,247752,1,0,0:0:0:0:
104,148,247829,6,0,L|168:88,1,80
212,176,248138,2,0,L|192:256,1,80
256,364,248448,2,0,L|275:286,1,80,8|0,0:0|0:0,0:0:0:0:
292,144,248757,2,0,P|232:92|152:112,1,160
92,176,249221,1,0,0:0:0:0:
100,272,249376,2,0,P|116:308|148:344,1,80
370,338,249685,2,0,P|396:308|412:272,1,80,8|0,0:0|0:0,0:0:0:0:
256,88,249994,2,0,L|256:168,1,80
344,201,250303,6,0,B|344:263|256:328|256:328|168:264|168:200,1,320,4|8,0:0|0:0,0:0:0:0:
256,52,251231,1,0,0:0:0:0:
152,224,251541,2,0,B|103:287,1,80
256,224,251850,2,0,B|256:316,1,80
360,224,252159,2,0,B|408:287,1,80,8|0,0:0|0:0,0:0:0:0:
424,136,252468,2,0,B|368:68,1,80
360,196,252778,6,0,B|312:272|220:296,1,160,4|0,0:0|0:0,0:0:0:0:
232,204,253242,1,0,0:0:0:0:
144,216,253396,2,0,B|60:228,1,80,8|0,0:0|0:0,0:0:0:0:
88,144,253705,1,0,0:0:0:0:
100,128,253783,1,0,0:0:0:0:
112,112,253860,1,0,0:0:0:0:
124,96,253937,1,0,0:0:0:0:
136,80,254015,6,0,B|212:44|304:68,1,160
352,132,254479,2,0,P|372:164|378:213,1,80,0|8,0:0|0:0,0:0:0:0:
268,276,254788,2,0,P|248:244|241:194,1,80
328,212,255097,1,0,0:0:0:0:
312,344,255252,6,0,P|236:352|168:300,1,160,4|0,0:0|0:0,0:0:0:0:
144,220,255716,1,0,0:0:0:0:
144,220,255793,1,0,0:0:0:0:
144,220,255870,2,0,P|148:176|164:136,1,80,8|0,0:0|0:0,0:0:0:0:
256,98,256180,2,0,P|252:142|240:176,1,80
84,100,256489,2,0,P|108:64|144:36,1,80
256,98,256798,2,0,P|332:142|412:138,1,160,0|8,0:0|0:0,0:0:0:0:
436,220,257262,2,0,L|372:272,2,80,8|0|0,0:0|0:0|0:0,0:0:0:0:
256,192,257726,12,4,260200,0:0:0:0:
