osu file format v14

[General]
AudioFilename: 20. BRE@THLESS.mp3
AudioLeadIn: 0
PreviewTime: 63750
Countdown: 0
SampleSet: Normal
StackLeniency: 0.7
Mode: 0
LetterboxInBreaks: 1
WidescreenStoryboard: 1

[Editor]
Bookmarks: 65312
DistanceSpacing: 0.7
BeatDivisor: 4
GridSize: 8
TimelineZoom: 2.799999

[Metadata]
Title:BRE@TH//LESS
TitleUnicode:BRE@TH//LESS
Artist:Mika Kobayashi
ArtistUnicode:小林未郁
Creator:igatih
Version:Normal
Source:ALDNOAH.ZERO(アルドノア・ゼロ)
Tags:anime Soundtrack aldnoah zero
BeatmapID:529190
BeatmapSetID:223973

[Difficulty]
HPDrainRate:5
CircleSize:3
OverallDifficulty:5
ApproachRate:7
SliderMultiplier:1.3
SliderTickRate:1

[Events]
//Background and Video events
0,0,"ALDNOAH-2.jpg",0,0
//Break Periods
2,28950,31850
2,45200,47350
2,96200,111850
2,124949,127849
2,141200,143350
2,192200,206850
//Storyboard Layer 0 (Background)
//Storyboard Layer 1 (Fail)
//Storyboard Layer 2 (Pass)
//Storyboard Layer 3 (Foreground)
//Storyboard Sound Samples

[TimingPoints]
16750,500,4,1,0,100,1,0
63750,-100,4,1,0,100,0,1
78000,-100,4,1,0,100,0,0
80500,-100,4,1,0,100,0,1
94000,-100,4,1,0,100,0,0
160500,-100,4,1,0,100,0,1
176500,-100,4,1,0,100,0,1
190000,-100,4,1,0,100,0,0
207750,-100,4,1,0,100,0,1
239250,-100,4,1,0,100,0,0

[HitObjects]
128,88,16750,6,0,L|264:88,1,130
360,136,17500,1,0,0:0:0:0:
424,232,18000,1,0,0:0:0:0:
344,336,18500,2,0,L|272:224,1,130
88,192,19500,1,0,0:0:0:0:
88,192,20000,1,0,0:0:0:0:
336,96,20750,2,0,L|272:224,1,130
200,288,21500,2,0,L|128:176,1,130
128,176,22250,1,0,0:0:0:0:
272,96,22750,6,0,P|360:104|392:144,1,130
416,208,23750,2,0,L|424:280,1,65
312,296,24250,2,0,P|240:320|184:304,1,130
128,216,25000,1,0,0:0:0:0:
184,128,25250,2,0,P|248:104|312:136,1,130
416,208,26000,1,0,0:0:0:0:
352,288,26250,2,0,L|287:290,1,65
232,208,26750,1,0,0:0:0:0:
352,128,27000,5,0,0:0:0:0:
328,96,27250,2,0,P|240:56|192:64,1,130
96,104,28000,1,0,0:0:0:0:
96,224,28250,2,0,L|216:296,1,130
128,264,32750,5,0,0:0:0:0:
128,264,33000,1,0,0:0:0:0:
128,264,33250,1,0,0:0:0:0:
128,264,33500,2,0,P|208:304|320:280,1,195
368,264,34500,2,0,P|432:192|424:152,1,130
384,128,35250,2,0,P|296:80|256:80,1,130
104,200,36750,1,0,0:0:0:0:
136,240,37000,1,0,0:0:0:0:
168,272,37250,1,0,0:0:0:0:
208,304,37500,6,0,L|329:236,1,130
368,160,38250,1,0,0:0:0:0:
280,128,38500,2,0,L|152:192,1,130
80,144,39250,1,0,0:0:0:0:
232,104,39750,2,0,L|208:32,2,65,0|0|0,0:0|0:0|0:0,0:0:0:0:
288,120,40500,1,0,0:0:0:0:
352,128,40750,2,0,L|400:192,1,65
368,232,41250,2,0,L|304:248,2,65,0|0|0,0:0|0:0|0:0,0:0:0:0:
144,208,42000,5,0,0:0:0:0:
144,168,42250,2,0,P|232:128|280:136,1,130
376,176,43000,2,0,L|288:272,1,130
104,280,44000,1,0,0:0:0:0:
104,280,44250,1,0,0:0:0:0:
104,280,44500,2,0,L|128:192,1,65
224,192,45000,1,0,0:0:0:0:
192,104,48250,5,0,0:0:0:0:
192,104,48500,1,0,0:0:0:0:
352,104,49000,1,0,0:0:0:0:
352,104,49250,1,0,0:0:0:0:
352,104,49500,2,0,P|376:176|360:240,1,130
296,280,50250,2,0,P|224:312|168:296,1,130
88,240,51000,1,0,0:0:0:0:
96,208,51250,1,0,0:0:0:0:
112,176,51500,1,0,0:0:0:0:
128,152,51750,6,0,L|232:64,1,130
336,64,52750,2,0,L|392:104,1,65
352,176,53250,2,0,L|384:240,1,65
312,272,53750,2,0,L|280:344,1,65
208,320,54250,2,0,L|136:336,1,65
96,296,54750,1,0,0:0:0:0:
80,256,55000,1,0,0:0:0:0:
80,208,55250,1,0,0:0:0:0:
104,168,55500,1,0,0:0:0:0:
176,80,56000,5,0,0:0:0:0:
176,80,56250,1,0,0:0:0:0:
264,80,56500,2,0,L|400:80,1,130
400,160,57500,2,0,L|320:272,1,130
240,296,58500,2,0,L|128:202,1,130
128,112,59500,2,0,L|232:24,1,130
296,104,60250,2,0,P|336:88|352:104,1,65
256,192,60750,6,0,L|192:144,1,65
256,192,61250,6,0,L|308:153,1,65
256,192,61750,6,0,L|204:231,1,65
256,192,62250,6,0,L|308:231,1,65
192,112,63750,6,0,P|144:160|128:232,1,130
224,280,64499,1,0,0:0:0:0:
328,264,64749,1,0,0:0:0:0:
328,264,64999,2,0,P|336:208|328:184,1,65
320,80,65500,2,0,L|248:40,1,65
304,160,66000,2,0,L|240:208,1,65
216,120,66500,2,0,L|152:120,1,65
104,120,67000,1,0,0:0:0:0:
112,256,67500,6,0,P|144:296|224:296,1,130
336,296,68500,2,0,P|384:248|384:184,1,130
320,96,69500,2,0,P|264:56|200:80,1,130
152,136,70500,2,0,P|96:168|104:240,1,130
192,304,71500,1,0,0:0:0:0:
280,272,72000,1,0,0:0:0:0:
128,160,72500,1,0,0:0:0:0:
128,160,72750,1,0,0:0:0:0:
128,160,73000,2,0,P|184:104|240:96,1,130
311,143,74000,5,0,0:0:0:0:
278,220,74500,2,0,L|387:314,1,130
420,183,75500,1,0,0:0:0:0:
400,112,75750,1,0,0:0:0:0:
333,91,76000,1,0,0:0:0:0:
202,76,76500,2,0,P|126:69|54:76,1,130
75,150,77500,2,0,P|144:142|208:157,1,130
256,192,78250,12,0,80000,0:0:0:0:
257,284,80500,5,0,0:0:0:0:
257,230,80750,1,0,0:0:0:0:
257,173,81000,1,0,0:0:0:0:
216,86,81500,2,0,L|158:144,1,65
297,86,82000,2,0,L|349:137,1,65
257,173,82500,1,0,0:0:0:0:
256,230,82750,1,0,0:0:0:0:
256,282,83000,1,0,0:0:0:0:
221,308,83500,6,0,L|169:243,1,65
289,308,84000,2,0,L|333:254,1,65
400,165,84500,2,0,P|331:121|284:116,1,130
176,133,85500,1,0,0:0:0:0:
133,224,86000,1,0,0:0:0:0:
224,279,86500,2,0,P|306:300|362:276,1,130
298,173,87500,1,0,0:0:0:0:
108,265,88500,1,0,0:0:0:0:
108,265,88750,1,0,0:0:0:0:
108,265,89000,6,0,P|98:185|123:138,1,130
237,128,90000,1,0,0:0:0:0:
368,134,90500,1,0,0:0:0:0:
368,134,90750,1,0,0:0:0:0:
368,134,91000,2,0,P|387:214|378:264,1,130
247,252,92000,1,0,0:0:0:0:
205,85,92500,2,0,P|145:134|116:195,1,130
227,198,93500,2,0,P|236:272|266:323,1,130
256,192,94250,12,0,95500,0:0:0:0:
257,193,96000,5,0,0:0:0:0:
447,176,112750,5,0,0:0:0:0:
409,129,113000,1,0,0:0:0:0:
363,89,113250,1,0,0:0:0:0:
254,81,113500,2,0,L|178:62,1,65
139,85,114000,2,0,L|106:147,1,65
104,200,114500,2,0,L|148:264,1,65
183,257,115000,2,0,L|247:232,1,65
272,208,115500,2,0,L|328:169,3,65,0|0|0|0,0:0|0:0|0:0|0:0,0:0:0:0:
385,285,116750,5,0,0:0:0:0:
385,285,117000,1,0,0:0:0:0:
385,285,117250,1,0,0:0:0:0:
385,285,117500,2,0,L|435:158,1,130
368,69,118500,2,0,L|304:188,1,130
251,284,119750,1,0,0:0:0:0:
251,284,120000,1,0,0:0:0:0:
251,284,120250,2,0,P|198:305|111:287,1,130
48,280,121000,1,0,0:0:0:0:
56,200,121250,6,0,P|100:116|132:88,1,130
208,72,122000,1,0,0:0:0:0:
296,87,122250,2,0,P|345:112|392:180,1,130
371,263,123000,2,0,L|429:311,1,65
120,264,124000,1,0,0:0:0:0:
123,262,124250,2,0,L|239:192,1,130
256,135,128749,5,0,0:0:0:0:
346,199,128999,1,0,0:0:0:0:
346,199,129249,1,0,0:0:0:0:
346,199,129499,2,0,L|405:240,1,65
437,232,129999,2,0,L|438:154,1,65
356,73,130499,2,0,P|282:51|212:60,1,130
202,86,131250,2,0,L|250:133,1,65
255,181,131750,2,0,P|185:188|125:211,1,130
146,108,132750,6,0,L|89:66,2,65,0|0|0,0:0|0:0|0:0,0:0:0:0:
240,64,133500,1,0,0:0:0:0:
224,168,133750,1,0,0:0:0:0:
328,128,134000,1,0,0:0:0:0:
347,210,134250,2,0,L|322:282,1,65
288,297,134750,2,0,L|212:267,1,65
196,242,135250,2,0,L|194:158,1,65
255,78,135750,1,0,0:0:0:0:
255,78,136000,1,0,0:0:0:0:
255,78,136250,6,0,L|155:179,1,130
163,170,137000,1,0,0:0:0:0:
163,170,137250,2,0,L|210:305,1,130
304,164,138000,1,0,0:0:0:0:
412,226,138250,2,0,L|323:323,1,130
212,298,139000,1,0,0:0:0:0:
175,271,139250,1,0,0:0:0:0:
141,242,139500,1,0,0:0:0:0:
256,195,140000,5,0,0:0:0:0:
155,150,140250,2,0,L|199:98,1,65
362,153,140750,2,0,L|312:103,1,65
114,260,144250,5,0,0:0:0:0:
144,280,144500,2,0,P|167:297|206:310,1,65
235,300,145000,2,0,P|262:289|293:261,1,65
328,240,145500,2,0,P|350:221|373:186,1,65
368,152,146000,2,0,P|384:111|382:76,1,65
290,51,146500,2,0,L|265:115,1,65
139,91,147000,1,0,0:0:0:0:
139,91,147250,1,0,0:0:0:0:
77,197,147500,5,0,0:0:0:0:
77,197,147750,2,0,P|106:269|149:308,1,130
353,86,148750,2,0,L|395:136,1,65
289,188,149250,2,0,L|246:242,1,65
366,265,149750,2,0,L|413:329,1,65
152,310,150250,2,0,P|103:236|150:80,1,260
116,120,152250,1,0,0:0:0:0:
116,120,152500,2,0,P|124:195|157:245,1,130
249,276,153500,5,0,0:0:0:0:
249,276,153750,1,0,0:0:0:0:
249,276,154000,1,0,0:0:0:0:
343,279,154250,2,0,L|407:267,1,65
352,186,154750,2,0,L|393:133,1,65
277,107,155250,1,0,0:0:0:0:
237,97,155500,1,0,0:0:0:0:
192,103,155750,2,0,P|138:119|79:163,1,130
108,338,156750,6,0,L|185:323,1,65
126,245,157250,2,0,L|156:173,1,65
239,237,157750,2,0,L|306:224,1,65
246,137,158250,2,0,P|343:71|460:130,1,260
444,237,159750,2,0,P|385:202|309:181,1,130
272,263,160500,1,0,0:0:0:0:
272,263,160750,1,0,0:0:0:0:
272,263,161000,1,0,0:0:0:0:
172,243,161500,6,0,L|111:197,1,65
102,171,162000,2,0,L|149:121,1,65
247,106,162500,2,0,P|227:173|247:242,1,130
422,206,163500,2,0,L|366:150,1,65
303,225,164000,2,0,L|245:253,1,65
203,149,164500,2,0,P|144:134|70:163,1,130
62,255,165500,2,0,P|119:245|197:250,1,130
282,307,166250,1,0,0:0:0:0:
282,307,166500,2,0,P|352:267|391:227,1,130
340,156,167250,6,0,L|407:143,1,65,0|0,0:0|0:0,0:0:0:0:
252,76,167750,1,0,0:0:0:0:
252,76,168000,1,0,0:0:0:0:
147,178,168500,2,0,L|96:225,2,65,0|0|0,0:0|0:0|0:0,0:0:0:0:
254,239,169500,1,0,0:0:0:0:
254,239,169750,1,0,0:0:0:0:
254,239,170000,2,0,L|254:314,1,65
304,157,170500,2,0,L|376:138,2,65,0|0|0,0:0|0:0|0:0,0:0:0:0:
184,64,171500,5,0,0:0:0:0:
152,80,171750,1,0,0:0:0:0:
120,104,172000,1,0,0:0:0:0:
96,136,172250,1,0,0:0:0:0:
256,192,172500,2,0,L|198:227,1,65
304,220,173000,2,0,L|306:288,1,65
345,190,173500,2,0,L|403:221,1,65
296,88,174000,1,0,0:0:0:0:
256,192,174250,12,0,175500,0:0:0:0:
180,141,175750,6,0,P|145:185|128:207,1,65
220,222,176250,1,0,0:0:0:0:
220,222,176500,2,0,L|276:274,1,65
346,194,177000,2,0,P|385:231|358:309,1,130
175,265,177750,2,0,L|114:231,1,65
128,199,178250,1,0,0:0:0:0:
150,160,178500,1,0,0:0:0:0:
160,124,178750,2,0,L|96:69,2,65,0|0|0,0:0|0:0|0:0,0:0:0:0:
206,101,179500,6,0,L|262:141,1,65
345,200,180000,2,0,L|303:250,1,65
192,97,180500,2,0,P|160:181|156:239,1,130
203,293,181250,1,0,0:0:0:0:
203,293,181500,2,0,L|252:339,1,65
311,259,182000,2,0,L|373:309,1,65
440,265,182500,2,0,P|452:214|434:129,1,130
312,72,183250,2,0,L|231:111,3,65,0|0|0|0,0:0|0:0|0:0|0:0,0:0:0:0:
352,204,184500,5,0,0:0:0:0:
330,232,184750,1,0,0:0:0:0:
307,264,185000,2,0,P|268:300|241:309,1,65
172,298,185500,1,0,0:0:0:0:
172,298,185750,1,0,0:0:0:0:
117,204,186000,2,0,L|44:168,2,65,0|0|0,0:0|0:0|0:0,0:0:0:0:
240,144,186750,2,0,L|290:80,2,65,0|0|0,0:0|0:0|0:0,0:0:0:0:
208,232,187500,1,0,0:0:0:0:
208,232,187750,1,0,0:0:0:0:
256,304,188000,6,0,P|287:287|322:259,1,65
368,168,188500,2,0,P|401:259|405:307,1,130
256,304,189500,2,0,P|197:277|144:216,1,130
256,192,190250,12,0,191500,0:0:0:0:
257,188,192000,5,0,0:0:0:0:
166,97,207750,6,0,P|126:155|110:216,1,130
195,244,208500,1,0,0:0:0:0:
195,244,208750,1,0,0:0:0:0:
254,161,209000,2,0,P|283:187|306:220,1,65
286,312,209500,2,0,P|360:296|403:249,1,130
380,144,210500,1,0,0:0:0:0:
380,144,210750,1,0,0:0:0:0:
380,144,211000,2,0,L|332:213,1,65
269,126,211500,6,0,L|213:186,1,65
141,124,212000,2,0,L|83:173,1,65
67,282,212500,2,0,P|141:318|207:316,1,130
222,312,213250,1,0,0:0:0:0:
251,298,213500,1,0,0:0:0:0:
287,279,213750,2,0,L|336:217,1,65
341,199,214250,2,0,L|227:118,1,130
160,65,215000,2,0,P|89:124|76:165,1,130
120,230,215750,5,0,0:0:0:0:
120,230,216000,2,0,L|76:277,1,65
165,323,216500,2,0,L|208:272,1,65
296,311,217000,2,0,P|328:251|321:187,1,130
282,123,217750,1,0,0:0:0:0:
282,123,218000,2,0,L|325:72,2,65,0|0|0,0:0|0:0|0:0,0:0:0:0:
200,99,218750,1,0,0:0:0:0:
120,128,219000,6,0,L|158:197,1,65
184,240,219500,2,0,L|120:296,1,65
248,264,220000,2,0,L|310:295,1,65
363,282,220500,2,0,P|393:204|388:150,1,130
341,60,221500,2,0,P|301:116|288:181,1,130
256,192,222250,12,0,224000,0:0:0:0:
311,107,224500,5,0,0:0:0:0:
256,118,224750,1,0,0:0:0:0:
208,135,225000,2,0,P|231:204|278:231,1,130
318,251,225750,2,0,L|376:303,2,65,0|0|0,0:0|0:0|0:0,0:0:0:0:
198,301,226500,1,0,0:0:0:0:
155,263,226750,1,0,0:0:0:0:
124,226,227000,2,0,P|135:140|170:100,1,130
260,76,227750,1,0,0:0:0:0:
276,112,228000,6,0,L|309:173,1,65
278,219,228500,2,0,L|331:268,1,65
266,330,229000,2,0,L|210:275,1,65
186,246,229500,1,0,0:0:0:0:
176,135,229750,2,0,L|235:103,1,65
393,112,230500,2,0,P|427:204|428:246,1,130
323,250,231250,1,0,0:0:0:0:
323,250,231500,1,0,0:0:0:0:
232,256,231750,6,0,L|167:291,1,65
133,232,232500,1,0,0:0:0:0:
133,232,232750,1,0,0:0:0:0:
133,232,233000,2,0,P|131:145|163:96,1,130
264,107,233750,1,0,0:0:0:0:
264,107,234000,2,0,L|316:150,1,65
420,244,234500,1,0,0:0:0:0:
420,244,234750,1,0,0:0:0:0:
420,244,235000,6,0,P|320:287|286:283,1,130
274,278,235750,1,0,0:0:0:0:
234,270,236000,2,0,L|175:232,1,65
161,118,236500,2,0,P|123:169|110:239,1,130
192,326,237500,2,0,P|196:249|239:202,1,130
136,153,238250,2,0,B|169:205|204:205|238:141|269:141|296:207|325:207|376:148,1,260
296,87,239500,2,0,L|231:64,1,65
97,176,240000,2,0,L|224:232,1,130
