osu file format v14

[General]
AudioFilename: 20. BRE@THLESS.mp3
AudioLeadIn: 0
PreviewTime: 63750
Countdown: 0
SampleSet: Normal
StackLeniency: 0.7
Mode: 0
LetterboxInBreaks: 1
WidescreenStoryboard: 0

[Editor]
Bookmarks: 95166
DistanceSpacing: 1.4
BeatDivisor: 8
GridSize: 8
TimelineZoom: 2.699999

[Metadata]
Title:BRE@TH//LESS
TitleUnicode:BRE@TH//LESS
Artist:Mika Kobayashi
ArtistUnicode:小林未郁
Creator:igatih
Version:ALDNOAH
Source:ALDNOAH.ZERO(アルドノア・ゼロ)
Tags:anime Soundtrack aldnoah zero
BeatmapID:530042
BeatmapSetID:223973

[Difficulty]
HPDrainRate:7
CircleSize:4
OverallDifficulty:7
ApproachRate:9
SliderMultiplier:2.2
SliderTickRate:1

[Events]
//Background and Video events
0,0,"aldnoah_zero_wallpaper_by_nicodeboey-d7tsnpn.jpg",0,0
//Break Periods
2,96700,112150
//Storyboard Layer 0 (Background)
//Storyboard Layer 1 (Fail)
//Storyboard Layer 2 (Pass)
//Storyboard Layer 3 (Foreground)
//Storyboard Sound Samples

[TimingPoints]
16750,500,4,1,0,100,1,0
63750,-200,4,1,0,100,0,1
64999,-83.3333333333333,4,1,0,100,0,1
78187,-200,4,1,0,100,0,0
79750,-100,4,1,0,100,0,1
81000,-83.3333333333333,4,1,0,100,0,1
84500,-100,4,1,0,100,0,1
86500,-200,4,1,0,100,0,1
87000,-83.3333333333333,4,1,0,100,0,1
93500,-200,4,1,0,100,0,1
94000,-100,4,1,0,100,0,0
141750,-100,4,1,0,100,0,0
159750,-200,4,1,0,100,0,1
161000,-83.3333333333333,4,1,0,100,0,1
173500,-100,4,1,0,100,0,1
174250,-200,4,1,0,100,0,1
175750,-100,4,1,0,100,0,1
177000,-83.3333333333333,4,1,0,100,0,1
180500,-100,4,1,0,100,0,1
182375,-200,4,1,0,100,0,1
183750,-83.3333333333333,4,1,0,100,0,1
188500,-100,4,1,0,100,0,1
190250,-200,4,1,0,100,0,1
191500,-83.3333333333333,4,1,0,100,0,0
199000,-100,4,1,0,100,0,0
206500,-200,4,1,0,100,0,1
208500,-83.3333333333333,4,1,0,100,0,1
219500,-100,4,1,0,100,0,0
222250,-200,4,1,0,100,0,0
225000,-83.3333333333333,4,1,0,100,0,0
237500,-100,4,1,0,100,0,0

[HitObjects]
336,224,16750,5,0,0:0:0:0:
224,80,17000,1,0,0:0:0:0:
336,104,17250,1,0,0:0:0:0:
192,176,17500,2,0,L|128:240,1,73.3333333333333
160,288,17750,2,0,L|216:336,1,73.3333333333333
280,352,18000,2,0,L|280:240,1,110
184,256,18500,1,0,0:0:0:0:
368,256,18750,1,0,0:0:0:0:
184,256,19000,1,0,0:0:0:0:
304,136,19250,1,0,0:0:0:0:
168,112,19500,1,0,0:0:0:0:
328,272,19750,5,0,0:0:0:0:
328,272,19875,1,0,0:0:0:0:
328,272,20000,1,0,0:0:0:0:
88,264,20250,1,0,0:0:0:0:
88,264,20500,1,0,0:0:0:0:
184,128,20750,1,0,0:0:0:0:
184,128,20875,1,0,0:0:0:0:
184,128,21000,1,0,0:0:0:0:
344,192,21250,1,0,0:0:0:0:
224,312,21500,1,0,0:0:0:0:
120,216,21750,1,0,0:0:0:0:
224,112,22000,1,0,0:0:0:0:
312,320,22250,6,0,L|192:256,1,110
163,80,22750,2,0,L|208:112,1,55
248,256,23000,2,0,L|192:216,1,55
320,176,23250,2,0,L|424:240,1,110
224,320,23750,1,0,0:0:0:0:
224,320,23875,2,0,L|144:320,1,55
64,192,24250,1,0,0:0:0:0:
168,72,24500,1,0,0:0:0:0:
208,56,24625,1,0,0:0:0:0:
248,72,24750,1,0,0:0:0:0:
336,192,25000,1,0,0:0:0:0:
176,280,25250,5,0,0:0:0:0:
176,280,25375,2,0,L|240:280,1,55
96,64,25750,1,0,0:0:0:0:
96,64,26000,2,0,L|96:176,1,110
416,320,26500,1,0,0:0:0:0:
416,320,26750,2,0,L|416:210,1,110
158,80,27250,2,0,B|192:40|256:16|304:40|352:88,1,220
160,80,28000,5,0,0:0:0:0:
432,128,28250,2,0,P|408:200|296:216,1,183.333333333333
216,152,28750,2,0,P|112:128|24:176,1,192.5
144,320,29500,1,0,0:0:0:0:
144,320,29625,1,0,0:0:0:0:
144,320,29750,1,0,0:0:0:0:
256,192,30000,1,0,0:0:0:0:
256,192,30125,1,0,0:0:0:0:
256,192,30250,1,0,0:0:0:0:
144,88,30500,1,0,0:0:0:0:
144,88,30625,1,0,0:0:0:0:
144,88,30750,1,0,0:0:0:0:
384,96,31000,1,0,0:0:0:0:
384,96,31125,1,0,0:0:0:0:
384,96,31250,1,0,0:0:0:0:
256,192,31500,1,0,0:0:0:0:
256,192,31625,1,0,0:0:0:0:
256,192,31750,1,0,0:0:0:0:
392,304,32000,1,0,0:0:0:0:
392,304,32125,1,0,0:0:0:0:
392,304,32250,1,0,0:0:0:0:
256,80,32750,5,0,0:0:0:0:
256,320,33000,1,0,0:0:0:0:
432,192,33250,1,0,0:0:0:0:
304,96,33500,2,0,P|259:127|234:176,1,110
192,312,34000,2,0,P|235:278|255:227,1,110
152,80,34500,1,0,0:0:0:0:
192,56,34625,1,0,0:0:0:0:
232,80,34750,1,0,0:0:0:0:
408,104,35000,5,0,0:0:0:0:
408,104,35250,2,0,L|304:184,1,110
368,304,35750,1,0,0:0:0:0:
368,304,35875,1,0,0:0:0:0:
368,304,36000,1,0,0:0:0:0:
240,224,36250,1,0,0:0:0:0:
368,304,36500,1,0,0:0:0:0:
416,168,36750,2,0,P|429:111|409:48,1,110
416,280,37250,1,0,0:0:0:0:
416,168,37500,1,0,0:0:0:0:
256,296,37750,5,0,0:0:0:0:
256,128,38000,1,0,0:0:0:0:
56,144,38250,2,0,P|39:195|56:248,1,110
216,320,38750,1,0,0:0:0:0:
264,336,38875,1,0,0:0:0:0:
312,320,39000,1,0,0:0:0:0:
440,248,39250,2,0,P|423:205|378:153,1,110,0|0,0:0|0:0,0:0:0:0:
224,64,39750,1,0,0:0:0:0:
176,80,39875,1,0,0:0:0:0:
144,112,40000,1,0,0:0:0:0:
48,336,40250,5,0,0:0:0:0:
48,336,40500,2,0,L|120:248,1,110
80,72,41000,1,0,0:0:0:0:
264,72,41250,1,0,0:0:0:0:
216,56,41375,1,0,0:0:0:0:
168,56,41500,1,0,0:0:0:0:
216,200,41750,1,0,0:0:0:0:
64,224,42000,1,0,0:0:0:0:
56,176,42125,1,0,0:0:0:0:
72,128,42250,1,0,0:0:0:0:
248,288,42500,5,0,0:0:0:0:
88,312,42750,2,0,P|144:272|159:229,1,110
88,80,43250,2,0,P|141:67|194:77,1,110,0|0,0:0|0:0,3:0:0:0:
416,192,43750,1,0,0:0:0:0:
416,320,44000,5,0,0:0:0:0:
336,192,44250,2,0,L|240:120,2,110,0|0|0,0:0|0:0|0:0,0:0:0:0:
424,96,44875,2,0,L|488:64,1,55
312,56,45500,1,0,0:0:0:0:
424,176,45750,2,0,P|400:224|336:232,1,110
280,104,46250,2,0,P|208:56|168:64,1,110
64,184,46750,1,0,0:0:0:0:
256,272,47000,5,0,0:0:0:0:
256,272,47125,1,0,0:0:0:0:
256,272,47250,1,0,0:0:0:0:
328,144,47500,1,0,0:0:0:0:
328,144,47625,2,0,L|406:32,1,110
400,40,48000,1,0,0:0:0:0:
320,160,48250,1,0,0:0:0:0:
352,280,48500,2,0,P|320:320|264:336,1,110
128,112,49000,2,0,P|158:67|209:52,1,110
368,184,49500,2,0,P|335:142|280:120,1,110
304,48,50000,5,0,0:0:0:0:
360,40,50125,1,0,0:0:0:0:
408,64,50250,1,0,0:0:0:0:
256,168,50500,2,0,L|192:120,1,55
272,320,50750,2,0,L|328:352,1,55
384,288,51000,2,0,P|416:240|405:188,1,110
120,88,51500,2,0,P|65:115|47:162,1,110
176,336,52000,5,0,0:0:0:0:
336,104,52250,1,0,0:0:0:0:
384,120,52375,1,0,0:0:0:0:
424,152,52500,1,0,0:0:0:0:
200,144,52750,2,0,B|160:127|175:65|130:66,1,110
64,248,53250,2,0,B|108:247|92:309|132:326,1,110
360,304,53750,2,0,B|356:259|419:271|433:230,1,110
424,56,54250,2,0,B|410:97|347:85|351:130,1,110
168,136,54750,5,0,0:0:0:0:
168,136,54875,1,0,0:0:0:0:
168,136,55000,1,0,0:0:0:0:
104,320,55250,1,0,0:0:0:0:
256,216,55500,1,0,0:0:0:0:
416,336,55750,1,0,0:0:0:0:
416,336,56000,2,0,P|440:296|432:232,1,110
376,48,56500,1,0,0:0:0:0:
256,128,56750,1,0,0:0:0:0:
128,48,57000,5,0,0:0:0:0:
88,208,57250,1,0,0:0:0:0:
88,208,57375,1,0,0:0:0:0:
88,208,57500,1,0,0:0:0:0:
208,88,57750,2,0,P|152:80|112:112,1,110
232,336,58250,1,0,0:0:0:0:
280,328,58375,1,0,0:0:0:0:
312,288,58500,1,0,0:0:0:0:
168,96,58750,2,0,P|112:112|80:152,1,110
304,136,59250,1,0,0:0:0:0:
192,312,59500,1,0,0:0:0:0:
120,120,59750,6,0,P|160:96|232:120,1,110
256,136,60125,1,0,0:0:0:0:
288,168,60250,2,0,P|352:200|400:184,1,110
232,344,60750,2,0,P|183:320|161:271,1,110
368,192,61250,2,0,P|408:176|448:120,1,110
280,56,61750,2,0,P|248:40|176:48,1,110
88,272,62250,2,0,P|128:241|159:181,1,110
416,72,62750,1,0,0:0:0:0:
416,304,63000,1,0,0:0:0:0:
208,296,63750,6,0,P|152:272|136:224,1,110
352,176,64500,1,0,0:0:0:0:
384,152,64625,1,0,0:0:0:0:
424,152,64749,1,0,0:0:0:0:
208,80,64999,2,0,P|153:96|120:160,1,131.99999597168
200,304,65375,1,0,0:0:0:0:
200,304,65500,2,0,P|252:324|317:293,1,131.99999597168
432,120,66000,1,0,0:0:0:0:
392,88,66124,1,0,0:0:0:0:
344,80,66249,1,0,0:0:0:0:
144,64,66500,6,0,P|64:96|48:144,1,131.99999597168
136,280,66875,1,0,0:0:0:0:
136,280,67000,2,0,P|200:312|256:272,1,131.99999597168
304,144,67375,1,0,0:0:0:0:
232,120,67500,2,0,L|171:87,2,65.9999979858399,0|0|0,0:0|0:0|0:0,0:0:0:0:
248,192,67875,2,0,L|208:256,2,65.9999979858399,0|0|0,0:0|0:0|0:0,0:0:0:0:
328,216,68250,2,0,L|408:264,1,65.9999979858399
432,216,68500,2,0,P|484:161|488:105,1,131.99999597168
304,120,69000,2,0,P|239:58|188:55,1,131.99999597168
104,96,69375,1,0,0:0:0:0:
232,176,69750,2,0,L|168:256,1,65.9999979858399
112,232,70000,1,0,0:0:0:0:
64,168,70125,1,0,0:0:0:0:
104,96,70250,1,0,0:0:0:0:
176,72,70375,6,0,P|250:41|360:80,1,197.99999395752
400,176,70875,1,0,0:0:0:0:
388,224,71000,2,0,P|344:273|279:282,1,131.99999597168
200,280,71375,1,0,0:0:0:0:
200,280,71750,2,0,L|152:344,1,65.9999979858399
208,192,72000,1,0,0:0:0:0:
216,96,72125,2,0,L|264:32,1,65.9999979858399
408,320,72500,2,0,B|448:296|467:264|467:264|456:192,1,131.99999597168
432,120,72875,1,0,0:0:0:0:
336,72,73000,2,0,P|282:101|251:155,1,124.666669044495
368,296,73375,6,0,B|344:248|344:248|332:244,1,65.9999979858399
248,160,73625,2,0,B|236:163|236:163|212:211,1,65.9999979858399
96,256,73875,1,0,0:0:0:0:
96,256,74000,2,0,L|154:279|217:303,1,131.99999597168
368,312,74500,6,0,L|424:256,1,65.9999979858399
272,216,74750,1,0,0:0:0:0:
144,64,75000,2,0,P|216:48|272:80,1,131.99999597168
352,184,75500,2,0,L|424:136,2,65.9999979858399,0|0|0,0:0|0:0|0:0,0:0:0:0:
232,168,75875,1,0,0:0:0:0:
232,168,76000,2,0,L|165:131,1,65.9999979858399,0|0,0:0|0:0,0:0:0:0:
176,240,76250,2,0,L|233:271,1,65.9999979858399,0|0,0:0|0:0,0:0:0:0:
304,336,76500,6,0,P|371:350|426:318,1,131.99999597168
368,152,77000,2,0,P|304:96|256:104,1,131.99999597168
96,72,77500,2,0,L|56:144,1,65.9999979858399
112,256,77750,2,0,L|144:198,1,65.9999979858399
280,88,78000,1,0,0:0:0:0:
352,104,78125,1,0,0:0:0:0:
416,152,78250,2,0,L|448:200,1,55,0|0,0:0|0:0,0:0:0:0:
368,280,78750,2,0,L|328:328,1,55
240,272,79250,2,0,L|200:320,1,55
144,80,79750,6,0,P|72:128|56:160,1,110
80,256,80125,2,0,L|144:216,1,55
328,264,80500,1,0,0:0:0:0:
152,264,80750,1,0,0:0:0:0:
328,264,81000,2,0,P|272:216|216:200,1,131.99999597168
64,216,81375,1,0,0:0:0:0:
64,216,81500,2,0,P|112:272|176:280,1,131.99999597168
344,272,82000,5,0,0:0:0:0:
344,208,82125,1,0,0:0:0:0:
344,144,82250,1,0,0:0:0:0:
192,56,82500,2,0,P|208:96|240:184,1,131.99999597168
238,179,82875,1,0,0:0:0:0:
238,179,83000,1,0,0:0:0:0:
304,312,83250,1,0,0:0:0:0:
120,336,83500,2,0,P|138:262|186:230,1,131.99999597168
256,256,83875,2,0,L|328:232,1,65.9999979858399
368,168,84125,1,0,0:0:0:0:
328,128,84250,1,0,0:0:0:0:
280,104,84375,1,0,0:0:0:0:
224,96,84500,6,0,P|144:88|96:104,1,110
312,296,85000,1,0,0:0:0:0:
88,216,85250,1,0,0:0:0:0:
112,168,85375,1,0,0:0:0:0:
144,128,85500,1,0,0:0:0:0:
336,80,85750,2,0,L|336:24,1,55
344,256,86000,2,0,L|384:304,1,55
312,152,86250,2,0,L|262:177,1,55
120,128,86500,6,0,P|96:184|88:240,1,110
104,288,87125,1,0,0:0:0:0:
152,320,87250,1,0,0:0:0:0:
208,328,87375,1,0,0:0:0:0:
264,320,87500,1,0,0:0:0:0:
312,288,87625,1,0,0:0:0:0:
344,240,87750,1,0,0:0:0:0:
320,120,88000,1,0,0:0:0:0:
176,256,88250,1,0,0:0:0:0:
288,224,88500,5,0,0:0:0:0:
256,192,88625,1,0,0:0:0:0:
224,160,88750,1,0,0:0:0:0:
80,104,89000,2,0,P|130:56|216:48,1,131.99999597168
440,80,89500,2,0,L|416:144,1,65.9999979858399
272,224,89750,2,0,L|295:162,1,65.9999979858399
416,304,90000,1,0,0:0:0:0:
416,304,90125,2,0,L|344:304,1,65.9999979858399
192,296,90500,5,0,0:0:0:0:
192,296,90625,1,0,0:0:0:0:
192,296,90750,2,0,P|131:255|105:203,1,131.99999597168
392,192,91250,5,0,0:0:0:0:
256,280,91500,1,0,0:0:0:0:
120,192,91750,1,0,0:0:0:0:
120,192,91875,2,0,P|120:224|136:264,1,65.9999979858399
319,250,92125,2,0,L|264:216,1,65.9999979858399
176,104,92375,1,0,0:0:0:0:
177,102,92500,2,0,P|238:78|304:80,1,131.99999597168
416,248,93000,2,0,P|396:297|322:311,1,131.99999597168
144,224,93500,2,0,P|96:248|48:296,1,110
152,320,94250,1,0,0:0:0:0:
256,176,94500,6,0,L|304:152,1,36.6666666666667
280,200,94666,2,0,L|328:176,1,36.6666666666667
304,224,94833,2,0,L|352:200,4,36.6666666666667,0|0|0|0|0,0:0|0:0|0:0|0:0|0:0,0:0:0:0:
128,176,95500,1,0,0:0:0:0:
128,176,96000,2,0,P|80:200|75:265,1,110
96,136,112750,6,0,L|32:192,1,73.3333333333333
64,240,113000,2,0,L|136:264,1,73.3333333333333
192,280,113250,2,0,L|179:200,1,73.3333333333333
216,160,113500,2,0,L|329:129,1,110
448,120,114000,2,0,P|466:167|448:230,1,110
288,328,114500,2,0,P|296:270|333:225,1,110
448,200,115000,1,0,0:0:0:0:
456,64,115250,2,0,L|352:144,1,110
152,232,115750,1,0,0:0:0:0:
216,232,115875,1,0,0:0:0:0:
280,232,116000,1,0,0:0:0:0:
152,328,116250,5,0,0:0:0:0:
96,328,116375,1,0,0:0:0:0:
40,328,116500,1,0,0:0:0:0:
160,200,116750,1,0,0:0:0:0:
240,128,117000,1,0,0:0:0:0:
160,56,117250,1,0,0:0:0:0:
80,128,117500,1,0,0:0:0:0:
160,56,117750,1,0,0:0:0:0:
160,208,118000,5,0,0:0:0:0:
160,208,118250,2,0,L|99:299,1,110
216,304,118750,1,0,0:0:0:0:
256,336,118875,1,0,0:0:0:0:
304,352,119000,1,0,0:0:0:0:
440,328,119250,2,0,L|328:264,1,110,0|0,0:0|0:0,0:0:0:0:
184,200,119750,1,0,0:0:0:0:
224,168,119875,1,0,0:0:0:0:
272,152,120000,1,0,0:0:0:0:
416,120,120250,1,0,0:0:0:0:
304,64,120500,6,0,L|194:62,1,110
160,248,121000,1,0,0:0:0:0:
96,144,121250,2,0,L|32:176,2,55,0|0|0,0:0|0:0|0:0,0:0:0:0:
96,144,121750,1,0,0:0:0:0:
320,64,122000,2,0,P|368:96|392:168,1,110
390,141,122500,1,0,0:0:0:0:
192,328,122750,2,0,P|144:288|120:232,1,110
184,56,123250,2,0,P|237:47|290:62,1,110
384,240,123750,5,0,0:0:0:0:
344,208,123875,1,0,0:0:0:0:
296,200,124000,1,0,0:0:0:0:
136,128,124250,2,0,P|80:184|64:216,1,110
216,344,124750,2,0,P|288:320|328:280,1,110
424,96,125500,1,0,0:0:0:0:
448,136,125625,1,0,0:0:0:0:
448,184,125750,2,0,L|408:256,1,55
352,288,126000,2,0,L|241:216,1,110
328,128,126500,1,0,0:0:0:0:
176,264,126750,5,0,0:0:0:0:
176,264,126875,1,0,0:0:0:0:
176,264,127000,1,0,0:0:0:0:
192,136,127250,1,0,0:0:0:0:
280,296,127500,1,0,0:0:0:0:
72,224,127750,1,0,0:0:0:0:
72,224,127875,1,0,0:0:0:0:
72,224,128000,1,0,0:0:0:0:
192,80,128250,1,0,0:0:0:0:
352,64,128500,1,0,0:0:0:0:
464,192,128750,2,0,B|429:233|429:233|373:241,1,110
256,184,129250,1,0,0:0:0:0:
138,142,129500,2,0,B|82:150|82:150|48:192,1,110
200,64,130000,6,0,P|256:41|301:63,1,110
480,192,130500,2,0,L|370:192,1,110
312,336,131000,2,0,P|262:317|221:265,1,110
176,104,131500,2,0,B|141:62|141:62|85:54,1,110
56,176,132000,1,0,0:0:0:0:
144,264,132250,2,0,B|196:241|196:241|218:193,1,110,0|0,0:0|0:0,3:0:0:0:
152,80,132750,5,0,0:0:0:0:
256,192,133000,1,0,0:0:0:0:
152,80,133250,1,0,0:0:0:0:
48,192,133500,1,0,0:0:0:0:
152,304,133750,1,0,0:0:0:0:
152,80,134000,1,0,0:0:0:0:
256,192,134250,2,0,P|314:190|358:151,1,110
248,64,134750,5,0,0:0:0:0:
248,64,134875,1,0,0:0:0:0:
248,64,135000,1,0,0:0:0:0:
72,56,135250,1,0,0:0:0:0:
72,192,135500,1,0,0:0:0:0:
248,64,135750,1,0,0:0:0:0:
449,90,136000,2,0,P|457:144|432:192,1,110
256,48,136500,1,0,0:0:0:0:
256,352,136750,1,0,0:0:0:0:
72,72,137000,5,0,0:0:0:0:
168,152,137250,1,0,0:0:0:0:
216,152,137375,1,0,0:0:0:0:
256,184,137500,1,0,0:0:0:0:
144,256,137750,2,0,P|88:248|48:280,1,110
256,328,138250,2,0,P|308:336|351:304,1,110
328,144,138750,2,0,P|285:181|284:232,1,110
424,296,139250,1,0,0:0:0:0:
448,256,139375,1,0,0:0:0:0:
448,208,139500,1,0,0:0:0:0:
328,88,139750,6,0,P|368:64|440:88,1,110
424,264,140250,2,0,P|367:265|312:224,1,110
144,320,140750,1,0,0:0:0:0:
144,320,140875,1,0,0:0:0:0:
144,320,141000,1,0,0:0:0:0:
288,232,141250,1,0,0:0:0:0:
216,64,141500,1,0,0:0:0:0:
112,184,141750,2,0,P|64:204|40:264,1,110
200,264,142250,2,0,B|240:312|256:312|312:256|328:256|400:312,1,220
376,224,143000,6,0,L|416:184,1,55
464,128,143250,1,0,0:0:0:0:
328,72,143500,1,0,0:0:0:0:
304,56,143625,1,0,0:0:0:0:
160,80,143875,1,0,0:0:0:0:
136,56,144000,1,0,0:0:0:0:
64,136,144250,1,0,0:0:0:0:
64,136,144500,2,0,P|90:86|144:64,1,110
208,264,145000,2,0,P|176:304|120:328,1,110
96,80,145500,2,0,P|148:55|208:56,1,110
160,224,146000,6,0,L|82:301,1,110
280,304,146500,2,0,L|360:224,1,110
456,72,146875,1,0,0:0:0:0:
456,72,147000,2,0,P|408:56|336:72,1,110
272,160,147375,1,0,0:0:0:0:
272,160,147500,2,0,P|328:176|376:160,1,110
176,96,148000,1,0,0:0:0:0:
336,96,148250,2,0,P|387:72|440:48,1,110
136,192,148750,2,0,P|85:173|33:190,1,110
376,192,149250,2,0,P|426:210|480:192,1,110
136,192,149750,6,0,P|88:218|68:269,1,110
376,192,150250,2,0,P|417:159|431:103,1,110
384,312,150750,1,0,0:0:0:0:
384,312,150875,1,0,0:0:0:0:
384,312,151000,1,0,0:0:0:0:
224,256,151250,1,0,0:0:0:0:
288,104,151500,1,0,0:0:0:0:
432,208,151750,1,0,0:0:0:0:
432,208,152000,2,0,P|456:168|448:104,1,110
168,56,152500,5,0,0:0:0:0:
256,192,152750,1,0,0:0:0:0:
64,192,153000,1,0,0:0:0:0:
168,320,153250,1,0,0:0:0:0:
168,320,153375,1,0,0:0:0:0:
168,320,153500,1,0,0:0:0:0:
408,256,153750,2,0,P|352:248|312:280,1,110
272,192,154250,2,0,P|320:160|336:112,1,110
144,96,154750,2,0,P|88:112|72:160,1,110
173,305,155250,5,0,0:0:0:0:
223,294,155375,1,0,0:0:0:0:
256,256,155500,1,0,0:0:0:0:
336,104,155750,2,0,P|376:80|448:104,1,110
464,184,156125,1,0,0:0:0:0:
392,232,156250,2,0,P|338:237|293:207,1,110
144,240,156750,2,0,P|120:288|144:336,1,110
360,144,157250,2,0,P|384:88|352:48,1,110
144,240,157750,2,0,P|120:288|144:336,1,110
360,144,158250,6,0,P|384:88|352:48,1,110
120,80,158750,1,0,0:0:0:0:
120,80,159000,1,0,0:0:0:0:
120,80,159250,1,0,0:0:0:0:
112,272,159750,6,0,P|156:241|209:248,1,110
328,64,160500,1,0,0:0:0:0:
448,128,160750,1,0,0:0:0:0:
240,72,161000,2,0,P|272:128|336:136,1,131.99999597168
360,216,161375,1,0,0:0:0:0:
360,216,161500,2,0,P|408:232|424:312,1,131.99999597168
288,312,162000,1,0,0:0:0:0:
288,312,162125,1,0,0:0:0:0:
160,320,162375,1,0,0:0:0:0:
160,320,162500,2,0,P|123:236|124:195,1,131.99999597168
184,96,162875,5,0,0:0:0:0:
184,96,163000,2,0,P|254:57|314:75,1,131.99999597168
432,136,163500,1,0,0:0:0:0:
424,160,163625,1,0,0:0:0:0:
416,184,163729,2,0,P|386:231|356:246,1,82.4999974822999
256,336,164000,2,0,P|272:280|264:248,1,65.9999979858399
200,184,164250,2,0,P|181:219|192:272,1,65.9999979858399
168,320,164500,2,0,P|104:330|52:292,1,131.99999597168
72,88,165000,2,0,P|136:80|192:120,1,131.99999597168
189,116,165375,5,0,0:0:0:0:
192,336,165750,1,0,0:0:0:0:
192,336,166000,1,0,0:0:0:0:
240,328,166125,1,0,0:0:0:0:
288,312,166250,1,0,0:0:0:0:
336,296,166375,1,0,0:0:0:0:
376,272,166500,2,0,P|432:224|448:160,1,131.99999597168
304,48,167000,2,0,P|240:74|201:125,1,131.99999597168
201,125,167375,1,0,0:0:0:0:
264,320,167750,5,0,0:0:0:0:
304,296,167875,1,0,0:0:0:0:
328,256,168000,2,0,L|360:176,2,65.9999979858399,0|0|0,0:0|0:0|0:0,0:0:0:0:
128,160,168500,2,0,P|208:136|248:96,1,131.99999597168
336,296,169000,2,0,P|272:264|248:200,1,131.99999597168
368,80,169500,1,0,0:0:0:0:
368,80,169625,2,0,L|441:26,2,65.9999979858399,0|0|0,0:0|0:0|0:0,0:0:0:0:
400,176,170000,2,0,P|397:240|350:284,1,131.99999597168
224,248,170500,5,0,0:0:0:0:
264,216,170625,1,0,0:0:0:0:
296,176,170750,1,0,0:0:0:0:
224,72,171000,2,0,P|296:56|352:80,1,131.99999597168
288,168,171500,2,0,L|304:240,1,65.9999979858399
168,288,171750,2,0,L|224:240,1,65.9999979858399
136,200,172000,2,0,L|80:152,2,65.9999979858399,0|0|0,0:0|0:0|0:0,0:0:0:0:
328,296,172500,6,0,P|384:336|448:304,1,131.99999597168
472,88,173000,2,0,P|424:40|352:48,1,131.99999597168
128,208,173500,2,0,P|104:288|208:280,1,220
288,176,174250,2,0,L|320:152,4,27.5,0|0|0|0|0,0:0|0:0|0:0|0:0|0:0,0:0:0:0:
432,128,175000,1,0,0:0:0:0:
312,64,175250,1,0,0:0:0:0:
208,136,175500,1,0,0:0:0:0:
120,64,175750,2,0,P|48:112|32:144,1,110
40,176,176125,1,0,0:0:0:0:
64,216,176250,1,0,0:0:0:0:
192,328,176500,5,0,0:0:0:0:
304,328,176750,1,0,0:0:0:0:
464,240,177000,2,0,P|408:208|336:240,1,131.99999597168
272,272,177375,1,0,0:0:0:0:
208,328,177500,2,0,P|146:347|91:315,1,131.99999597168
61,143,178000,1,0,0:0:0:0:
102,114,178125,1,0,0:0:0:0:
145,92,178250,1,0,0:0:0:0:
191,78,178375,1,0,0:0:0:0:
240,72,178500,2,0,P|304:57|369:67,1,131.99999597168
442,202,179000,5,0,0:0:0:0:
416,244,179125,1,0,0:0:0:0:
384,279,179250,1,0,0:0:0:0:
346,309,179375,1,0,0:0:0:0:
304,336,179500,2,0,P|239:339|182:281,1,131.99999597168
264,240,179875,2,0,L|328:208,2,65.9999979858399,0|0|0,0:0|0:0|0:0,0:0:0:0:
232,208,180250,1,0,0:0:0:0:
192,176,180375,1,0,0:0:0:0:
144,176,180500,2,0,P|64:168|16:184,1,110
128,296,181000,1,0,0:0:0:0:
256,328,181250,1,0,0:0:0:0:
256,328,181375,1,0,0:0:0:0:
400,288,181750,2,0,L|464:264,1,55
312,232,182000,2,0,L|260:251,1,55
88,272,182375,6,0,B|128:272|128:208|80:208|80:160|112:160,1,137.5
192,88,183125,1,0,0:0:0:0:
272,64,183250,1,0,0:0:0:0:
352,96,183375,1,0,0:0:0:0:
288,240,183750,2,0,L|304:176,1,65.9999979858399
416,72,184000,2,0,L|456:136,1,65.9999979858399
288,48,184250,2,0,L|232:48,1,49.4999984893799
88,144,184500,5,0,0:0:0:0:
88,144,184750,1,0,0:0:0:0:
192,96,185000,2,0,P|136:56|64:56,1,131.99999597168
88,144,185375,1,0,0:0:0:0:
40,216,185500,2,0,P|88:272|144:272,1,131.99999597168
192,96,186000,1,0,0:0:0:0:
152,72,186125,1,0,0:0:0:0:
104,72,186250,1,0,0:0:0:0:
40,216,186500,2,0,P|91:256|155:270,1,131.99999597168
304,296,187000,5,0,0:0:0:0:
256,184,187250,1,0,0:0:0:0:
208,80,187500,6,0,P|272:40|325:57,1,131.99999597168
384,112,187875,2,0,L|456:112,2,65.9999979858399,0|0|0,0:0|0:0|0:0,0:0:0:0:
304,112,188250,1,0,0:0:0:0:
448,288,188500,2,0,P|392:280|352:240,1,110
336,88,189000,2,0,P|280:64|224:72,1,110
72,112,189500,2,0,B|115:173|115:173|145:140|196:201|196:201|253:206,1,220
336,312,190250,2,0,B|344:360|392:352|424:304|376:272|384:232|416:200|456:240,1,220
392,72,191500,2,0,P|336:72|280:136,1,131.99999597168
280,312,192000,2,0,P|341:292|377:238,1,131.99999597168
464,56,192500,5,0,0:0:0:0:
368,208,193000,1,0,0:0:0:0:
256,56,193500,1,0,0:0:0:0:
152,208,194000,5,0,0:0:0:0:
80,320,194250,1,0,0:0:0:0:
224,320,194500,1,0,0:0:0:0:
336,184,195000,1,0,0:0:0:0:
184,64,195500,1,0,0:0:0:0:
376,48,195875,1,0,0:0:0:0:
376,48,196000,1,0,0:0:0:0:
456,152,196250,1,0,0:0:0:0:
296,152,196500,1,0,0:0:0:0:
184,64,196750,5,0,0:0:0:0:
136,48,196875,1,0,0:0:0:0:
88,64,197000,1,0,0:0:0:0:
72,208,197250,1,0,0:0:0:0:
120,224,197375,1,0,0:0:0:0:
168,208,197500,1,0,0:0:0:0:
376,72,197750,1,0,0:0:0:0:
328,56,197875,1,0,0:0:0:0:
280,72,198000,1,0,0:0:0:0:
296,256,198250,5,0,0:0:0:0:
400,152,198500,1,0,0:0:0:0:
184,144,198750,1,0,0:0:0:0:
136,168,198875,1,0,0:0:0:0:
96,200,199000,2,0,P|64:240|53:302,1,110
216,304,199500,1,0,0:0:0:0:
360,144,200500,1,0,0:0:0:0:
312,96,200750,2,0,L|350:57,1,55
456,200,201000,2,0,L|408:136,1,55
272,216,201250,2,0,L|336:208,1,55
384,320,201500,5,0,0:0:0:0:
248,288,201750,1,0,0:0:0:0:
240,312,201875,1,0,0:0:0:0:
176,192,202125,1,0,0:0:0:0:
168,216,202250,1,0,0:0:0:0:
192,96,202500,1,0,0:0:0:0:
88,168,202750,1,0,0:0:0:0:
200,248,203000,1,0,0:0:0:0:
88,320,203250,1,0,0:0:0:0:
256,344,203500,5,0,0:0:0:0:
256,344,203750,2,0,L|320:312,1,55
440,264,204250,1,0,0:0:0:0:
328,192,204500,1,0,0:0:0:0:
440,112,204750,1,0,0:0:0:0:
328,48,205000,1,0,0:0:0:0:
192,56,205250,5,0,0:0:0:0:
192,56,205500,2,0,P|160:96|144:152,1,110
88,288,206000,1,0,0:0:0:0:
224,288,206250,1,0,0:0:0:0:
296,80,206500,2,0,L|360:80,1,55
296,208,207000,2,0,L|241:208,1,55
296,80,207500,2,0,L|360:80,1,55
110,114,208125,5,0,0:0:0:0:
72,144,208250,1,0,0:0:0:0:
50,190,208375,1,0,0:0:0:0:
56,240,208500,2,0,P|109:260|182:239,1,131.99999597168
432,192,209000,1,0,0:0:0:0:
448,144,209125,1,0,0:0:0:0:
440,96,209250,1,0,0:0:0:0:
256,32,209500,1,0,0:0:0:0:
256,192,209750,5,0,0:0:0:0:
144,304,210000,1,0,0:0:0:0:
128,280,210125,2,0,L|96:216,2,65.9999979858399,0|0|0,0:0|0:0|0:0,0:0:0:0:
208,240,210500,1,0,0:0:0:0:
248,224,210625,1,0,0:0:0:0:
288,248,210750,1,0,0:0:0:0:
471,142,211000,5,0,0:0:0:0:
470,185,211125,1,0,0:0:0:0:
456,216,211250,2,0,P|412:282|361:284,1,131.99999597168
312,336,211625,1,0,0:0:0:0:
280,320,211750,1,0,0:0:0:0:
240,328,211875,1,0,0:0:0:0:
136,352,212000,2,0,P|115:290|141:232,1,131.99999597168
80,192,212375,1,0,0:0:0:0:
40,128,212500,2,0,P|104:120|160:168,1,131.99999597168
296,48,213000,1,0,0:0:0:0:
456,104,213250,5,0,0:0:0:0:
448,176,213375,1,0,0:0:0:0:
376,176,213500,1,0,0:0:0:0:
376,176,213750,2,0,P|368:232|360:264,1,65.9999979858399
312,248,214000,1,0,0:0:0:0:
264,248,214125,1,0,0:0:0:0:
216,240,214250,2,0,P|183:183|173:118,1,131.99999597168
72,152,214750,1,0,0:0:0:0:
248,80,215000,1,0,0:0:0:0:
296,64,215125,1,0,0:0:0:0:
344,64,215250,1,0,0:0:0:0:
384,96,215375,1,0,0:0:0:0:
256,192,215750,6,0,P|205:198|179:211,1,65.9999979858399
104,320,216000,2,0,P|136:316|167:304,1,65.9999979858399
256,192,216250,1,0,0:0:0:0:
416,72,216500,1,0,0:0:0:0:
416,72,216625,1,0,0:0:0:0:
416,72,216750,1,0,0:0:0:0:
312,80,217000,2,0,P|360:122|360:186,1,131.99999597168
96,128,217500,1,0,0:0:0:0:
80,168,217625,1,0,0:0:0:0:
80,216,217750,1,0,0:0:0:0:
96,256,217875,1,0,0:0:0:0:
115,291,218000,2,0,P|153:329|235:344,1,131.99999597168
320,336,218500,6,0,L|384:288,1,65.9999979858399
232,208,218750,1,0,0:0:0:0:
224,72,219000,2,0,P|296:56|352:80,1,131.99999597168
304,208,219500,1,0,0:0:0:0:
288,192,219625,1,0,0:0:0:0:
272,176,219750,1,0,0:0:0:0:
112,288,220000,2,0,L|64:232,2,55,0|0|0,0:0|0:0|0:0,0:0:0:0:
288,280,220500,6,0,P|344:320|384:312,1,110
224,96,221000,2,0,P|176:48|128:48,1,110
424,304,221500,2,0,L|392:248,1,55
288,120,221750,2,0,L|328:184,1,55
248,288,222000,2,0,L|216:240,1,55
240,96,222250,6,0,P|332:145|422:90,1,220
416,256,223500,1,0,0:0:0:0:
392,272,223593,1,0,0:0:0:0:
368,280,223687,1,0,0:0:0:0:
336,288,223781,1,0,0:0:0:0:
304,288,223875,1,0,0:0:0:0:
272,288,223968,1,0,0:0:0:0:
248,280,224062,1,0,0:0:0:0:
224,264,224156,1,0,0:0:0:0:
200,248,224250,1,0,0:0:0:0:
168,224,224343,1,0,0:0:0:0:
136,200,224437,5,0,0:0:0:0:
88,128,224750,1,0,0:0:0:0:
88,128,225000,2,0,B|133:110|133:110|148:66|148:66|184:82,1,131.99999597168
256,40,225500,1,0,0:0:0:0:
328,128,225750,1,0,0:0:0:0:
160,112,226000,6,0,L|136:176,2,65.9999979858399
56,144,226500,1,0,0:0:0:0:
176,256,226750,1,0,0:0:0:0:
72,248,227000,2,0,L|48:312,2,65.9999979858399,0|0|0,0:0|0:0|0:0,0:0:0:0:
312,336,227500,1,0,0:0:0:0:
360,328,227625,1,0,0:0:0:0:
392,296,227750,1,0,0:0:0:0:
408,248,227875,1,0,0:0:0:0:
416,200,227999,2,0,L|478:222,1,65.9999979858399
424,152,228250,5,0,0:0:0:0:
408,104,228375,1,0,0:0:0:0:
392,64,228500,2,0,P|339:38|265:58,1,131.99999597168
56,96,229000,2,0,B|48:175|112:207,1,131.99999597168
136,112,229375,2,0,L|112:48,1,65.9999979858399
96,176,229750,1,0,0:0:0:0:
160,224,229875,1,0,0:0:0:0:
128,296,230000,2,0,L|256:344,1,131.99999597168
376,192,230500,6,0,L|252:145,1,131.99999597168
168,144,231000,1,0,0:0:0:0:
120,192,231125,1,0,0:0:0:0:
136,256,231250,1,0,0:0:0:0:
200,256,231375,1,0,0:0:0:0:
216,192,231500,1,0,0:0:0:0:
352,176,231750,2,0,L|384:112,1,65.9999979858399
160,272,232125,1,0,0:0:0:0:
192,304,232251,1,0,0:0:0:0:
240,312,232376,1,0,0:0:0:0:
280,304,232500,6,0,L|280:168,1,131.99999597168
432,80,233000,1,0,0:0:0:0:
448,120,233125,1,0,0:0:0:0:
432,160,233250,1,0,0:0:0:0:
264,48,233500,2,0,P|176:88|152:120,1,131.99999597168
176,248,234000,1,0,0:0:0:0:
176,248,234125,2,0,P|112:288|48:280,1,131.99999597168
56,208,234500,1,0,0:0:0:0:
56,208,234750,1,0,0:0:0:0:
64,104,235000,2,0,P|129:70|192:64,1,131.99999597168
168,184,235500,5,0,0:0:0:0:
328,88,235750,1,0,0:0:0:0:
328,88,235875,1,0,0:0:0:0:
328,88,236000,2,0,L|392:128,2,65.9999979858399,0|0|0,0:0|0:0|0:0,0:0:0:0:
176,56,236500,1,0,0:0:0:0:
176,56,236750,1,0,0:0:0:0:
72,136,237000,1,0,0:0:0:0:
232,176,237250,1,0,0:0:0:0:
80,280,237500,2,0,B|91:321|144:344|192:350|234:331|265:278,1,220
256,192,238250,12,0,239250,0:0:0:0:
104,272,239500,6,0,L|142:310,1,55
160,192,239750,2,0,L|121:153,1,55
160,72,240000,2,0,B|248:86|248:86|280:193|280:193|387:270,1,330
