osu file format v6

[General]
AudioFilename: Mika - Big Girl (You Are Beautiful).mp3
AudioLeadIn: 0
PreviewTime: 37051
Countdown: 0
SampleSet: Normal
StackLeniency: 1
Mode: 0
LetterboxInBreaks: 0
SkinPreference:Default

[Editor]
Bookmarks: 20887,53861,70413,86965,111792,128344,144896,161447,177999,186275,211102
DistanceSpacing: 0.800000011920929
BeatDivisor: 4
GridSize: 8

[Metadata]
Title:Big Girl (You Are Beautiful)
Artist:Mika
Creator:Agent Spin Here
Version:Easy
Source:
Tags:jarto

[Difficulty]
HPDrainRate:3
CircleSize:3
OverallDifficulty:4
SliderMultiplier:1.5
SliderTickRate:2

[Events]
//Background and Video events
0,0,"thumbnail.png"
//Break Periods
2,70589,86138
2,128520,141483
2,178174,185190
//Storyboard Layer 0 (Background)
//Storyboard Layer 1 (Fail)
//Storyboard Layer 2 (Pass)
//Storyboard Layer 3 (Foreground)
//Storyboard Sound Samples
//Background Colour Transformations
3,100,255,255,255

[TimingPoints]
44.4954528351051,517.241379310345,4,1,0,70,1,0

[HitObjects]
256,336,20216,5,0
80,176,21251,5,0
200,176,21768,1,8
320,176,22285,1,0
440,176,22803,1,4
256,8,23837,1,8
256,128,24354,6,0,B|256:224,1,75
376,192,25130,2,2,B|368:328|224:312|192:296,1,225,2|4
96,304,26423,5,8
48,192,26941,1,0
96,80,27458,1,8
136,192,27975,1,4
256,192,28492,6,0,B|256:96,2,75
256,248,29268,6,0,B|264:328|328:312|344:256|328:216|384:208|448:256,1,225,0|4
488,336,30561,1,8
488,216,31078,2,0,B|488:104,2,75
368,208,32113,1,4
256,152,32630,6,2,B|256:312,1,150,0|2
144,344,33665,1,8
144,224,34182,1,8
256,152,34699,6,2,B|256:312,1,150,0|2
368,344,35734,1,8
368,224,36251,2,0,B|456:224,3,75,12|0|0|0
448,160,37285,6,0,B|408:48|336:40|272:40|216:56|192:88|200:136|272:184|360:160|352:112|288:96,1,450,0|4
64,224,39354,6,0,B|104:336|176:344|240:344|296:328|320:296|312:248|240:200|152:224|160:272|224:288,1,450,0|4
80,168,41682,6,2,B|56:120|64:64,1,75
176,56,42458,2,0,B|264:24|336:96,2,150,0|0|8
152,144,43880,1,8
216,208,44268,1,8
216,208,44527,2,2,B|272:264|360:224,1,150
424,128,45561,5,4
480,232,46078,2,0,B|480:288|456:320|368:336|352:328,1,150
280,264,47113,2,0,B|184:272|176:312|176:368,1,150
88,344,48018,5,0
48,264,48406,1,2
48,264,48665,2,2,B|24:192|72:104,1,150,2|4
256,24,49699,5,8
256,144,50216,1,8
256,264,50734,1,8
360,200,51251,1,8
360,80,51768,6,0,B|416:56|472:32|496:120|504:200|456:240|304:144|288:312|376:392|520:384|600:328|512:72|424:280,1,600,0|6
336,192,54354,6,0,B|248:160|192:248,1,150
120,320,55389,2,0,B|48:312|16:248|16:216,1,150,0|4
200,64,56941,5,8
200,64,57458,1,8
200,64,57975,1,6
144,168,58492,6,0,B|208:224|280:224|312:216,1,150
400,208,59527,2,0,B|480:184|488:96,1,150,0|4
448,336,61078,5,8
448,336,61596,1,8
448,336,62113,1,6
328,312,62630,6,0,B|240:296|224:200,1,150
344,208,63665,2,0,B|424:176|424:80,1,150,0|4
184,48,65216,5,8
184,48,65734,1,8
184,48,66251,1,6
256,192,66510,12,4,68320
192,136,69354,5,8
320,136,69872,1,8
256,232,70389,1,4
200,72,87458,6,0,B|256:160|320:72,1,150,0|4
320,312,89010,5,8
200,312,89527,1,8
256,216,90044,1,4
376,216,90561,6,0,B|424:168|408:120|344:104,1,150
165,104,91596,2,0,B|104:120|88:168|136:216,1,150
256,240,92630,5,0
256,240,92889,1,0
256,240,93147,2,0,B|216:200|256:168|256:168|296:136|240:88,2,150,0|8|4
32,144,95216,6,0,B|72:32|144:24|208:24|264:40|288:72|280:120|208:168|120:144|128:96|192:80,1,450,0|4
448,224,97285,6,0,B|408:336|336:344|272:344|216:328|192:296|200:248|272:200|360:224|352:272|288:288,1,450,0|4
432,168,99613,6,2,B|456:120|448:64,1,75
336,56,100389,2,0,B|248:24|176:96,2,150,0|0|8
360,144,101811,1,8
296,208,102199,1,8
296,208,102458,2,2,B|240:264|152:224,1,150
88,128,103492,5,4
32,232,104009,2,0,B|32:288|56:320|144:336|160:328,1,150
232,264,105044,2,0,B|328:272|336:312|336:368,1,150
424,344,105949,5,0
464,264,106337,1,2
464,264,106596,2,2,B|488:192|440:104,1,150,2|4
256,24,107630,5,8
256,144,108147,1,8
256,264,108665,1,8
152,200,109182,1,8
152,80,109699,6,0,B|96:56|40:32|16:120|8:200|56:240|208:144|224:312|136:392|-8:384|-88:328|0:72|88:280,1,600,0|6
176,192,112285,6,0,B|264:160|320:248,1,150
392,320,113320,2,0,B|464:312|496:248|496:216,1,150,0|4
312,64,114872,5,8
312,64,115389,1,8
312,64,115906,1,6
368,168,116423,6,0,B|304:224|232:224|200:216,1,150
112,208,117458,2,0,B|32:184|24:96,1,150,0|4
64,336,119009,5,8
64,336,119527,1,8
64,336,120044,1,6
184,312,120561,6,0,B|272:296|288:200,1,150
168,208,121596,2,0,B|88:176|88:80,1,150,0|4
328,48,123147,5,8
328,48,123665,1,8
328,48,124182,1,6
256,192,124441,12,4,126251
320,136,127285,5,8
192,136,127803,1,8
256,232,128320,1,4
256,192,142803,12,4,144872
176,192,145389,6,0,B|264:224|320:136,1,150
392,64,146424,2,0,B|464:72|496:136|496:168,1,150,0|4
312,320,147976,5,8
312,320,148493,1,8
312,320,149010,1,4
368,216,149527,6,0,B|304:160|232:160|200:168,1,150
112,176,150562,2,0,B|32:200|24:288,1,150,0|4
64,48,152113,5,8
64,48,152631,1,8
64,48,153148,1,4
184,72,153665,6,0,B|272:88|288:184,1,150
168,176,154700,2,0,B|88:208|88:304,1,150,0|4
328,336,156251,5,8
328,336,156769,1,8
328,336,157286,1,4
256,192,157545,12,4,159355
320,248,160389,5,8
192,248,160907,1,8
256,136,161423,6,0,B|296:24|368:16|432:16|488:32|512:64|504:112|432:160|344:136|352:88|416:72,1,450,0|4
256,136,163492,6,0,B|216:24|144:16|80:16|24:32|0:64|8:112|80:160|168:136|160:88|96:72,1,450,0|4
256,192,165820,12,4,169699
32,152,170216,6,0,B|32:96|56:64|144:48|160:56,1,150
232,120,171251,2,0,B|328:112|336:72|336:16,1,150
424,40,172156,5,0
464,120,172544,1,2
464,120,172803,2,2,B|488:192|440:280,1,150,2|4
256,360,173837,5,8
256,240,174354,1,8
256,120,174872,1,8
152,184,175389,1,8
69,139,175906,6,0,B|0:312|-88:56|-8:0|136:-8|224:72|208:240|56:144|8:184|16:264|40:352|96:328|152:304,1,600,0|6
104,144,186510,5,2
104,144,186768,2,2,B|152:64|248:72,1,150
208,192,187803,2,2,B|240:264|360:264,1,150,2|4
432,192,188837,5,8
432,192,189354,1,8
432,192,189872,2,8,B|432:304,2,75,8|6|6
448,72,190906,6,0,B|376:24|280:72,1,150
288,176,191941,2,0,B|240:248|128:224,1,150,0|4
392,248,193492,5,8
392,248,194009,1,8
392,248,194527,6,0,B|440:160|424:72|344:40|296:32|288:168|240:160|96:80,1,450,0|4
72,200,196596,6,0,B|56:296|88:352|184:360|272:344|320:312|336:272|328:200|288:160,1,450
184,40,198923,6,6,B|136:56|96:88,1,75
40,168,199699,2,0,B|56:224|128:232|184:176,2,150,0|0|8
24,256,201122,5,8
88,320,201510,1,8
88,320,201768,1,8
208,344,202285,1,8
256,192,202932,12,4,211078
