osu file format v5

[General]
AudioFilename: Nazo.mp3
AudioLeadIn: 0
PreviewTime: -1
Countdown: 1
SampleSet: Normal
StackLeniency: 0.7
Mode: 0
EditorBookmarks: 30008,36545,88647

[Metadata]
Title:Nazo
Artist:Miho Komatsu
Creator:jmaeshawn
Version:Normal
Source:Detective Conan
Tags:

[Difficulty]
HPDrainRate:3
CircleSize:3
OverallDifficulty:3
SliderMultiplier:1
SliderTickRate:2

[Events]
//Background and Video events
0,0,"bg0.jpg"
1,0,"conanOP03.avi"
//Break Periods
2,34042,35477
2,38957,39163
//Storyboard Layer 0 (Background)
//Storyboard Layer 1 (Failing)
//Storyboard Layer 2 (Passing)
//Storyboard Layer 3 (Foreground)
//Storyboard Sound Samples
//Background Colour Transformations
3,100,0,0,0

[TimingPoints]
1698,491.521258294421,4,1,0,100

[Colours]
Combo1 : 179,179,0
Combo2 : 0,128,0
Combo3 : 0,64,128
Combo4 : 128,0,0

[HitObjects]
32,320,17426,1,0
104,264,17918,1,0
176,216,18409,2,0,B|240:216,2,50
168,136,19392,1,0
96,136,19761,1,0
96,200,20130,2,0,B|312:200,1,200
336,200,21358,6,0,B|336:-8,1,200
264,0,22587,2,0,C|208:0,3,50
216,64,23693,1,0
40,248,25045,6,0,B|72:248,2,25
264,248,26519,2,0,C|264:128,1,100
312,144,27257,2,0,B|424:144,2,100
312,72,28608,1,0
240,72,28977,1,0
192,72,29223,2,0,C|192:152,2,75
192,208,30697,6,0,B|304:208,1,100
416,264,31926,6,0,B|272:264,1,125
224,264,32909,2,0,C|48:136,1,200
256,56,37087,5,0
256,144,37579,1,0
256,232,38069,1,0
256,280,38315,1,0
168,280,38806,1,0
32,32,40773,5,0
64,64,41019,2,0,B|280:288,1,300
320,280,42740,2,0,B|415:277|449:195|416:136,1,200
416,56,44214,5,0
328,56,44706,1,0
280,56,44951,1,0
208,56,45320,1,0
136,56,45689,1,0
136,144,46180,1,0
224,144,46672,1,0
264,144,46917,2,0,C|264:344,1,200
176,344,48392,2,0,C|176:280,2,50
176,120,50112,6,0,C|112:120,4,50
264,120,51587,1,0
128,232,52570,6,0,C|288:232,2,150
72,160,54536,1,0
432,152,56502,5,0
432,152,56748,1,0
344,160,57239,1,0
256,160,57731,1,0
208,160,57977,1,0
120,160,58468,1,0
480,32,60434,5,0
448,56,60680,1,0
408,104,61049,1,0
408,168,61417,1,0
224,168,62400,1,0
224,120,62646,1,0
168,80,63015,1,0
112,48,63383,1,0
72,24,63629,1,0
72,160,64366,6,0,C|72:360,1,200
112,360,65595,2,0,C|272:360,1,150
256,192,66578,12,0,70019
96,40,70510,6,0,B|424:40,1,300
400,88,72231,1,0
400,136,72477,1,0
400,200,72845,1,0
400,264,73214,2,0,C|184:264,1,200
200,224,74443,2,0,B|268:43|368:232,1,250
360,264,75918,1,0
360,304,76164,1,0
312,304,76409,1,0
224,304,76901,1,0
8,192,78375,5,0
160,32,79604,6,0,C|160:352,1,300
200,336,81325,1,0
264,336,81693,1,0
264,264,82062,1,0
264,216,82308,1,0
264,144,82676,1,0
264,72,83045,1,0
136,112,83782,6,0,B|100:87|72:133|16:112,1,100
176,112,85011,6,0,C|231:104|281:120|320:112,1,125
424,176,85994,2,0,B|405:400|68:394|72:152,1,550
256,192,88943,12,0,93612
