osu file format v5

[General]
AudioFilename: Nazo.mp3
AudioLeadIn: 0
PreviewTime: -1
Countdown: 1
SampleSet: Normal
StackLeniency: 0.7
Mode: 0
EditorBookmarks: 88647

[Metadata]
Title:Nazo
Artist:Miho Komatsu
Creator:jmaeshawn
Version:Hard
Source:Detective Conan
Tags:

[Difficulty]
HPDrainRate:6
CircleSize:6
OverallDifficulty:6
SliderMultiplier:1.4
SliderTickRate:2

[Events]
//Background and Video events
0,0,"bg0.jpg"
1,0,"conanOP03.avi"
//Break Periods
2,34042,35987
//Storyboard Layer 0 (Background)
//Storyboard Layer 1 (Failing)
//Storyboard Layer 2 (Passing)
//Storyboard Layer 3 (Foreground)
//Storyboard Sound Samples
//Background Colour Transformations
3,100,163,162,255

[TimingPoints]
1698,491.521258294421,4,1,0,100

[Colours]
Combo1 : 179,179,0
Combo2 : 0,128,0
Combo3 : 0,0,128
Combo4 : 128,0,0

[HitObjects]
32,320,17426,1,0
80,280,17672,1,0
128,240,17918,1,0
176,200,18163,1,0
232,200,18409,2,0,B|312:200,2,70
232,136,19147,1,0
168,136,19392,1,0
80,136,19761,1,0
80,224,20130,2,0,B|312:224,1,210
352,224,21113,5,0
352,280,21360,2,0,B|112:280,1,210
32,232,22587,1,0
32,168,22833,1,0
32,104,23079,1,0
88,104,23324,1,0
176,104,23693,1,0
464,272,25045,5,0
464,272,25168,1,0
464,272,25291,1,0
184,336,26519,1,0
184,272,26765,1,0
184,208,27011,1,0
240,208,27257,2,0,B|352:208,2,105
240,144,28240,1,0
240,56,28608,1,0
152,56,28977,1,0
152,112,29223,1,0
152,200,29591,1,0
152,288,29960,1,0
184,112,30697,6,0,B|352:112,1,140
464,224,31926,5,0
432,224,32049,1,0
400,224,32172,2,0,B|288:224,1,105
208,224,32909,1,0
144,224,33155,1,0
48,224,33524,1,0
48,136,33892,1,0
256,56,37087,5,0
256,176,37579,1,0
256,296,38070,1,0
192,296,38316,1,0
312,296,38807,1,0
32,32,40773,5,0
32,32,40896,1,0
56,64,41019,2,0,B|320:328,1,350
304,248,42494,1,0
304,184,42740,1,0
344,184,42862,2,0,B|439:187|473:269|424:368,1,245
312,280,44214,5,0
208,280,44706,1,0
208,216,44951,1,0
208,112,45320,1,0
208,32,45689,1,0
344,32,46180,1,0
344,160,46672,1,0
344,224,46917,1,0
344,352,47409,1,0
216,312,47900,1,0
88,312,48269,2,0,C|88:200,1,105
88,144,48884,1,0
456,328,50112,5,0
408,288,50358,1,0
368,328,50604,1,0
328,288,50850,1,0
288,328,51095,1,0
168,328,51587,1,0
80,24,52570,5,0
120,64,52816,1,0
208,152,53307,1,0
208,280,53799,1,0
272,280,54045,1,0
344,352,54536,2,0,B|144:352,1,186.666666666667
472,152,56502,5,0
416,152,56748,1,0
272,152,57239,1,0
152,152,57731,1,0
88,152,57977,1,0
152,248,58468,1,0
32,32,60434,5,0
72,72,60680,1,0
144,136,61049,1,0
144,232,61417,1,0
392,232,62400,1,0
392,168,62646,1,0
424,80,63015,1,0
480,16,63383,1,0
480,16,63629,1,0
296,128,64366,5,0
232,128,64612,1,0
232,224,64981,1,0
328,224,65350,1,0
392,224,65595,1,0
392,320,65964,1,0
488,320,66333,1,0
256,192,66578,12,0,70018
8,56,70510,6,0,B|440:56,1,420
424,120,72231,1,0
424,184,72477,1,0
424,280,72845,1,0
328,280,73214,2,0,C|112:280,1,210
120,216,74197,5,0
184,216,74443,2,0,B|264:-10|360:248,1,280
408,216,75671,1,0
408,280,75917,1,0
344,280,76163,1,0
280,280,76409,2,0,C|136:280,1,140
440,136,78129,5,0
440,176,78252,1,0
440,176,78375,1,0
176,24,79604,6,0,C|176:360,1,315
96,352,81078,1,0
96,288,81324,1,0
96,184,81693,1,0
96,104,82061,1,0
152,104,82305,1,0
248,104,82676,1,0
328,104,83044,1,0
184,240,83782,6,0,B|328:240,1,140
168,272,85011,5,0
168,272,85134,1,0
128,272,85257,1,0
128,168,85625,1,0
80,232,85994,2,0,B|99:-64|436:-58|456:256,1,630
256,192,88697,12,4,93123
