osu file format v9

[General]
AudioFilename: Brother soul(Ryu Remix).mp3
AudioLeadIn: 0
PreviewTime: 193424
Countdown: 1
SampleSet: Soft
StackLeniency: 0.7
Mode: 0
LetterboxInBreaks: 1

[Editor]
Bookmarks: 19948,20027,31336,42016,60236,61178,73587,93921,95649
DistanceSpacing: 2
BeatDivisor: 4
GridSize: 8

[Metadata]
Title:Brother soul (Ryu* Remix)
Artist:Mihato Uesugi
Creator:ABBA
Version:Love&Peace
Source:
Tags:

[Difficulty]
HPDrainRate:8
CircleSize:4
OverallDifficulty:8
ApproachRate:9
SliderMultiplier:1.99999990463257
SliderTickRate:2

[Events]
//Background and Video events
0,0,"BG.jpg"
//Break Periods
2,63890,73456
//Storyboard Layer 0 (Background)
//Storyboard Layer 1 (Fail)
//Storyboard Layer 2 (Pass)
//Storyboard Layer 3 (Foreground)
//Storyboard Sound Samples
//Background Colour Transformations
3,100,163,162,255

[TimingPoints]
1177,314.13612565445,4,2,1,100,1,0
18927,-100,4,2,1,0,0,0
19791,-100,4,2,1,100,0,0
19942,-100,4,1,0,100,0,0
21283,-100,4,2,1,100,0,0
31336,-100,4,1,0,100,0,0
42638,-100,4,2,1,100,0,1
58974,-100,4,1,0,100,0,1
63529,-50,4,2,1,100,0,1
64006,-100,4,2,1,100,0,0
82697,-100,4,1,0,100,0,0
95413,-100,4,1,0,100,0,1
105387,-100,4,1,0,100,0,0
105466,-100,4,1,0,100,0,1
109864,-100,4,1,0,100,0,0
115518,-100,4,1,0,100,0,1
116107,-100,4,1,0,100,0,0
116618,-100,4,1,0,100,0,1
117049,-50,4,1,0,100,0,0
117089,-50,4,1,0,100,0,1
117521,-50,4,1,0,100,0,0
117560,-50,4,1,0,100,0,1
117992,-50,4,1,0,100,0,0
118031,-100,4,2,1,100,0,1
138136,-100,4,1,1,100,0,0
138921,-50,4,1,1,100,0,0
139078,-100,4,1,1,100,0,0
140178,-50,4,1,1,100,0,0
140335,-100,4,1,1,100,0,0
141434,-50,4,1,1,100,0,0
141591,-100,4,1,1,100,0,0
142691,-50,4,1,1,100,0,0

[Colours]
Combo1 : 255,174,53
Combo2 : 251,74,255
Combo3 : 0,0,0

[HitObjects]
147,135,1334,1,0
250,324,1648,1,0
439,219,1962,1,0
336,32,2276,1,0
336,144,2433,6,0,B|392:192|304:256,1,99.9999952316285,2|0
224,232,2747,2,0,B|168:184|256:120,1,99.9999952316285,2|0
400,144,3061,6,2,B|456:192|368:256,1,99.9999952316285
160,224,3375,2,2,B|104:176|192:112,1,99.9999952316285
256,192,3690,5,0
256,304,3847,1,0
441,194,4161,1,0
329,9,4475,1,0
146,118,4789,1,0
256,120,4946,6,0,B|304:64|368:152,1,99.9999952316285,2|0
344,232,5260,2,0,B|296:288|232:200,1,99.9999952316285,2|0
128,176,5574,5,2
256,120,5731,1,2
344,232,5889,1,2
480,192,6046,1,2
128,64,6360,5,0
480,320,6674,1,0
128,320,6988,1,0
480,64,7302,1,0
480,64,7459,5,2
312,320,7773,1,2
120,64,8087,5,2
224,160,8245,1,2
352,208,8402,1,2
216,216,8559,1,2
128,320,8716,1,0
128,320,8873,5,0
256,72,9187,1,0
392,320,9501,1,0
256,72,9815,1,0
256,184,9972,5,0
304,232,10129,1,0
208,232,10286,1,0
344,288,10444,1,0
168,288,10601,1,0
384,344,10758,5,2
128,344,10915,1,2
256,184,11072,1,2
256,184,11229,5,0
368,184,11386,1,0
200,317,11700,1,0
67,147,12014,1,0
235,15,12328,1,0
176,144,12485,6,0,B|120:192|208:256,1,99.9999952316285,2|0
296,224,12799,2,0,B|352:176|264:112,1,99.9999952316285,2|0
112,144,13113,6,2,B|56:192|144:256,1,99.9999952316285
360,224,13427,2,2,B|416:176|328:112,1,99.9999952316285
256,192,13742,5,0
256,304,13899,1,0
71,194,14213,1,0
183,9,14527,1,0
366,118,14841,1,0
256,120,14998,6,0,B|208:64|144:152,1,99.9999952316285,2|0
168,232,15312,2,0,B|216:288|280:200,1,99.9999952316285,2|0
256,56,15627,5,2
256,56,15784,1,2
256,296,15941,1,2
256,296,16098,1,2
256,184,16255,5,0
256,184,16412,1,0
32,184,16726,1,0
480,184,17040,1,0
32,184,17355,1,0
112,184,17512,5,2
400,184,17826,1,2
184,184,18140,5,2
328,184,18297,1,2
216,264,18454,1,2
256,128,18611,1,2
296,264,18768,1,2
256,192,18925,8,2,19711
88,192,20025,5,4
200,192,20182,1,0
312,192,20339,1,12
424,192,20496,1,0
256,96,20653,5,4
256,296,20810,1,0
256,192,20967,6,0,B|288:192|248:192,7,24.9999988079071
256,192,21281,5,0
64,192,21595,1,8
256,336,21909,1,0
448,192,22224,1,8
256,48,22538,6,0,B|192:56|192:120,1,99.9999952316285,2|0
192,240,22852,1,8
280,168,23009,1,8
280,168,23087,1,8
280,168,23166,1,8
280,320,23323,2,0,B|280:184,1,99.9999952316285,0|10
224,80,23794,6,0,B|136:-8,1,99.9999952316285,0|8
176,136,24108,2,0,B|80:40,1,99.9999952316285,0|8
128,192,24423,2,0,B|32:96,2,99.9999952316285,0|8|8
288,80,25051,6,0,B|376:-8,1,99.9999952316285,0|0
336,136,25365,2,0,B|432:40,1,99.9999952316285,8|0
384,192,25679,2,0,B|472:104,1,99.9999952316285
432,248,25993,1,8
446,233,26072,1,8
460,218,26150,1,8
474,203,26229,1,8
488,189,26307,5,12
280,376,26622,1,8
32,240,26936,1,0
200,16,27250,6,0,B|296:112,1,99.9999952316285,8|0
272,224,27564,2,0,B|168:328,1,99.9999952316285
200,168,27878,1,8
336,168,28035,1,8
384,168,28114,1,8
432,168,28192,1,8
384,24,28349,5,0
384,120,28506,1,8
384,164,28585,1,8
384,208,28663,1,8
384,253,28742,1,8
384,297,28820,5,14
272,32,29135,1,8
16,120,29449,1,0
272,32,29763,1,8
264,256,30077,6,0,B|352:144,1,99.9999952316285,0|8
304,304,30391,2,0,B|384:192,1,99.9999952316285,0|8
344,352,30705,2,8,B|384:296,1,49.9999976158143
408,256,30862,2,0,B|440:208,1,49.9999976158143,0|8
400,160,31019,2,0,B|464:72,1,99.9999952316285,8|8
456,80,31255,1,8
456,80,31334,5,4
56,80,31648,1,8
456,304,31962,1,0
56,304,32276,1,8
456,80,32590,6,0,B|312:80,1,99.9999952316285
456,184,32904,2,0,B|352:184,1,99.9999952316285,8|0
288,104,33218,2,0,B|224:104,1,49.9999976158143,8|8
288,152,33375,2,8,B|240:152,1,49.9999976158143,0|8
184,128,33533,2,8,B|64:128,1,99.9999952316285,8|10
128,256,33847,6,0,B|56:360,1,99.9999952316285
256,280,34161,2,0,B|256:392,1,99.9999952316285,8|0
384,256,34475,2,0,B|456:360,2,99.9999952316285,0|0|8
0,72,35103,6,0,B|128:72,1,99.9999952316285
144,200,35417,2,0,B|88:200,1,49.9999976158143,8|0
144,256,35574,2,0,B|96:304,1,49.9999976158143
176,320,35731,2,0,B|176:384,1,49.9999976158143
240,344,35889,2,0,B|296:400,1,49.9999976158143
304,312,36046,2,0,B|384:232,1,99.9999952316285,8|2
256,80,36360,6,0,B|176:112|280:160,1,99.9999952316285
392,144,36674,2,0,B|472:112|368:64,1,99.9999952316285,8|0
192,80,36988,6,0,B|112:112|216:160,1,99.9999952316285
456,144,37302,1,10
192,232,37616,6,0,B|112:264|216:312,1,99.9999952316285
328,296,37930,2,0,B|408:264|304:216,1,99.9999952316285,8|0
104,272,38245,6,0,B|224:272,1,99.9999952316285
204,272,38480,1,0
204,272,38559,2,0,B|312:272,1,99.9999952316285,10|0
368,272,38873,5,0
402,251,39030,1,0
421,215,39187,1,0
424,175,39344,1,0
400,96,39501,5,0
344,40,39658,1,0
264,24,39815,1,0
224,24,39893,1,0
184,32,39972,1,0
152,56,40050,1,0
128,88,40129,5,0
96,200,40286,1,0
152,304,40444,5,0
200,336,40522,1,0
256,352,40601,1,0
312,344,40679,1,0
360,312,40758,1,0
424,208,40915,5,0
424,209,40993,1,0
424,208,41072,1,0
392,72,41229,5,0
392,72,41307,1,0
392,72,41386,1,0
256,192,41464,8,0,42328
96,120,42642,6,0,B|40:176,3,49.9999976158143,8|0|0|0
96,256,42957,6,0,B|96:336,3,49.9999976158143,8|0|0|0
200,312,43271,6,0,B|264:384,3,49.9999976158143,10|0|0|0
320,304,43585,6,0,B|400:304,3,49.9999976158143,10|0|0|0
456,256,43899,6,0,B|408:208,1,49.9999976158143,8|0
456,128,44056,2,0,B|400:184,1,49.9999976158143,8|0
328,128,44213,2,0,B|376:176,1,49.9999976158143,8|0
328,256,44370,2,0,B|376:208,1,49.9999976158143,8|0
456,256,44527,6,0,B|384:192,3,49.9999976158143,8|0|8|0
456,128,44841,6,0,B|392:192,3,49.9999976158143,8|0|8|0
352,88,45156,6,0,B|318:50,3,49.9999976158143,8|0|0|0
248,120,45470,6,0,B|214:157,3,49.9999976158143,8|0|0|0
144,88,45784,6,0,B|72:24,3,49.9999976158143,8|0|0|0
40,136,46098,6,0,B|-24:208,3,49.9999976158143,8|0|0|0
80,240,46412,6,0,B|144:304,1,49.9999976158143,10|0
80,368,46569,2,0,B|115:332,1,49.9999976158143,10|0
208,368,46726,6,0,B|144:304,3,49.9999976158143,10|0|0|0
256,272,47040,6,0,B|291:236,3,49.9999976158143,8|0|8|0
360,312,47355,6,0,B|424:376,3,49.9999976158143,0|0|8|0
472,280,47669,6,0,B|536:216,1,49.9999976158143,8|0
512,144,47826,2,0,B|448:80,1,49.9999976158143,8|0
376,104,47983,2,0,B|312:168,1,49.9999976158143,8|8
336,240,48140,2,0,B|400:304,1,49.9999976158143,8|8
472,280,48297,6,0,B|536:216,3,49.9999976158143,10|0|0|0
512,144,48611,6,0,B|448:80,3,49.9999976158143,10|0|0|0
376,104,48925,6,0,B|312:168,1,49.9999976158143,8|0
248,104,49082,2,0,B|312:168,1,49.9999976158143,8|0
248,232,49239,2,0,B|312:168,1,49.9999976158143,8|8
376,232,49396,2,0,B|312:168,1,49.9999976158143,8|8
376,104,49553,6,0,B|312:168,3,49.9999976158143,10|0|10|0
248,104,49868,6,0,B|312:168,1,49.9999976158143,10|0
248,232,50025,2,0,B|312:168,1,49.9999976158143,10|0
376,232,50182,6,0,B|440:296|344:344,1,99.9999952316285,0|8
248,104,50496,6,0,B|195:54|248:8,1,99.9999952316285,0|8
248,232,50810,6,0,B|208:271|144:232,1,99.9999952316285,0|10
376,104,51124,6,0,B|414:65|480:96,1,99.9999952316285,0|10
248,232,51438,6,0,B|192:288,3,49.9999976158143,8|0|8|0
120,232,51752,6,0,B|184:296,3,49.9999976158143,8|0|0|0
120,360,52067,6,0,B|184:296,3,49.9999976158143,8|0|8|0
248,360,52381,6,0,B|212:324,3,49.9999976158143,0|0|8|0
248,232,52695,5,8
257,193,52773,1,8
278,159,52852,1,8
309,134,52930,1,8
348,128,53009,1,8
386,137,53087,1,8
417,161,53166,1,8
431,198,53245,1,8
432,240,53323,6,0,B|432:304,3,49.9999976158143,10|0|0|0
328,288,53637,6,0,B|240:288,3,49.9999976158143,10|0|0|0
176,288,53951,5,8
135,288,54030,1,8
96,280,54108,1,8
61,260,54187,1,8
37,228,54266,1,8
23,191,54344,1,8
16,152,54423,1,8
16,112,54501,1,8
16,72,54580,6,0,B|136:72,3,99.9999952316285,10|8|10|8
192,72,55208,6,0,B|280:72,3,49.9999976158143,8|0|8|0
336,120,55522,6,0,B|248:120,3,49.9999976158143,0|0|8|0
192,160,55836,6,0,B|280:160,3,49.9999976158143,0|0|8|0
336,200,56150,6,0,B|248:200,3,49.9999976158143,0|0|8|0
192,240,56464,6,0,B|264:240,1,49.9999976158143,10|0
336,280,56622,2,0,B|248:280,1,49.9999976158143,10|0
192,320,56779,6,0,B|242:320,3,49.9999976158143,10|0|0|0
336,360,57093,6,8,B|392:400|432:352,1,99.9999952316285
424,160,57407,2,0,B|376:120|328:168,1,99.9999952316285,0|8
336,360,57721,6,0,B|248:360,3,49.9999976158143,8|0|0|0
216,288,58035,6,0,B|160:232,3,49.9999976158143,8|0|0|0
112,176,58349,6,0,B|24:176,3,49.9999976158143,10|0|0|0
64,72,58663,6,0,B|64:8,3,49.9999976158143,10|0|0|0
168,16,58978,5,0
184,16,59056,1,0
208,16,59135,1,0
224,16,59213,1,0
248,16,59292,1,0
264,16,59370,1,0
288,16,59449,1,0
304,16,59527,1,0
328,16,59606,5,0
392,208,59763,1,8
232,96,59920,1,8
432,96,60077,1,8
272,208,60234,5,4
72,208,60391,1,8
232,336,60548,1,4
168,144,60705,1,8
112,336,60862,5,4
272,208,61019,1,8
472,208,61176,1,4
320,336,61334,1,8
376,144,61491,1,8
432,336,61648,1,8
272,208,61805,5,8
272,192,61883,1,8
272,168,61962,1,8
272,152,62040,1,8
272,136,62119,5,8
72,136,62276,1,8
232,256,62433,1,0
176,64,62590,1,8
112,256,62747,5,6
304,208,62904,1,6
136,320,63061,1,6
328,264,63218,1,6
416,48,63533,6,8,B|464:136|488:112|488:112|440:128|464:256,1,199.999990463257
160,88,74056,5,0
160,88,74213,2,0,B|216:88|216:88|224:80|224:80|288:80|288:80|296:88|296:88|368:88,1,199.999990463257,8|8
352,296,74684,2,0,B|296:296|296:296|288:304|288:304|224:304|224:304|216:296|216:296|144:296,1,199.999990463257,8|8
256,240,75156,6,0,B|136:240,1,99.9999952316285,8|0
264,208,75470,2,0,B|144:152,1,99.9999952316285,8|0
280,184,75784,2,0,B|208:72,1,99.9999952316285,8|0
304,176,76098,2,0,B|304:64,2,99.9999952316285,8|8|8
304,72,76569,5,0
416,72,76726,2,8,B|536:168|392:240,1,199.999990463257
232,72,77197,2,8,B|112:168|256:240,1,199.999990463257
320,152,77669,1,8
320,264,77826,1,8
416,216,77983,1,8
416,328,78140,6,8,B|552:280,1,99.9999952316285,8|10
512,184,78454,2,10,B|384:224,1,99.9999952316285
416,104,78768,2,10,B|552:56,1,99.9999952316285
416,104,79082,6,8,B|280:56,1,99.9999952316285,0|10
312,184,79396,2,8,B|176:136,1,99.9999952316285,0|10
192,280,79711,1,8
192,152,79868,1,8
192,280,80025,1,8
192,280,80182,6,0,B|248:280|248:280|256:288|256:288|320:288|320:288|328:280|328:280|400:280,1,199.999990463257,8|8
400,48,80810,2,0,B|344:48|344:48|336:40|336:40|272:40|272:40|264:48|264:48|192:48,1,199.999990463257,8|8
472,192,81438,5,8
8,312,81752,5,8
88,312,81909,5,8
120,312,81988,1,0
152,312,82067,1,8
184,304,82145,5,0
216,304,82224,1,8
248,304,82302,1,0
288,312,82381,5,8
320,312,82459,1,0
352,312,82538,1,8
376,304,82616,5,0
400,304,82695,5,0
256,48,83009,1,0
112,304,83323,1,0
400,304,83637,5,8
328,192,83794,1,8
256,304,83951,1,8
400,304,84108,6,0,B|496:200,1,99.9999952316285
336,208,84423,2,0,B|416:128,1,99.9999952316285,8|0
280,128,84737,2,0,B|360:48,1,99.9999952316285
224,48,85051,5,8
96,48,85208,1,8
448,192,85522,5,4
256,192,85679,1,4
64,192,85836,1,4
256,64,86150,5,6
256,320,86307,1,6
88,48,86622,6,0,B|88:176,1,99.9999952316285
168,48,86936,2,0,B|168:148,1,99.9999952316285,8|0
256,48,87250,2,0,B|256:184,1,99.9999952316285
336,48,87564,2,8,B|336:184,1,99.9999952316285
56,192,88035,5,0
256,192,88192,1,0
456,192,88349,1,0
256,192,88506,1,0
256,72,88663,5,2
256,312,88820,1,2
88,48,89135,5,0
88,160,89292,1,0
184,104,89449,1,8
184,216,89606,1,0
88,160,89763,2,0,B|88:272,2,99.9999952316285,0|0|8
88,160,90234,5,0
424,160,90548,1,2
88,208,90862,1,0
424,208,91176,2,0,B|424:312,2,99.9999952316285,2|0|2
256,192,91569,8,0,93847
256,192,94161,6,0,B|192:192,3,49.9999976158143
256,192,94475,2,0,B|312:192,3,49.9999976158143
256,192,94789,1,0
256,88,94946,5,0
256,288,95103,1,0
368,128,95417,5,0
368,256,95574,1,8
256,192,95731,1,0
256,192,95810,1,0
256,192,95889,1,8
320,304,96046,5,0
192,304,96203,1,8
256,192,96360,1,0
256,192,96438,1,0
256,192,96517,1,8
144,256,96674,5,0
144,128,96831,1,8
256,192,96988,1,0
208,80,97145,5,8
256,64,97224,1,8
304,80,97302,1,0
256,192,97459,1,10
368,128,97616,5,8
392,160,97695,1,8
400,192,97773,1,2
392,224,97852,1,8
368,256,97930,1,0
256,192,98087,5,8
320,304,98245,1,0
192,304,98402,1,8
256,192,98559,1,0
256,192,98637,1,0
256,192,98716,1,8
144,256,98873,5,0
144,128,99030,1,8
256,192,99187,1,0
256,192,99344,6,8,B|352:192|352:192|384:160|368:136|296:80,2,199.999990463257
256,192,100129,1,8
256,192,100286,1,8
144,128,100444,5,4
144,256,100601,1,8
256,192,100758,1,0
256,192,100836,1,0
256,192,100915,1,8
192,304,101072,5,0
320,304,101229,1,8
256,192,101386,1,0
256,192,101464,1,0
256,192,101543,1,8
368,256,101700,5,0
368,128,101857,1,8
256,192,102014,1,0
320,80,102171,5,8
192,80,102328,1,0
256,192,102485,1,8
256,192,102564,1,0
256,192,102642,1,0
144,128,102800,5,8
144,256,102957,1,0
256,192,103114,1,8
256,192,103428,5,8
256,192,103742,5,8
192,304,103899,1,8
320,304,104056,1,8
256,192,104213,6,0,B|384:192,1,99.9999952316285,0|8
256,192,104527,2,0,B|152:192,1,99.9999952316285,0|8
256,192,104841,2,0,B|256:296,3,99.9999952316285,0|8|8|8
448,128,105470,6,0,B|448:240,1,99.9999952316285,0|8
448,40,105784,1,0
448,40,105862,1,0
448,40,105941,1,8
352,128,106098,6,0,B|352:240,1,99.9999952316285,0|8
352,40,106412,1,0
352,40,106490,1,0
352,40,106569,1,8
264,128,106726,6,0,B|264:240,1,99.9999952316285,0|8
264,40,107040,1,0
264,40,107118,1,0
264,40,107197,6,8,B|160:40,1,99.9999952316285,8|0
160,40,107433,1,0
160,40,107512,2,0,B|160:168,1,99.9999952316285,8|0
80,40,107826,1,8
80,168,107983,5,0
192,104,108140,1,8
192,232,108297,1,0
304,168,108454,1,8
296,296,108611,2,0,B|344:368|400:256,3,99.9999952316285,0|8|0|8
376,168,109239,6,4,B|376:72|312:96|312:96|312:32|240:48,1,199.999990463257
264,48,109711,1,0
72,240,110025,5,0
176,320,110182,1,8
256,216,110339,1,0
336,320,110496,1,8
448,248,110653,5,4
256,216,110810,1,12
72,240,110967,1,4
312,168,111438,6,8,B|221:77,1,99.9999952316285
204,218,111752,2,0,B|300:314,1,99.9999952316285
240,96,112067,5,8
274,288,112224,1,0
72,192,112538,5,0
256,120,112695,1,8
440,192,112852,1,0
256,192,113009,8,0,113951
104,168,114108,5,0
224,168,114423,5,0
344,168,114737,5,0
224,328,114894,2,0,B|88:328,3,99.9999952316285
8,328,115522,5,4
256,16,115836,5,8
504,328,116150,5,4
104,328,116464,5,8
192,144,116622,6,6,B|224:88|256:160|256:160|304:80|336:160,1,199.999990463257
333,148,117093,2,4,B|256:232|256:232|184:136,1,199.999990463257,8|2
256,80,117564,6,0,B|256:280,1,199.999990463257
256,344,118035,6,0,B|200:400,3,49.9999976158143,8|0|0|0
160,296,118350,6,0,B|80:296,3,49.9999976158143,8|0|0|0
112,192,118664,6,0,B|40:128,3,49.9999976158143,10|0|0|0
152,96,118978,6,0,B|152:16,3,49.9999976158143,10|0|0|0
256,40,119292,6,0,B|312:-16,3,49.9999976158143,8|0|0|0
352,88,119607,6,0,B|432:88,3,49.9999976158143,8|0|0|0
392,192,119921,6,0,B|464:256,3,49.9999976158143,10|0|0|0
352,288,120235,6,0,B|352:368,3,49.9999976158143,10|0|0|0
256,288,120548,6,0,B|200:344,1,49.9999976158143,8|0
200,248,120705,6,0,B|120:248,1,49.9999976158143,8|0
176,176,120862,6,0,B|112:128,1,49.9999976158143,8|0
208,112,121019,6,0,B|208:24,1,49.9999976158143,8|0
272,96,121176,6,0,B|328:40,1,49.9999976158143,8|0
328,136,121333,6,0,B|408:136,1,49.9999976158143,8|0
344,200,121490,6,0,B|400:256,1,49.9999976158143,8|0
320,264,121647,6,0,B|320:352,1,49.9999976158143,8|0
256,288,121805,5,8
256,272,121883,1,8
256,248,121962,1,8
256,232,122040,1,8
256,216,122119,1,8
256,200,122197,1,8
256,184,122276,1,8
256,168,122355,1,8
256,152,122433,6,0,B|256:32,1,99.9999952316285,8|8
56,56,122747,2,0,B|56:176,1,99.9999952316285,8|8
56,320,123061,6,0,B|112:376,3,49.9999976158143,8|0|0|0
168,288,123376,6,0,B|203:252,3,49.9999976158143,8|0|0|0
280,320,123690,6,0,B|344:392,3,49.9999976158143,10|0|0|0
392,288,124004,6,0,B|432:248,3,49.9999976158143,10|0|0|0
456,224,124318,5,8
477,190,124396,1,8
480,152,124475,1,8
480,112,124553,1,8
480,72,124632,6,8,B|376:72,1,99.9999952316285
308,258,124946,5,8
156,130,125103,1,8
356,130,125260,1,8
204,258,125417,1,8
256,64,125574,2,0,B|392:64,1,99.9999952316285,8|8
200,192,125889,6,0,B|200:56,1,99.9999952316285,0|8
256,288,126203,6,0,B|120:288,1,99.9999952316285,0|8
336,192,126517,6,0,B|336:328,1,99.9999952316285,0|8
256,112,126831,6,0,B|176:112,3,49.9999976158143,8|0|0|0
200,192,127145,6,0,B|150:192,3,49.9999976158143,8|0|0|0
152,272,127459,6,8,B|48:272,3,99.9999952316285,8|8|0|8
200,320,128087,5,8
240,320,128166,1,8
279,314,128245,1,8
317,302,128323,1,8
350,280,128402,1,8
371,246,128480,1,8
384,208,128559,1,8
384,168,128637,1,8
384,128,128716,6,0,B|432:80,3,49.9999976158143,8|0|0|0
488,168,129030,6,0,B|432:224,3,49.9999976158143,8|0|0|0
424,224,129344,5,8
392,248,129423,1,8
356,266,129501,1,8
316,274,129580,1,8
276,274,129658,1,8
237,262,129737,1,8
202,242,129815,1,8
169,218,129894,1,8
144,192,129972,6,8,B|40:88,3,99.9999952316285,8|8|8|8
208,120,130601,5,8
248,120,130679,1,8
288,120,130758,1,8
328,120,130836,1,8
368,120,130915,6,0,B|418:120,3,49.9999976158143,8|0|8|0
416,80,131229,5,8
376,80,131307,1,8
336,80,131386,1,8
296,80,131464,1,8
256,80,131543,6,0,B|206:80,3,49.9999976158143,8|0|8|0
168,80,131857,6,8,B|24:80,1,99.9999952316285
160,176,132171,2,0,B|136:240|40:216,1,99.9999952316285,8|0
208,240,132485,2,8,B|144:280|160:352,1,99.9999952316285
280,280,132800,2,0,B|288:208|376:208,1,99.9999952316285,0|8
376,336,133114,6,0,B|411:300,3,49.9999976158143,8|0|0|0
472,224,133428,6,0,B|472:168,3,49.9999976158143,8|0|0|0
472,72,133742,5,8
255,196,134056,5,8
254,195,134370,22,14,B|221:178|215:116|207:90|131:112|146:140|175:219|256:270|256:270|329:219|349:145|377:131|359:113|295:92|304:136|249:210,1,599.999971389771
40,128,135627,5,12
144,216,135784,1,8
144,352,135941,1,12
224,240,136098,1,8
360,240,136255,1,12
248,160,136412,1,8
248,24,136569,1,12
168,136,136726,1,8
256,192,136883,8,0,137826
80,192,138140,5,0
264,112,138297,1,0
120,256,138454,1,0
296,168,138611,1,0
144,96,138925,22,0,B|168:136|168:136|184:144|184:144|216:216|216:216|216:240|216:240|248:320,1,199.999990463257,8|8
432,192,139396,21,0
248,112,139553,1,0
392,256,139710,1,0
216,168,139867,1,0
368,96,140182,6,0,B|344:136|344:136|328:144|328:144|296:216|296:216|296:240|296:240|264:320,1,199.999990463257,8|8
216,128,140653,5,0
352,264,140810,1,0
160,264,140967,1,0
296,128,141124,1,0
256,80,141438,22,8,B|256:304,1,199.999990463257
256,80,141909,21,0
256,280,142067,1,0
424,192,142224,2,0,B|480:192,3,49.9999976158143
184,112,142695,6,8,B|208:224|384:296,1,199.999990463257
304,136,143009,2,0,B|264:200|136:240,1,199.999990463257,8|4
