osu file format v9

[General]
AudioFilename: 07 miguel bose - estuve a punto de.mp3
AudioLeadIn: 0
PreviewTime: 1926
Countdown: 0
SampleSet: Normal
StackLeniency: 0.5
Mode: 0
LetterboxInBreaks: 1

[Editor]
DistanceSpacing: 0.7
BeatDivisor: 4
GridSize: 4

[Metadata]
Title:Estuve a Punto De
Artist:Miguel Bose
Creator:Revengexsoyah
Version:Normal
Source:
Tags:eldnl

[Difficulty]
HPDrainRate:2
CircleSize:3
OverallDifficulty:3
ApproachRate:3
SliderMultiplier:1.2
SliderTickRate:2

[Events]
//Background and Video events
0,0,"Vector_by_mushir.png"
//Break Periods
2,58045,64605
//Storyboard Layer 0 (Background)
//Storyboard Layer 1 (Fail)
//Storyboard Layer 2 (Pass)
//Storyboard Layer 3 (Foreground)
//Storyboard Sound Samples
//Background Colour Transformations
3,100,163,162,255

[TimingPoints]
1795,500,4,1,0,50,1,0
25545,-100,4,1,0,50,0,1
33545,-100,4,1,0,50,0,0
49545,-100,4,1,0,50,0,1
57545,-100,4,1,0,50,0,0
82545,-100,4,1,0,50,0,1
94545,-100,4,1,0,50,0,0
98545,-100,4,1,0,50,0,1
106795,-100,4,1,0,50,0,0

[Colours]
Combo1 : 208,13,169
Combo2 : 74,74,255
Combo3 : 90,220,248
Combo4 : 217,4,4
Combo5 : 242,146,0

[HitObjects]
152,72,1795,1,0
232,72,2295,1,8
312,72,2795,1,0
392,72,3295,2,0,B|392:192,1,120,8|0
392,272,4295,1,0
312,272,4795,1,8
232,272,5295,2,0,B|152:272,1,60,0|8
136,152,6295,5,0
216,152,6795,1,8
264,88,7295,1,0
344,88,7795,1,8
344,168,8295,1,0
344,248,8795,2,0,B|272:248,3,60,8|2|8|2
208,144,10295,5,0
288,152,10795,1,8
336,88,11295,2,0,B|424:88|472:152|424:216|328:216,1,240
264,216,12795,1,0
184,216,13295,2,0,B|112:216,1,60,8|0
144,96,14295,5,0
224,96,14795,1,8
304,96,15295,1,0
304,224,16045,2,0,B|256:272,1,60,8|0
216,268,16545,2,0,B|152:268,1,60,0|8
112,268,17045,2,0,B|72:220,1,60,8|0
44,180,17545,1,8
160,88,18295,5,0
240,88,18795,1,8
320,88,19295,1,0
432,152,20045,6,0,B|432:216,6,60,8|0|8|0|8|0|8
304,152,22295,5,0
224,152,22795,1,8
144,152,23295,1,0
272,152,24045,6,0,B|320:88|320:88|368:88,3,120,0|8|0|4
264,176,26295,2,0,B|192:176,1,60,0|8
40,184,27545,1,8
40,104,28045,1,0
120,104,28545,1,0
200,104,29045,1,0
280,104,29545,6,0,B|360:104|392:160|392:224,1,180,8|2
392,256,30545,1,8
224,256,31545,6,0,B|168:248|168:176|208:144,4,120,0|8|0|8|0
304,256,34045,5,0
344,256,34295,1,8
384,256,34545,1,0
424,256,34795,2,0,B|424:184,1,60,0|8
424,152,35295,1,0
340,152,35795,6,0,B|212:152,2,120
416,152,37295,1,2
416,112,37545,1,8
336,112,38045,5,0
256,112,38545,1,8
176,112,39045,1,0
96,112,39545,1,8
96,152,39795,1,0
96,192,40045,2,0,B|96:256|96:256|160:256,1,120,8|0
240,256,41045,1,2
320,256,41545,1,8
384,200,42045,6,0,B|384:120,5,60,0|0|0|0|0|4
232,64,44295,6,0,B|216:32|136:32|120:72,3,120,8|0|8|0
128,104,46045,1,0
128,184,46545,1,8
128,264,47045,2,0,B|208:264,1,60,0|8
312,264,48045,5,0
312,224,48295,2,0,B|312:160,4,60
312,264,49545,6,0,B|256:216|192:216|128:272,1,180,2|8
144,296,50545,1,2
200,136,51545,5,0
280,136,52045,1,8
360,136,52545,1,0
440,136,53045,1,8
444,220,53545,6,0,B|404:268|364:224|316:172|272:236,1,180
240,216,54545,2,0,B|200:264|200:264|168:232|128:256,2,120,2|8|2
240,112,56045,1,0
320,112,56545,1,8
400,112,57045,2,0,B|456:168|456:168|408:216,1,120,2|4
328,112,66045,5,0
328,152,66295,1,0
328,192,66545,2,0,B|256:192,1,60
224,192,67045,1,0
184,192,67295,2,0,B|184:328,1,120
104,304,68295,1,0
104,224,68795,1,0
104,144,69295,2,0,B|176:144,1,60
248,144,70045,6,0,B|320:144,2,60
208,144,70795,2,0,B|136:144,3,60
104,144,71795,2,0,B|104:280,2,120
104,104,73045,1,0
144,104,73295,1,2
184,104,73545,1,0
264,104,74045,5,0
304,104,74295,1,8
384,176,75045,1,0
384,216,75295,2,0,B|384:288,1,60,8|0
296,280,76045,6,0,B|160:280,1,120,2|8
136,280,76795,1,2
136,240,77045,2,0,B|136:112,1,120,8|0
216,104,78045,6,0,B|272:64|344:112,3,120,0|8|0|8
368,104,79795,1,4
160,112,81045,6,0,B|160:184,1,60
200,176,81545,2,0,B|200:256,1,60
240,240,82045,2,0,B|240:320,1,60
280,304,82545,2,0,B|368:272|368:168|320:108,1,220
152,72,84545,5,0
232,72,85045,1,8
312,72,85545,1,0
392,72,86045,1,8
312,72,86545,2,0,B|184:184|384:168|256:296,1,240,2|8
104,268,88545,6,0,B|240:268,3,120
272,200,90545,2,0,B|272:80|368:80|368:176,1,180,2|8
368,192,91545,1,2
352,360,92545,5,0
272,360,93045,1,8
192,360,93545,1,0
112,360,94045,1,8
32,360,94545,1,4
256,192,94795,12,0,96295
232,0,96795,5,0
232,0,97045,2,8,B|288:48|288:48|288:104,1,120
288,136,97795,2,0,B|224:176|224:176|224:232,1,120,8|2
224,264,98545,2,2,B|368:248|368:80,1,240,2|8
200,72,100545,6,0,B|136:72|140:184,3,120,0|8|0|8
256,120,102545,2,0,B|320:160|360:216|328:296|256:320,1,240,2|8
360,168,104545,5,0
288,128,105045,1,8
216,88,105545,1,0
216,168,106045,1,8
216,248,106545,2,0,B|152:248,1,60,2|4
