osu file format v11

[General]
AudioFilename: otin.mp3
AudioLeadIn: 1015
PreviewTime: 41324
Countdown: 0
SampleSet: Soft
StackLeniency: 0.7
Mode: 0
LetterboxInBreaks: 1

[Editor]
Bookmarks: 27508
DistanceSpacing: 0.5
BeatDivisor: 4
GridSize: 4

[Metadata]
Title:Gigantic O.T.N
TitleUnicode:Gigantic O.T.N
Artist:Midoriinu
ArtistUnicode:Midoriinu
Creator:jamxx
Version:Insane
Source:
Tags:
BeatmapID:207166
BeatmapSetID:72507

[Difficulty]
HPDrainRate:6
CircleSize:4
OverallDifficulty:6
ApproachRate:9
SliderMultiplier:1.92
SliderTickRate:1

[Events]
//Background and Video events
0,0,"back.jpg"
//Break Periods
2,64655,73329
//Storyboard Layer 0 (Background)
//Storyboard Layer 1 (Fail)
//Storyboard Layer 2 (Pass)
//Storyboard Layer 3 (Foreground)
//Storyboard Sound Samples
//Background Colour Transformations
3,100,163,162,255

[TimingPoints]
34,315.789473684211,4,2,1,80,1,0
31691,-100,4,3,1,80,0,0
36191,-100,4,2,1,80,0,0
41719,-100,4,2,1,100,0,1
64455,-100,4,2,1,80,0,0
78350,-100,4,2,1,80,0,0
79613,-100,4,2,1,80,0,0
94770,-133.333333333333,4,3,1,80,0,0
103612,-100,4,3,1,80,0,0
106139,-100,4,2,1,100,0,1
128876,-100,4,2,1,100,0,0

[Colours]
Combo1 : 128,255,128
Combo2 : 0,128,255
Combo3 : 255,128,192
Combo4 : 255,128,64

[HitObjects]
256,192,982,1,8,3:0:0
256,192,1298,6,0,P|304:192|352:176,1,96,4|0,0:0|0:0,0:0:0
366,160,1534,1,0,0:0:0
384,144,1613,1,0,0:0:0
407,141,1692,1,0,0:0:0
430,147,1771,1,0,0:0:0
444,165,1850,1,0,0:0:0
449,188,1929,2,0,P|451:236|476:282,2,96
427,54,2403,5,2,0:0:0
430,51,2482,1,0,0:0:0
433,48,2561,1,0,0:0:0
256,62,2719,5,2,0:0:0
256,57,2798,1,0,0:0:0
256,52,2876,1,0,0:0:0
85,54,3034,5,2,0:0:0
82,51,3113,1,0,0:0:0
82,51,3192,2,0,P|53:94|40:138,1,96,0|0,0:0|0:0,0:0:0
82,333,3508,2,0,P|53:290|40:246,1,96,0|0,0:0|0:0,0:0:0
256,57,3824,5,0,0:0:0
256,327,4140,1,0,0:0:0
256,57,4455,5,0,0:0:0
162,219,4613,1,0,0:0:0
349,219,4771,1,0,0:0:0
256,57,4929,2,0,P|256:9,2,48,2|0|0,0:0|0:0|0:0,0:0:0
256,165,5245,5,0,0:0:0
256,189,5324,1,0,0:0:0
252,212,5403,1,0,0:0:0
245,234,5482,1,0,0:0:0
235,256,5561,1,0,0:0:0
212,275,5640,1,0,0:0:0
188,284,5719,2,0,P|88:284,1,96
324,284,6034,2,0,P|424:284,1,96
492,192,6350,6,0,P|448:192|400:172,1,96,0|0,0:0|0:0,0:0:0
384,154,6587,1,0,0:0:0
369,135,6666,2,0,P|325:135|277:155,1,96
189,230,6982,1,0,0:0:0
169,244,7061,1,0,0:0:0
146,251,7140,1,0,0:0:0
122,249,7219,1,0,0:0:0
100,237,7298,2,0,P|108:291|139:327,1,96
349,282,7613,5,0,0:0:0
369,268,7692,1,0,0:0:0
392,261,7771,1,0,0:0:0
416,263,7850,1,0,0:0:0
438,275,7929,2,0,P|430:221|399:185,1,96
256,63,8245,2,0,P|160:63,2,96
372,63,8719,1,0,0:0:0
44,60,9034,5,2,0:0:0
41,57,9113,1,0,0:0:0
38,54,9192,1,0,0:0:0
42,192,9350,5,2,0:0:0
37,192,9429,1,0,0:0:0
32,192,9508,2,0,P|132:192,1,96
97,350,9824,2,0,P|165:282,1,96
256,192,10140,5,0,0:0:0
187,98,10298,5,0,0:0:0
208,86,10377,1,0,0:0:0
231,78,10455,1,0,0:0:0
256,76,10534,1,0,0:0:0
280,78,10613,1,0,0:0:0
303,86,10692,1,0,0:0:0
324,98,10771,2,0,P|256:155|188:98,1,192,0|0,0:0|0:0,0:0:0
400,192,11403,6,0,P|448:204|488:232,1,96,4|0,1:0|0:0,0:0:0
480,344,11719,1,0,1:0:0
392,272,11876,1,0,0:0:0
300,344,12034,2,0,P|247:343|208:328,1,96,0|0,1:0|0:0,0:0:0
140,232,12350,1,0,1:0:0
256,244,12508,1,0,0:0:0
360,192,12666,6,0,P|412:112,2,96,0|0|0,1:0|0:0|1:0,0:0:0
152,192,13140,2,0,P|100:112,1,96,0|0,0:0|1:0,0:0:0
256,96,13455,2,0,P|256:192,2,96,0|0|0,0:0|1:0|0:0,0:0:0
360,48,13929,5,0,1:0:0
360,48,14087,1,0,0:0:0
152,48,14245,1,0,1:0:0
152,48,14403,1,0,0:0:0
360,48,14561,2,0,P|464:48,1,96,0|0,1:0|0:0,0:0:0
152,48,14876,2,0,P|48:48,1,96,0|0,1:0|0:0,0:0:0
52,164,15192,6,0,P|104:172|156:164,1,96,0|0,1:0|0:0,0:0:0
248,112,15508,2,0,P|260:168|252:208,1,96,0|0,1:0|0:0,0:0:0
168,336,15824,2,0,P|228:320|256:300|256:300|284:320|344:336,1,192,0|0,1:0|1:0,0:0:0
148,100,16455,5,0,1:0:0
148,100,16613,1,0,0:0:0
364,100,16771,1,0,1:0:0
364,100,16929,1,0,0:0:0
256,212,17087,2,0,P|256:264|276:308,1,96,0|0,1:0|0:0,0:0:0
297,302,17324,1,0,0:0:0
318,292,17403,2,0,P|366:298|408:326,1,96,0|0,1:0|0:0,0:0:0
464,192,17719,5,0,1:0:0
256,36,18034,1,0,1:0:0
48,192,18350,2,0,P|36:240|36:288,1,96,0|0,1:0|0:0,0:0:0
144,240,18666,2,0,P|156:192|156:144,1,96,0|0,1:0|0:0,0:0:0
80,56,18982,5,0,1:0:0
260,96,19140,1,0,0:0:0
80,56,19298,1,0,1:0:0
260,96,19455,2,0,P|312:108|360:108,2,96,0|0|0,0:0|1:0|0:0,0:0:0
156,145,19929,2,0,P|172:192|204:232,1,96,0|0,1:0|0:0,0:0:0
292,156,20245,5,0,1:0:0
292,303,20403,1,0,1:0:0
439,303,20561,1,0,0:0:0
439,156,20719,1,0,1:0:0
260,229,20877,5,0,0:0:0
364,333,21035,1,0,1:0:0
468,229,21193,1,0,0:0:0
364,125,21351,1,0,1:0:0
260,229,21508,6,0,P|208:216|172:188,1,96,4|0,1:0|0:0,0:0:0
136,80,21824,2,0,P|188:76|232:92,1,96,0|0,1:0|0:0,0:0:0
348,196,22140,2,0,P|400:183|436:155,1,96,0|0,1:0|0:0,0:0:0
472,47,22456,2,0,P|420:43|376:59,1,96,0|0,1:0|0:0,0:0:0
304,144,22771,5,0,1:0:0
256,40,22929,1,0,0:0:0
208,144,23087,2,0,P|160:164|116:168,1,96,0|0,1:0|0:0,0:0:0
97,153,23324,1,0,0:0:0
80,135,23403,2,0,P|44:172|36:221,1,96,0|0,1:0|0:0,0:0:0
74,323,23719,1,0,1:0:0
149,237,23876,1,0,0:0:0
225,323,24034,6,0,P|275:312|314:286,1,96,0|0,1:0|0:0,0:0:0
316,171,24350,1,0,1:0:0
339,173,24429,1,0,0:0:0
361,181,24508,1,0,0:0:0
378,197,24587,1,0,0:0:0
391,216,24666,2,0,P|442:216|487:205,1,96,0|0,1:0|0:0,0:0:0
482,65,24982,2,0,P|431:65|386:76,1,96,0|0,1:0|0:0,0:0:0
256,117,25298,5,0,1:0:0
124,75,25455,1,0,0:0:0
79,205,25613,1,0,1:0:0
79,205,25692,1,0,0:0:0
79,205,25771,2,0,P|106:244|146:272,1,96,0|0,0:0|1:0,0:0:0
256,239,26087,1,0,0:0:0
256,239,26166,1,0,0:0:0
256,239,26245,2,0,P|304:247|347:271,1,96,0|0,1:0|0:0,0:0:0
444,329,26561,6,0,P|454:232|390:165,1,192,0|0,1:0|1:0,0:0:0
232,141,27034,1,0,0:0:0
326,74,27192,2,0,P|370:53|420:47,1,96,0|0,1:0|0:0,0:0:0
301,232,27508,2,0,P|257:253|207:259,1,96,0|0,1:0|0:0,0:0:0
232,141,27824,6,0,P|280:139|328:154,1,96,0|0,1:0|0:0,0:0:0
143,192,28140,2,0,P|94:193|46:178,2,96,0|0|0,1:0|0:0|1:0,0:0:0
167,99,28613,1,0,0:0:0
167,285,28772,1,0,1:0:0
167,99,28929,6,0,P|211:60|249:44,1,96,0|0,0:0|1:0,0:0:0
349,95,29245,2,0,P|305:134|267:150,1,96,0|0,0:0|1:0,0:0:0
173,210,29561,1,0,0:0:0
256,289,29719,1,0,1:0:0
370,289,29876,1,0,0:0:0
454,210,30034,2,0,P|470:163|476:117,1,96,0|0,1:0|0:0,0:0:0
378,54,30350,5,0,1:0:0
378,54,30508,1,0,0:0:0
256,148,30666,1,0,1:0:0
256,148,30824,1,0,0:0:0
134,54,30982,1,0,1:0:0
134,54,31140,1,0,0:0:0
256,148,31298,2,0,P|248:214|144:196,1,192,0|4,1:0|0:0,0:0:0
172,116,31771,5,8,0:0:0
448,40,32087,1,8,0:0:0
64,40,32403,1,8,0:0:0
340,116,32719,1,8,0:0:0
88,192,33034,1,8,0:0:0
424,192,33350,1,8,0:0:0
160,336,33666,1,8,0:0:0
256,268,33824,5,4,2:0:0
256,268,34141,2,0,P|256:172,1,96,4|8,2:0|0:0,0:0:0
424,52,34613,1,8,0:0:0
88,52,34929,1,8,0:0:0
88,332,35245,1,8,0:0:0
424,332,35561,1,8,0:0:0
156,192,35876,1,8,0:0:0
356,192,36192,1,4,0:0:0
256,192,36350,5,4,0:0:0
256,192,36665,1,4,0:0:0
256,48,37298,1,4,0:0:0
256,336,37929,5,4,0:0:0
256,48,38245,1,4,0:0:0
256,336,38562,1,4,0:0:0
256,48,38876,1,4,0:0:0
436,192,39192,5,4,0:0:0
348,120,39350,1,4,0:0:0
256,192,39508,1,4,0:0:0
164,120,39666,1,4,0:0:0
76,192,39824,1,4,0:0:0
67,214,39903,1,0,0:0:0
66,238,39982,1,0,0:0:0
70,261,40061,1,0,0:0:0
83,281,40140,1,0,0:0:0
102,294,40219,1,0,0:0:0
123,304,40298,1,0,0:0:0
146,308,40376,1,0,0:0:0
170,308,40455,2,0,P|206:309,16,24
256,192,41403,5,8,3:0:0
352,160,41719,6,0,P|396:172|372:192|396:212|352:224,1,96,4|0,0:0|0:0,0:0:0
256,192,42034,2,0,P|208:192|160:200,1,96,8|0,0:0|0:0,0:0:0
112,284,42350,1,0,0:0:0
112,100,42508,1,0,0:0:0
112,284,42666,1,8,0:0:0
112,100,42824,6,0,P|200:56|296:48,2,192
112,284,43613,2,0,P|168:284|212:272,1,96,4|0,0:0|0:0,0:0:0
350,203,43929,2,0,P|312:192|256:192,1,96,8|0,0:0|0:0,0:0:0
80,192,44245,5,0,0:0:0
432,192,44561,1,8,0:0:0
80,192,44876,2,0,P|96:144|124:104,1,96
220,48,45192,1,8,0:0:0
228,164,45350,6,0,P|276:152|316:128,1,96
388,40,45666,1,0,0:0:0
452,136,45824,1,8,0:0:0
388,232,45982,1,0,0:0:0
272,244,46140,2,0,P|212:248|176:272,1,96
165,282,46376,1,0,0:0:0
148,298,46455,2,0,P|141:248|151:199,1,96,8|0,0:0|0:0,0:0:0
223,114,46771,6,0,P|191:76|151:56,1,96,4|0,0:0|0:0,0:0:0
256,192,47087,1,8,0:0:0
289,270,47245,2,0,P|321:308|361:328,1,96
289,114,47561,2,0,P|321:76|361:56,1,96,0|8,0:0|0:0,0:0:0
256,192,47876,1,0,0:0:0
223,270,48034,2,0,P|191:308|151:328,1,96
256,192,48350,6,0,P|352:192,2,96,8|0|0,0:0|0:0|0:0,0:0:0
140,192,48824,2,0,P|180:104|260:56,1,192
364,108,49298,6,0,P|408:136|452:152,1,96,0|0,0:0|0:0,0:0:0
340,192,49613,2,0,P|296:220|252:236,1,96,8|0,0:0|0:0,0:0:0
80,236,49929,1,0,0:0:0
168,160,50087,1,0,0:0:0
168,312,50245,1,8,0:0:0
168,160,50403,6,0,P|196:112|236:88,1,96
344,224,50719,2,0,P|316:272|276:296,1,96,0|8,0:0|0:0,0:0:0
256,192,51033,5,0,0:0:0
256,192,51191,1,0,0:0:0
256,192,51349,1,0,0:0:0
256,192,51508,2,0,P|328:120,1,96,8|0,0:0|0:0,0:0:0
256,192,51824,6,0,P|184:264,1,96,4|0,0:0|0:0,0:0:0
76,228,52140,1,8,0:0:0
100,340,52298,1,0,0:0:0
76,228,52455,2,0,P|80:172|100:132,1,96
164,40,52771,1,8,0:0:0
256,108,52929,6,0,P|348:84|432:32,2,192
192,204,53719,1,4,0:0:0
192,204,53876,1,0,0:0:0
164,40,54034,1,8,0:0:0
164,40,54192,1,0,0:0:0
192,204,54350,6,0,P|236:232|288:248,1,96
392,272,54666,2,0,P|392:220|372:176,1,96,8|0,0:0|0:0,0:0:0
284,148,54982,1,0,0:0:0
436,104,55140,1,0,0:0:0
284,148,55298,1,8,0:0:0
436,104,55455,6,0,P|352:52|260:40,1,192
284,148,55929,2,0,P|324:176|376:192,1,96,8|0,0:0|0:0,0:0:0
464,192,56245,2,0,P|456:240|432:284,1,96
409,281,56482,1,0,0:0:0
384,281,56561,2,0,P|350:318|330:360,1,96,8|0,0:0|0:0,0:0:0
181,358,56876,6,0,P|162:318|128:281,1,96,4|0,0:0|0:0,0:0:0
31,281,57192,1,8,0:0:0
186,204,57351,2,0,P|210:154|208:95|208:95|243:96|278:133,1,192
346,197,57824,2,0,P|387:168|417:131,1,96,8|0,0:0|0:0,0:0:0
364,51,58140,5,0,0:0:0
494,187,58298,1,0,0:0:0
364,51,58455,2,0,P|313:40|266:41,1,96,8|0,0:0|0:0,0:0:0
157,121,58771,2,0,P|208:132|255:131,1,96
275,127,59008,1,0,0:0:0
298,121,59087,2,0,P|279:176|256:205,1,96,8|0,0:0|0:0,0:0:0
156,268,59403,5,0,0:0:0
356,268,59561,2,0,P|452:268,2,96,0|8|0,0:0|0:0|0:0,0:0:0
156,268,60034,2,0,P|60:268,2,96,0|0|8,0:0|0:0|0:0,0:0:0
256,240,60508,2,0,P|256:144,1,96
356,116,60824,6,0,P|452:116,2,96,0|8|0,0:0|0:0|0:0,0:0:0
156,116,61297,2,0,P|60:116,2,96,0|0|8,0:0|0:0|0:0,0:0:0
256,144,61771,2,0,P|256:240,1,96,0|8,0:0|0:0,0:0:0
256,48,62245,5,8,0:0:0
256,336,62561,1,8,0:0:0
256,240,62719,1,0,0:0:0
256,144,62876,1,8,0:0:0
256,48,63034,1,0,0:0:0
196,230,63192,5,8,0:0:0
351,117,63350,1,0,0:0:0
160,117,63508,1,8,0:0:0
315,230,63666,1,0,0:0:0
256,48,63824,2,0,P|256:252,1,192,8|2,0:0|0:1,0:0:0
256,240,64455,5,4,0:0:0
324,286,73929,6,0,P|256:229|188:286,1,192,0|0,0:0|0:0,0:0:0
328,156,74561,6,0,P|376:156|424:172,1,96,4|0,1:0|0:0,0:0:0
184,156,74876,2,0,P|136:156|88:140,1,96,0|0,1:0|0:0,0:0:0
75,122,75113,1,0,0:0:0
59,103,75192,2,0,P|32:147|32:194,1,96,0|0,1:0|0:0,0:0:0
93,337,75508,2,0,P|120:293|120:246,1,96,0|0,1:0|0:0,0:0:0
234,228,75824,6,0,P|287:257|313:285,1,96,0|0,1:0|0:0,0:0:0
409,344,76140,1,0,1:0:0
409,344,76219,1,0,0:0:0
409,344,76298,2,0,P|436:301|446:256,1,96,0|0,0:0|1:0,0:0:0
391,103,76613,1,0,0:0:0
391,103,76692,1,0,0:0:0
391,103,76771,2,0,P|364:146|354:191,1,96,0|0,1:0|0:0,0:0:0
468,172,77087,5,0,1:0:0
468,172,77245,1,0,0:0:0
256,127,77403,1,0,1:0:0
256,127,77561,1,0,0:0:0
44,172,77719,1,0,1:0:0
44,172,77877,1,0,0:0:0
108,266,78034,2,0,P|161:247|200:219,1,96,0|0,1:0|0:0,0:0:0
256,127,78350,6,0,P|283:82|331:54,2,96
256,257,78824,1,0,0:0:0
256,257,78903,1,0,0:0:0
256,257,78982,2,0,P|229:302|181:330,2,96
321,192,79455,6,0,P|366:219|394:267,2,96,0|0|0,0:0|1:0|0:0,0:0:0
191,192,79929,2,0,P|146:165|118:117,1,96,0|0,1:0|0:0,0:0:0
168,44,80245,1,0,1:0:0
27,142,80403,1,0,0:0:0
168,44,80561,1,0,1:0:0
27,142,80719,6,0,P|17:201|24:242,1,96,0|0,0:0|1:0,0:0:0
135,355,81034,2,0,P|145:296|138:255,1,96,0|0,0:0|1:0,0:0:0
120,165,81350,1,0,0:0:0
91,73,81508,1,0,1:0:0
120,165,81666,2,0,P|171:180|214:182,1,96,0|0,0:0|1:0,0:0:0
352,92,81981,6,0,P|301:77|258:75,2,96,0|0|0,0:0|1:0|0:0,0:0:0
436,192,82455,1,0,1:0:0
352,292,82612,2,0,P|301:307|258:309,2,96,0|0|0,0:0|1:0|0:0,0:0:0
436,192,83086,2,0,P|332:192,1,96,0|0,1:0|0:0,0:0:0
76,192,83402,6,0,P|180:192,1,96,0|0,1:0|0:0,0:0:0
256,132,83718,1,0,0:0:0
203,290,83876,1,0,0:0:0
339,192,84034,1,0,1:0:0
171,192,84191,1,0,0:0:0
307,290,84349,2,0,P|352:308|400:312,1,96
340,192,84665,6,0,P|295:174|247:170,1,96,4|0,1:0|0:0,0:0:0
76,204,84981,1,0,1:0:0
148,113,85139,1,0,0:0:0
176,260,85297,2,0,P|210:293|254:314,1,96,0|0,1:0|0:0,0:0:0
148,113,85612,2,0,P|114:80|70:59,1,96,0|0,1:0|0:0,0:0:0
76,204,85928,6,0,P|125:200|169:182,1,96,0|0,1:0|0:0,0:0:0
238,90,86244,1,0,1:0:0
283,196,86402,1,0,0:0:0
238,90,86560,2,0,P|276:64|324:51,1,96,0|0,1:0|0:0,0:0:0
283,196,86876,2,0,P|245:222|197:235,1,96,0|0,1:0|0:0,0:0:0
144,336,87191,5,0,1:0:0
256,304,87350,1,0,0:0:0
369,336,87507,2,0,P|400:312|421:260,1,96,0|0,1:0|0:0,0:0:0
421,124,87823,2,0,P|400:72|367:46,1,96,0|0,1:0|0:0,0:0:0
256,32,88139,2,0,P|256:128,1,96,0|0,1:0|0:0,0:0:0
232,220,88455,6,0,P|184:140|124:188|128:324|224:324|256:358|256:358|288:324|384:324|388:188|328:140|280:220,1,576
256,32,89718,6,0,P|200:20|152:24,1,96,4|0,1:0|0:0,0:0:0
256,120,90034,2,0,P|312:132|360:128,1,96,0|0,1:0|0:0,0:0:0
412,56,90349,1,0,1:0:0
404,212,90507,1,0,0:0:0
412,56,90665,2,0,P|360:40|308:40,1,96,0|0,1:0|0:0,0:0:0
193,38,90981,6,0,P|152:40|100:56,2,96,0|0|0,1:0|0:0|1:0,0:0:0
256,120,91455,1,0,0:0:0
256,120,91534,1,0,0:0:0
256,120,91612,2,0,P|288:156|332:180,1,96,0|0,1:0|0:0,0:0:0
424,192,91928,2,0,P|404:236|360:268,1,96,0|0,1:0|0:0,0:0:0
272,240,92244,6,0,P|224:256|192:288,1,96,0|0,1:0|0:0,0:0:0
192,287,92481,1,0,0:0:0
192,287,92560,1,0,1:0:0
93,347,92718,2,0,P|70:304|70:256,1,96,0|0,0:0|1:0,0:0:0
75,141,93034,2,0,P|123:155|161:185,1,96,0|0,0:0|1:0,0:0:0
256,248,93349,6,0,P|276:200|280:148,1,96,0|0,0:0|1:0,0:0:0
196,76,93665,1,0,0:0:0
384,104,93823,1,0,1:0:0
196,76,93981,1,0,0:0:0
384,104,94139,2,0,P|424:140|444:184,1,96
368,268,94455,2,0,P|328:232|308:188,1,96
256,92,94770,6,0,P|176:80|116:100,1,144.000005493164,8|0,0:0|0:0,0:0:0
76,160,95244,1,0,0:0:0
112,221,95402,2,0,P|144:136|117:99,1,144.000005493164,8|0,0:0|0:0,0:0:0
44,92,95876,1,0,0:0:0
76,160,96034,6,0,P|224:156,1,144.000005493164,8|0,0:0|0:0,0:0:0
256,92,96507,1,0,0:0:0
292,156,96665,2,0,P|436:160,1,144.000005493164,8|0,0:0|0:0,0:0:0
456,92,97139,1,0,0:0:0
436,160,97297,6,0,P|428:188|448:208|448:208|416:220|416:220|440:236|440:236|424:264|424:264|388:276|348:268,1,216.000008239746,8|0,0:0|0:0,0:0:0
292,232,97928,2,0,P|288:272|292:304,1,72.0000027465821,8|0,0:0|0:0,0:0:0
220,304,98244,2,0,P|224:272|220:232,1,72.0000027465821
160,192,98560,1,8,0:0:0
256,40,98876,1,0,0:0:0
352,192,99191,1,8,0:0:0
256,344,99507,1,0,0:0:0
160,192,99823,6,0,P|100:240|84:312,1,144.000005493164,8|0,0:0|0:0,0:0:0
148,340,100297,1,0,0:0:0
200,292,100455,2,0,P|256:254|312:292,1,144.000005493164,8|0,0:0|0:0,0:0:0
364,340,100928,1,0,0:0:0
428,302,101086,2,0,P|412:240|352:192,1,144.000005493164,8|0,0:0|0:0,0:0:0
280,184,101560,2,0,P|296:144|324:124,1,72.0000027465821,0|8,0:0|0:0,0:0:0
460,100,102034,1,0,0:0:0
318,126,102349,2,0,P|248:100|224:72|224:72|180:72,1,144.000005493164,8|0,0:0|0:0,0:0:0
72,120,102981,2,0,P|120:167|190:193,1,144.000005493164,8|0,0:0|0:0,0:0:0
384,192,103612,5,8,0:0:0
256,320,103928,1,0,0:0:0
128,192,104244,1,8,0:0:0
256,64,104560,1,0,0:0:0
196,247,104876,5,8,0:0:0
352,134,105034,1,0,0:0:0
159,134,105191,1,8,0:0:0
315,247,105349,1,0,0:0:0
256,65,105507,2,0,P|256:192|256:192|232:228|280:228|256:192,1,192,8|2,0:0|0:1,0:0:0
255,191,106139,6,0,P|304:192|352:208,1,96,4|0,0:0|0:0,0:0:0
404,288,106455,1,0,0:0:0
404,128,106612,1,0,0:0:0
404,288,106770,2,0,P|432:328|472:352,2,96,0|0|8,0:0|0:0|0:0,0:0:0
404,128,107244,6,0,P|320:80|220:72,2,192
352,208,108034,2,0,P|300:200|260:180,1,96,4|0,0:0|0:0,0:0:0
176,136,108349,2,0,P|144:176|132:220,1,96,8|0,0:0|0:0,0:0:0
208,280,108665,5,0,0:0:0
40,240,108823,1,0,0:0:0
208,280,108981,2,0,P|272:272|300:256,1,96,8|0,0:0|0:0,0:0:0
380,176,109297,2,0,P|444:184|472:200,1,96,0|0,0:0|0:0,0:0:0
400,288,109612,1,8,0:0:0
380,176,109770,6,0,P|304:128|200:128,1,192
40,184,110244,1,8,0:0:0
97,84,110402,1,0,0:0:0
97,84,110481,1,0,0:0:0
97,84,110560,1,0,0:0:0
148,228,110718,2,0,P|182:262|224:286,1,96,0|8,0:0|0:0,0:0:0
256,192,111034,1,0,0:0:0
288,98,111191,6,0,P|330:122|364:156,1,96,4|0,0:0|0:0,0:0:0
256,192,111507,2,0,P|214:168|168:128,1,96,8|0,0:0|0:0,0:0:0
228,28,111823,1,0,0:0:0
68,116,111981,1,0,0:0:0
228,28,112139,1,8,0:0:0
68,116,112297,6,0,P|36:160|20:200,1,96
76,300,112612,2,0,P|108:256|124:216,2,96,0|8|0,0:0|0:0|0:0,0:0:0
164,340,113086,2,0,P|252:300|304:220,1,192,0|8,0:0|0:0,0:0:0
296,128,113560,6,0,P|232:136|212:200|212:200|176:180|164:136,1,192,0|0,0:0|0:0,0:0:0
224,64,114034,2,0,P|268:40|312:28,1,96,8|0,0:0|0:0,0:0:0
72,128,114349,1,0,0:0:0
40,220,114507,1,0,0:0:0
112,284,114665,1,8,0:0:0
208,300,114823,6,0,P|304:300,1,96
256,252,115139,2,0,P|256:348,1,96,0|8,0:0|0:0,0:0:0
392,300,115455,2,0,P|488:300,2,96
304,300,115928,2,0,P|296:248|304:204,1,96,8|0,0:0|0:0,0:0:0
256,120,116244,5,4,0:0:0
256,120,116560,2,0,P|224:156|208:200,1,96,8|0,0:0|0:0,0:0:0
248,288,116876,1,0,0:0:0
116,176,117034,2,0,P|92:132|88:84,1,96,0|8,0:0|0:0,0:0:0
176,48,117349,6,0,P|272:32|368:52,2,192
256,120,118139,2,0,P|316:124|360:120,1,96,4|0,0:0|0:0,0:0:0
444,92,118455,2,0,P|444:144|424:184,1,96,8|0,0:0|0:0,0:0:0
328,192,118770,6,0,P|320:240|336:288,1,96
436,336,119086,1,8,0:0:0
224,316,119244,1,0,0:0:0
436,336,119402,2,0,P|472:292|488:256,2,96,0|0|8,0:0|0:0|0:0,0:0:0
224,316,119876,6,0,P|180:232|172:136,1,192
284,92,120349,1,8,0:0:0
80,76,120507,1,0,0:0:0
284,92,120665,2,0,P|348:116|376:136,1,96
370,155,120902,1,0,0:0:0
367,178,120981,2,0,P|422:194|466:196,1,96,8|0,0:0|0:0,0:0:0
489,83,121297,6,0,P|434:67|390:65,1,96,4|0,0:0|0:0,0:0:0
284,92,121612,1,8,0:0:0
224,192,121770,2,0,P|168:160|164:88|164:88|96:88,1,192
28,180,122244,2,0,P|68:208|116:224,1,96,8|0,0:0|0:0,0:0:0
220,272,122560,1,0,0:0:0
116,324,122718,1,0,0:0:0
220,272,122876,6,0,P|316:272,1,96,8|0,0:0|0:0,0:0:0
432,272,123191,2,0,P|416:216|388:184,1,96
367,187,123428,1,0,0:0:0
342,187,123507,2,0,P|292:176|256:151,1,96,8|0,0:0|0:0,0:0:0
156,116,123823,5,0,0:0:0
356,116,123981,2,0,P|452:116,2,96,0|8|0,0:0|0:0|0:0,0:0:0
156,116,124454,2,0,P|60:116,2,96,0|0|8,0:0|0:0|0:0,0:0:0
256,144,124928,2,0,P|256:240,1,96
356,268,125244,6,0,P|452:268,2,96,0|8|0,0:0|0:0|0:0,0:0:0
156,268,125717,2,0,P|60:268,2,96,0|0|8,0:0|0:0|0:0,0:0:0
256,240,126191,2,0,P|256:144,1,96,0|8,0:0|0:0,0:0:0
256,336,126665,5,8,0:0:0
256,48,126981,1,8,0:0:0
256,144,127139,1,0,0:0:0
256,240,127296,1,8,0:0:0
256,336,127454,1,0,0:0:0
152,156,127612,5,8,0:0:0
360,156,127770,1,0,0:0:0
152,156,127928,1,8,0:0:0
360,156,128086,1,0,0:0:0
256,48,128244,2,0,P|256:252,1,192,8|2,0:0|0:1,0:0:0
256,240,128875,5,4,0:0:0
