osu file format v9

[General]
AudioFilename: 05.Crystal Cinderella.mp3
AudioLeadIn: 2007
PreviewTime: 82888
Countdown: 0
SampleSet: Soft
StackLeniency: 0.6
Mode: 0
LetterboxInBreaks: 1

[Editor]
DistanceSpacing: 1
BeatDivisor: 4
GridSize: 8

[Metadata]
Title:Crystal Cinderella
Artist:Midnight Project
Creator:C R E A M
Version:Rikelic
Source:Touhou
Tags:brikel Cookiezi KRZY

[Difficulty]
HPDrainRate:7
CircleSize:4
OverallDifficulty:7
ApproachRate:8
SliderMultiplier:1.90000000596046
SliderTickRate:1

[Events]
//Background and Video events
0,0,"bg_rikelic.png"
//Break Periods
2,21106,32156
2,110249,123013
//Storyboard Layer 0 (Background)
//Storyboard Layer 1 (Fail)
//Storyboard Layer 2 (Pass)
//Storyboard Layer 3 (Foreground)
//Storyboard Sound Samples
//Background Colour Transformations
3,100,163,162,255

[TimingPoints]
335,428.57266180883,4,2,1,70,1,0
442,-100,4,2,1,90,0,0
3656,-100,4,2,1,70,0,0
3870,-100,4,2,1,90,0,0
5370,-100,4,2,1,70,0,0
5585,-100,4,2,1,90,0,0
7085,-100,4,2,1,70,0,0
7299,-100,4,2,1,90,0,0
8799,-100,4,2,1,70,0,0
9013,-100,4,2,1,90,0,0
10513,-100,4,2,1,70,0,0
10727,-100,4,2,1,90,0,0
12227,-100,4,2,1,70,0,0
12442,-100,4,2,1,90,0,0
13942,-100,4,2,1,70,0,0
14156,-100,4,2,1,90,0,0
14799,-100,4,2,0,90,0,0
15013,-100,4,2,1,90,0,0
17370,-100,4,2,1,70,0,0
17585,-100,4,2,1,90,0,0
19085,-100,4,2,1,70,0,0
21013,-100,4,2,1,90,0,0
34513,-100,4,2,1,70,0,0
34727,-100,4,2,1,90,0,0
37942,-100,4,2,1,70,0,0
38156,-100,4,2,1,90,0,0
41370,-100,4,2,1,70,0,0
41585,-100,4,2,1,90,0,0
44799,-100,4,2,1,70,0,0
45013,-100,4,2,1,90,0,0
48227,-100,4,2,0,70,0,0
55085,-100,4,2,1,70,0,0
55299,-100,4,2,1,90,0,0
58513,-100,4,2,1,70,0,0
58728,-100,4,2,1,90,0,0
61942,-100,4,2,1,70,0,0
62156,-100,4,2,1,90,0,0
68799,-100,4,2,1,70,0,0
69013,-100,4,2,1,90,0,0
75656,-100,4,2,1,70,0,0
75870,-100,4,2,1,90,0,0
82513,-100,4,2,1,70,0,0
82728,-100,4,2,1,90,0,0
84228,-100,4,2,1,70,0,0
84442,-100,4,2,1,90,0,0
85942,-100,4,2,1,70,0,0
86156,-100,4,2,1,90,0,0
89370,-100,4,2,1,70,0,0
89585,-100,4,2,1,90,0,0
92799,-100,4,2,1,70,0,0
93013,-100,4,2,1,90,0,0
96228,-100,4,2,1,70,0,0
96442,-100,4,2,1,90,0,0
103085,-100,4,2,1,70,0,0
103299,-100,4,2,1,90,0,0
106513,-100,4,2,1,70,0,0
106728,-100,4,2,1,90,0,0
109942,-100,4,2,1,70,0,0
110156,-100,4,2,1,90,0,0
123656,-100,4,2,1,70,0,0
123871,-100,4,2,1,90,0,0
133942,-100,4,2,1,70,0,0
134156,-100,4,2,1,90,0,0
135656,-100,4,2,1,70,0,0
135871,-100,4,2,1,90,0,0
137371,-100,4,2,1,70,0,0
137585,-100,4,2,1,90,0,0
140799,-100,4,2,1,70,0,0
141013,-100,4,2,1,90,0,0
144228,-100,4,2,1,70,0,0
144442,-100,4,2,1,90,0,0
151085,-100,4,2,1,70,0,0
151299,-100,4,2,1,90,0,0
157942,-100,4,2,1,70,0,0
158156,-100,4,2,1,90,0,0
164774,-133.333333333333,4,2,1,70,0,0
165228,-133.333333333333,4,2,1,90,0,0
171656,-133.333333333333,4,2,1,70,0,0
171871,-133.333333333333,4,2,1,90,0,0
175514,-133.333333333333,4,2,0,90,0,0
175728,-133.333333333333,4,2,1,90,0,0
177228,-133.333333333333,4,2,0,90,0,0
177442,-133.333333333333,4,2,1,90,0,0
178514,-133.333333333333,4,2,1,70,0,0
178728,-133.333333333333,4,2,1,90,0,0
188799,-133.333333333333,4,2,1,70,0,0
189014,-133.333333333333,4,2,1,90,0,0
191371,-133.333333333333,4,2,1,70,0,0
191799,-133.333333333333,4,2,1,50,0,0

[Colours]
Combo1 : 255,128,128
Combo2 : 0,255,0
Combo3 : 128,255,255
Combo4 : 255,255,0

[HitObjects]
256,192,335,2,0,B|320:192|320:136,1,95.000000298023,4|0
320,40,763,1,8
224,40,977,2,0,B|96:40|96:152,2,190.000000596046
320,40,2049,2,0,B|432:40|480:160,1,190.000000596046,0|8
336,192,2692,1,0
320,344,2906,2,0,B|432:344|480:224,1,190.000000596046
240,104,3763,2,0,B|176:192|240:280,1,190.000000596046,4|8
152,304,4406,2,0,B|216:216|152:128,1,190.000000596046
328,48,5263,5,0
328,144,5477,1,4
448,72,5799,1,8
448,216,6120,1,8
448,312,6335,1,0
352,312,6549,1,0
256,312,6763,1,0
160,312,6977,1,0
208,232,7192,2,0,B|80:232|80:120,2,190.000000596046,4|8|0
400,232,8477,5,0
400,136,8692,1,0
400,232,8906,2,0,B|400:312|280:312|280:232,1,190.000000596046,4|0
340,160,9549,1,0
280,84,9763,2,0,B|280:4|400:4|401:84,1,190.000000596046
408,184,10406,1,0
408,280,10620,2,0,B|320:280|320:328|224:328,1,190.000000596046,4|8
128,328,11263,1,0
88,304,11370,1,0
56,264,11477,1,0
56,72,11906,5,0
152,72,12120,1,0
104,152,12335,2,0,B|48:224|48:224|152:224,1,190.000000596046,4|8
408,152,13192,2,0,B|464:224|464:224|360:224,1,190.000000596046
256,64,14049,2,0,B|80:64|80:240,2,285.000000894069,4|0|0
352,64,15549,1,0
448,64,15763,1,0
400,248,16192,6,0,B|400:152,2,95.000000298023,8|0|0
256,248,16942,1,0
256,104,17263,1,0
192,176,17477,2,0,B|72:176|72:296,1,190.000000596046,4|8
72,104,18335,1,0
256,104,19192,6,0,B|256:32,2,63.3333335320153,2|0|0
200,192,19620,1,0
256,272,19763,1,0
312,192,19906,1,0
408,192,20049,2,0,B|472:192,2,63.3333335320153,2|0|0
312,192,20477,1,0
256,104,20620,1,0
200,192,20763,1,0
256,272,20906,1,4
256,192,32906,12,0,34192
256,192,34406,1,0
232,160,34513,1,0
208,136,34620,2,0,B|160:88|80:72,2,142.500000447034,4|0|0
192,40,35477,2,0,B|272:80|288:152,2,142.500000447034,8|0|0
208,136,36335,2,0,B|160:88|80:72,2,142.500000447034,8|0|0
256,192,37192,1,8
256,192,37299,1,0
256,192,37406,1,0
256,192,37513,1,0
256,192,37620,1,0
256,192,37727,1,0
256,192,37835,1,0
304,248,38049,6,0,B|352:296|432:312,2,142.500000447034,4|0|0
320,344,38906,2,0,B|240:304|224:232,2,142.500000447034,8|0|0
304,248,39763,2,0,B|352:296|432:312,2,142.500000447034,8|0|0
256,192,40620,1,8
256,192,40727,1,0
256,192,40835,1,0
256,192,40942,1,0
256,192,41049,1,0
256,192,41156,1,0
256,192,41263,1,0
304,112,41477,5,4
88,112,41799,1,0
296,48,42120,1,0
352,176,42335,1,8
136,176,42656,1,0
344,112,42977,1,0
408,240,43192,1,8
192,240,43513,1,0
392,176,43835,1,0
464,296,44049,2,0,B|512:296,6,47.5000001490115,8|0|0|0|0|0|0
368,296,44906,5,4
168,360,45227,1,0
384,360,45549,1,0
320,232,45763,1,8
112,296,46085,1,0
328,296,46406,1,0
272,168,46620,1,8
64,232,46942,1,0
280,232,47263,1,0
224,104,47477,2,0,B|200:48,6,47.5000001490115,8|0|0|0|0|0|0
152,192,48335,6,0,B|40:192|40:0|344:0|344:192|40:352,1,570.000001788138,4|0
360,192,50049,2,0,B|472:192|472:0|168:0|168:192|472:352,1,570.000001788138,4|0
224,192,51763,2,0,B|152:192|112:56|160:56|160:-8|256:48|256:48|344:-8|344:56|400:56|344:192|288:192,1,570.000001788138,4|0
256,328,53478,5,4
256,56,53906,1,4
392,192,54335,2,0,B|368:144|320:112,1,95.000000298023,2|0
120,192,54763,2,0,B|144:144|192:112,1,95.000000298023,2|0
328,216,55192,6,0,B|368:272|320:320|184:320|144:272|184:216,1,285.000000894069,4|0
392,192,56049,2,0,B|368:144|320:112,1,95.000000298023
120,192,56478,2,0,B|144:144|192:112,1,95.000000298023,8|0
256,184,56906,2,0,B|352:184|352:280|256:280,1,190.000000596046,0|8
160,280,57549,1,0
160,184,57763,2,0,B|160:104|256:104,2,142.500000447034,8|0|0
160,280,58620,6,0,B|256:280,1,95.000000298023,4|0
352,280,59049,2,0,B|456:280|456:144,1,190.000000596046,8|0
456,56,59692,1,0
360,56,59906,1,8
408,136,60120,1,0
312,136,60335,2,0,B|353:172|312:232,1,95.000000298023
368,96,60763,2,0,B|332:46|374:10,1,95.000000298023,8|0
200,216,61192,2,0,B|241:252|200:312,1,95.000000298023
256,176,61620,2,0,B|220:126|262:90,1,95.000000298023,8|0
176,40,62049,6,0,B|176:112|104:144|104:216,1,190.000000596046,4|8
104,304,62692,1,0
200,304,62906,2,0,B|296:304,3,95.000000298023,0|0|8|0
392,304,63763,2,0,B|456:304|456:248,1,95.000000298023
456,136,64192,2,0,B|456:72|400:72,1,95.000000298023,8|0
304,72,64620,2,0,B|272:72|272:72|304:120|304:168|168:168|168:120|200:72|200:72|168:72,1,285.000000894069
72,72,65478,6,0,B|136:192|136:192|56:240|112:320,1,285.000000894069
192,360,66335,2,0,B|248:360|280:304,1,95.000000298023
304,224,66763,2,0,B|272:176|224:176,1,95.000000298023,8|0
128,176,67192,1,0
32,176,67406,1,0
80,256,67620,2,0,B|80:304,2,47.5000001490115,8|0|0
128,176,68049,1,0
32,176,68263,1,0
80,96,68478,2,0,B|80:40,2,47.5000001490115,8|0|0
32,176,68906,6,0,B|224:176,1,190.000000596046,4|8
320,180,69549,1,0
392,264,69763,2,0,B|472:176|392:88,1,190.000000596046,0|8
320,180,70406,1,0
248,264,70620,2,0,B|168:176|248:88,1,190.000000596046,0|8
320,180,71263,1,0
320,272,71478,2,0,B|416:272,1,95.000000298023
320,80,71906,2,0,B|216:80,1,95.000000298023,8|0
128,80,72335,6,0,B|24:160|24:320|240:320,1,380.000001192092
328,320,73406,1,0
328,224,73620,2,0,B|264:152,1,95.000000298023,8|0
184,96,74049,2,0,B|112:96|112:144,2,95.000000298023,0|0|8
184,192,74692,1,0
184,288,74906,2,0,B|256:288|256:240,2,95.000000298023,0|0|8
184,192,75549,1,0
184,192,75763,6,0,B|280:192|280:192|360:152|360:152|424:152|424:152|424:192,1,285.000000894069,4|0
344,240,76620,2,0,B|240:288,1,95.000000298023
296,104,77049,2,0,B|382:64,1,95.000000298023,8|0
472,32,77478,2,0,B|472:112|416:112|416:216,2,190.000000596046,0|8|0
376,32,78549,1,0
280,32,78763,2,0,B|184:32,1,95.000000298023,8|0
176,128,79192,6,0,B|88:216|176:304,1,190.000000596046,0|8
256,216,79835,1,0
344,295,80049,2,0,B|424:216|336:128,1,190.000000596046,0|8
256,72,80692,1,0
160,48,80906,2,0,B|64:48|64:192,1,190.000000596046,0|8
192,328,81763,2,0,B|320:328,1,95.000000298023
384,320,82192,1,8
416,296,82299,1,0
440,264,82406,1,0
448,224,82513,1,0
448,184,82620,6,0,B|448:72|320:72,2,190.000000596046,4|8|0
256,192,83906,1,8
256,288,84120,1,0
64,184,84335,2,0,B|64:72|192:72,2,190.000000596046,4|8|0
256,192,85620,1,8
256,288,85835,1,0
448,184,86049,6,0,B|448:72|320:72,1,190.000000596046,4|8
256,288,86692,1,0
64,184,86906,2,0,B|64:72|192:72,1,190.000000596046,0|8
256,288,87549,1,0
256,192,87763,2,0,B|256:88,1,95.000000298023
176,40,88192,1,8
144,24,88299,1,0
112,40,88406,1,0
112,136,88620,1,0
144,152,88728,1,0
176,136,88835,1,0
232,88,89049,5,8
272,96,89156,1,0
304,112,89263,1,0
336,136,89370,1,0
352,168,89478,2,0,B|352:256|224:304,2,190.000000596046,4|8|0
376,136,90442,1,0
408,120,90549,1,0
472,192,90763,1,8
456,224,90870,1,0
424,240,90978,1,0
344,288,91192,2,0,B|256:352|168:288,3,190.000000596046,0|8|0|8
256,192,92692,1,0
343,95,92906,6,0,B|256:32|152:104,3,190.000000596046,4|8|0|8
96,160,94406,1,0
32,232,94620,2,0,B|88:328|224:304,1,190.000000596046,0|8
288,296,95263,1,0
368,248,95478,1,0
400,232,95585,1,0
432,216,95692,1,0
432,112,95906,1,8
400,128,96013,1,0
368,144,96120,1,0
280,192,96335,6,0,B|184:192|160:56,1,190.000000596046,4|8
256,40,96978,1,0
344,64,97192,2,0,B|344:160|160:160|160:264,1,285.000000894069
352,264,98049,2,0,B|353:162|169:162|169:66,1,285.000000894069
72,64,98906,2,0,B|24:104|24:160,1,95.000000298023
19,239,99335,1,8
103,195,99549,1,0
103,289,99763,6,0,B|103:372|103:372|7:372|7:372|103:193,1,380.000001192092
144,112,100835,1,0
184,24,101049,2,0,B|288:24,1,95.000000298023,8|0
376,24,101478,2,0,B|448:24|448:72,1,95.000000298023
448,160,101906,1,8
447,68,102121,1,0
448,160,102335,2,0,B|448:280|336:288,1,190.000000596046,0|8
160,312,103192,6,0,B|80:311|80:191|160:191,1,190.000000596046,4|8
256,192,103835,1,0
256,288,104049,2,0,B|345:288|345:200,2,142.500000447034,8|8|0
352,72,104906,2,0,B|431:72|431:192|351:192,1,190.000000596046,0|8
256,192,105549,1,0
256,96,105763,2,0,B|166:95|166:183,2,142.500000447034,8|8|0
256,192,106621,6,0,B|177:192|177:312|257:312,1,190.000000596046,4|8
328,256,107263,1,0
352,168,107478,2,0,B|424:232,1,95.000000298023
312,352,107906,2,0,B|240:288,1,95.000000298023,8|0
256,192,108335,12,4,110049
256,192,123763,5,4
256,96,123978,1,0
256,192,124192,2,0,B|256:256|200:256,1,95.000000298023,8|0
208,64,124835,2,0,B|144:64|144:120,1,95.000000298023,0|8
144,216,125263,1,0
56,168,125478,2,0,B|56:304|152:304,1,190.000000596046,0|8
248,304,126121,1,0
344,304,126335,2,0,B|400:304|432:256,3,95.000000298023,0|0|8|0
488,192,127192,6,0,B|488:64|488:64|384:192|384:192|296:192,1,380.000001192092
104,192,128478,1,8
200,192,128692,1,0
152,112,128906,2,0,B|192:24|312:40,1,190.000000596046,0|8
408,56,129549,1,0
488,104,129763,2,0,B|448:144|488:192,1,95.000000298023
400,152,130192,2,0,B|440:192|400:240,1,95.000000298023,8|0
352,320,130621,6,0,B|224:320|224:248|72:248,1,285.000000894069
32,168,131478,1,0
128,168,131692,1,0
80,88,131906,1,8
176,88,132121,1,0
272,88,132335,2,0,B|400:88|400:200,1,190.000000596046,0|8
240,296,133192,2,0,B|112:296|112:184,1,190.000000596046,0|8
256,64,134049,5,4
256,104,134156,1,0
256,144,134263,2,0,B|384:144|384:256,1,190.000000596046
224,144,135121,2,0,B|160:144|160:200,1,95.000000298023,0|8
160,296,135549,1,0
256,320,135763,1,4
256,280,135871,1,0
256,240,135978,2,0,B|128:240|128:128,1,190.000000596046
288,240,136835,2,0,B|352:240|352:184,1,95.000000298023,0|8
352,88,137263,1,0
256,88,137478,6,0,B|160:88,1,95.000000298023,4|0
64,88,137906,1,8
112,168,138121,1,0
112,264,138335,1,0
144,288,138442,1,0
184,296,138549,1,0
280,296,138763,2,0,B|376:296,1,95.000000298023,8|0
448,232,139192,2,0,B|336:232,1,95.000000298023
256,232,139621,1,8
216,224,139728,1,0
184,208,139835,1,0
152,184,139942,1,0
120,160,140049,2,0,B|120:48|248:48,2,190.000000596046,0|8|4
120,352,141335,5,8
312,344,141763,1,0
352,336,141871,1,0
384,320,141978,1,0
464,272,142192,2,0,B|464:216|400:216,1,95.000000298023,8|0
400,120,142621,2,0,B|328:48,1,95.000000298023
256,112,143049,1,8
256,208,143263,1,0
176,264,143478,2,0,B|104:192,1,95.000000298023
112,104,143906,2,0,B|50:104|50:48,1,95.000000298023,8|0
56,144,144335,6,0,B|56:216|120:216|120:320,1,190.000000596046,4|8
312,344,145192,1,0
344,328,145299,1,0
368,304,145406,1,0
384,272,145513,1,0
384,232,145621,2,0,B|384:120|256:120,1,190.000000596046,8|0
112,120,146478,1,8
112,312,146906,2,0,B|152:280|200:312,1,95.000000298023
136,240,147335,2,0,B|176:272|224:240,1,95.000000298023,8|0
304,184,147763,6,0,B|448:120|448:32|304:32,1,285.000000894069
208,32,148621,1,0
80,96,148835,1,0
144,224,149049,1,8
272,160,149263,1,0
272,304,149478,1,0
128,304,149692,1,0
128,160,149906,1,8
272,160,150121,1,0
368,160,150335,1,0
408,168,150442,1,0
440,184,150549,1,0
440,280,150764,5,8
408,264,150871,1,0
368,256,150978,1,0
328,248,151085,1,0
288,248,151192,2,0,B|192:248,1,95.000000298023,4|0
96,248,151621,2,0,B|96:152,1,95.000000298023,8|0
96,56,152049,2,0,B|136:24|184:32,3,95.000000298023,0|0|8|0
272,56,152906,2,0,B|472:128,1,190.000000596046,0|8
384,192,153549,1,0
450,263,153764,2,0,B|272:328,1,190.000000596046,0|8
184,352,154406,1,0
88,352,154621,6,0,B|88:240,1,95.000000298023
88,160,155049,1,8
256,64,155478,2,0,B|256:120|320:120,1,95.000000298023
416,120,155906,1,8
480,48,156121,1,0
416,120,156335,2,0,B|288:120|288:288|416:288,1,285.000000894069
336,344,157192,2,0,B|288:320|264:272,1,95.000000298023
336,64,157621,2,0,B|288:88|264:136,1,95.000000298023,8|0
256,224,158049,6,0,B|168:312|64:216,1,190.000000596046,4|8
88,48,158906,1,0
184,48,159121,1,0
136,128,159335,1,8
232,128,159549,1,0
280,48,159764,2,0,B|384:48|384:184,1,190.000000596046,0|8
256,320,160621,2,0,B|208:264|288:264,1,95.000000298023
256,64,161049,2,0,B|304:120|224:120,1,95.000000298023,8|0
256,192,161478,12,0,162764
256,192,163192,12,0,164478
176,168,164906,6,0,B|152:80|40:80,2,142.499996200204,4|0|0
256,320,166192,1,0
336,168,166621,2,0,B|360:80|472:80,2,142.499996200204,8|0|0
256,320,167906,1,0
256,152,168335,6,0,B|256:96|216:96,1,71.2499981001018,8|0
136,96,168764,1,0
136,264,169192,2,0,B|136:320|176:320,1,71.2499981001018
256,320,169621,1,0
344,320,169835,1,0
432,320,170049,2,0,B|432:240|336:240,3,142.499996200204,8|0|0|0
168,240,171764,6,0,B|64:240|64:136,1,142.499996200204,4|0
192,48,172621,1,0
336,48,172835,1,0
264,168,173049,1,0
192,336,173478,1,8
336,336,173692,1,0
264,216,173906,1,0
96,192,174335,2,0,B|96:112|176:72,1,142.499996200204
248,48,174978,1,0
336,48,175192,6,0,B|480:48|480:256,1,284.999992400407,8|0
336,344,176478,1,0
168,344,176906,2,0,B|168:192|256:192|256:288|96:288|96:208,1,284.999992400407,8|0
96,40,178192,1,0
264,40,178621,6,0,B|320:40|320:96|392:96,1,142.499996200204,4|0
480,96,179264,1,0
392,96,179478,2,0,B|320:96|320:152|264:152,1,142.499996200204
144,272,180335,2,0,B|80:336,2,71.2499981001018,8|0|0
368,272,181192,2,0,B|432:336,2,71.2499981001018
256,144,182049,6,0,B|256:64|352:64,1,142.499996200204,8|0
256,240,182906,2,0,B|256:320|160:320,1,142.499996200204
72,320,183549,1,0
72,232,183764,2,0,B|96:192|72:160,1,71.2499981001018,8|0
32,40,184192,2,0,B|8:80|32:112,1,71.2499981001018
192,224,184621,2,0,B|216:184|192:152,1,71.2499981001018
152,32,185049,2,0,B|128:72|152:104,1,71.2499981001018
232,72,185478,6,0,B|336:72|336:144,1,142.499996200204,8|0
256,296,186335,1,0
184,48,186764,1,0
384,208,187192,1,8
128,200,187621,1,0
320,48,188049,1,0
256,296,188478,1,0
320,136,188906,6,0,B|256:80|192:136,1,142.499996200204,4|0
256,192,189549,1,0
192,248,189764,2,0,B|256:304|320:248,1,142.499996200204
256,88,190621,1,8
256,192,191478,1,8
256,192,191906,1,8
256,192,192335,12,0,197478
