osu file format v9

[General]
AudioFilename: 05.Crystal Cinderella.mp3
AudioLeadIn: 2007
PreviewTime: 82888
Countdown: 0
SampleSet: Soft
StackLeniency: 0.6
Mode: 0
LetterboxInBreaks: 1

[Editor]
DistanceSpacing: 0.8
BeatDivisor: 4
GridSize: 8

[Metadata]
Title:Crystal Cinderella
Artist:Midnight Project
Creator:C R E A M
Version:Normal
Source:Touhou
Tags:brikel Cookiezi KRZY

[Difficulty]
HPDrainRate:4
CircleSize:4
OverallDifficulty:4
ApproachRate:4
SliderMultiplier:1.20000000596046
SliderTickRate:1

[Events]
//Background and Video events
0,0,"bg_hard.jpg"
//Break Periods
2,21106,26443
2,110249,122443
2,132534,136157
2,165106,177300
//Storyboard Layer 0 (Background)
//Storyboard Layer 1 (Fail)
//Storyboard Layer 2 (Pass)
//Storyboard Layer 3 (Foreground)
//Storyboard Sound Samples
//Background Colour Transformations
3,100,163,162,255

[TimingPoints]
335,428.571428571429,4,2,1,75,1,0
4065,-100,4,2,0,75,0,0
4279,-100,4,2,1,75,0,0
19406,-100,4,2,1,20,0,0
26861,-100,4,2,1,70,0,0
35049,-100,4,2,1,75,0,0
48718,-100,4,2,1,20,0,0
53477,-100,4,2,1,65,0,0
55406,-100,4,2,1,70,0,0
66636,-100,4,2,0,80,0,0
66850,-100,4,2,1,70,0,0
82620,-100,4,2,1,100,0,1
108335,-100,4,2,1,20,0,0
123290,-100,4,2,1,60,0,0
127493,-100,4,2,0,60,0,0
127707,-100,4,2,1,60,0,0
131004,-100,4,2,1,20,0,0
135718,-100,4,2,1,80,0,0
145835,-100,4,2,1,60,0,0
146263,-100,4,2,1,80,0,0
153100,-100,4,2,0,80,0,0
153529,-100,4,2,1,80,0,0
154910,-100,4,2,0,80,0,0
155156,-100,4,2,1,80,0,0
158993,-100,4,2,0,80,0,0
159207,-100,4,2,1,80,0,0
178147,-100,4,2,1,60,0,0
192718,-100,4,2,1,20,0,0

[Colours]
Combo1 : 245,143,143
Combo2 : 0,255,0
Combo3 : 128,255,255
Combo4 : 255,255,0

[HitObjects]
256,192,335,1,4
256,192,1620,2,0,B|256:112,2,60.000000298023
416,296,2906,1,0
224,328,3763,2,0,B|112:328|56:224,1,180.000000894069,0|2
88,104,5049,5,0
168,56,5477,2,0,B|224:40|280:56,2,90.0000004470345,0|2|8
168,56,6335,1,8
168,152,6763,1,2
256,112,7192,2,0,B|320:96|368:144,2,120.000000596046,0|2|0
432,192,8906,5,0
384,272,9334,1,0
304,320,9763,2,0,B|224:320|160:296,1,120.000000596046,0|2
232,224,10620,2,0,B|168:200|128:152,1,120.000000596046,0|2
208,104,11477,2,0,B|160:64|152:8,2,90.0000004470345,0|0|8
208,104,12334,1,8
256,192,12763,5,0
336,136,13192,1,2
344,232,13620,1,0
256,192,14049,1,0
400,320,14906,6,0,B|456:280|472:216,1,120.000000596046,0|0
376,208,15763,2,0,B|416:136|416:72,1,120.000000596046,0|2
376,72,16406,1,0
328,56,16620,1,2
256,120,17049,2,0,B|256:192,2,60.000000298023,2|0|8
160,120,17906,6,0,B|96:152|64:216,1,120.000000596046,0|2
168,208,18763,2,0,B|128:264|120:328,1,120.000000596046,0|2
256,192,19406,12,4,20906
256,192,27763,5,0
408,304,28620,2,0,B|456:256|472:192,1,120.000000596046,0|2
440,112,29477,1,0
360,56,29906,1,2
272,104,30335,6,0,B|216:160|208:224,2,120.000000596046,0|2|0
192,48,31620,2,0,B|120:80|80:136,1,120.000000596046
48,200,32477,1,0
136,248,32906,2,0,B|208:296|264:288,1,120.000000596046,2|0
256,192,33763,2,0,B|256:80,2,90.0000004470345,4|2|4
256,192,34620,5,4
256,288,35049,1,8
336,240,35477,2,0,B|360:288|400:288,2,60.000000298023,0|0|2
256,192,36335,1,8
176,240,36763,2,0,B|152:288|112:288,2,60.000000298023
256,192,37620,6,0,B|256:48,1,120.000000596046,2|0
160,64,38477,2,0,B|88:176,1,120.000000596046,0|2
184,208,39335,2,0,B|120:312,1,120.000000596046,0|2
216,336,40192,1,2
312,312,40620,2,0,B|360:304|384:280,2,60.000000298023,8|2|8
320,208,41477,5,4
320,208,41906,2,0,B|360:144|432:128,2,120.000000596046,8|0|2
256,136,43192,1,0
176,192,43620,1,8
256,248,44049,1,0
336,192,44477,1,8
400,128,44906,6,0,B|368:72|320:40,1,120.000000596046,0|8
312,136,45763,2,0,B|264:96|200:80,1,120.000000596046,0|0
224,176,46620,2,0,B|168:152|96:152,2,120.000000596046,0|2|0
256,264,47906,2,0,B|256:336,2,60.000000298023,2|0|4
256,192,48763,12,0,51763
256,192,53477,5,4
256,192,53906,1,4
352,192,54334,2,2,B|416:192,4,60.000000298023,4|2|4|2|4
408,272,55620,6,0,B|352:320|288:320,1,120.000000596046,2|0
208,344,56477,1,2
112,328,56906,2,0,B|56:296|24:216,1,120.000000596046,0|2
128,232,57763,2,0,B|88:184|72:112,1,120.000000596046,0|2
168,152,58620,6,0,B|144:88|144:24,1,120.000000596046,0|8
192,48,59263,1,8
224,80,59477,2,0,B|288:80,2,60.000000298023,0|0|2
288,152,60334,2,0,B|344:224|392:240,1,120.000000596046,2|0
464,192,61192,2,0,B|480:160|480:128,2,60.000000298023,0|2|0
408,272,62049,5,0
408,272,62477,2,0,B|352:328,1,60.000000298023
328,280,62906,2,0,B|272:320,1,60.000000298023
256,272,63334,2,0,B|192:296,1,60.000000298023
176,256,63763,2,0,B|96:248|72:168,1,120.000000596046,0|2
64,96,64620,6,0,B|112:40|184:40,1,120.000000596046,0|2
256,88,65477,1,0
344,48,65906,1,0
440,72,66334,2,0,B|480:128|408:176|440:216|464:256,1,180.000000894069,0|8
400,288,67192,6,0,B|352:328,1,60.000000298023,8|8
288,296,67620,2,0,B|208:312,1,60.000000298023,0|0
184,248,68049,2,2,B|112:240|64:200,1,120.000000596046,8|2
120,72,68906,6,0,B|168:24|240:40,3,120.000000596046,8|0|0|2
280,40,70406,1,8
328,48,70620,2,0,B|400:72|440:136,1,120.000000596046,0|4
424,208,71477,1,0
448,248,71692,1,0
408,280,71906,1,0
424,328,72120,1,8
376,328,72334,6,0,B|304:320|256:296,1,120.000000596046,8|2
336,240,73192,2,0,B|280:216|232:160,1,120.000000596046,2|0
320,120,74049,2,0,B|368:64,4,60.000000298023,2|0|2|0|2
224,104,75334,1,4
160,32,75763,6,0,B|96:56|48:112,1,120.000000596046
144,136,76620,2,0,B|88:184|72:256,2,120.000000596046,2|0|2
240,160,77906,1,0
328,120,78334,1,0
424,128,78763,6,0,B|416:200|360:240,1,120.000000596046,2|0
408,320,79620,2,0,B|368:328|328:320,1,60.000000298023,0|8
304,320,80049,1,8
208,320,80477,1,0
256,240,80906,1,0
256,144,81334,1,0
208,64,81763,2,0,B|152:56|88:72,1,120.000000596046,0|4
144,152,82620,6,0,B|80:160|32:200,1,120.000000596046,0|8
88,272,83477,2,0,B|152:312,1,60.000000298023,0|0
184,288,83906,1,8
272,336,84334,2,0,B|376:320|456:272|488:208,1,240.000001192092,0|0
432,144,85620,1,8
376,64,86049,6,0,B|328:32|240:48,2,120.000000596046
360,112,87120,1,0
344,160,87334,1,4
320,200,87549,1,0
296,240,87763,2,0,B|256:280|192:304,1,120.000000596046,0|2
208,208,88620,2,0,B|152:232|72:224,1,120.000000596046,0|2
96,128,89477,5,0
168,64,89906,1,8
256,24,90334,1,0
344,64,90763,1,8
416,128,91192,1,0
456,216,91620,6,0,B|400:320,1,120.000000596046,8|0
352,240,92477,2,0,B|256:312,1,120.000000596046,0|2
200,232,93334,1,8
112,192,93763,2,0,B|40:192,2,60.000000298023,0|2|8
152,136,94406,5,8
200,80,94620,2,0,B|248:40|328:40,1,120.000000596046,0|4
408,152,95477,1,8
456,208,95692,1,2
400,256,95906,1,8
352,200,96120,1,0
320,264,96335,6,0,B|272:320|192:320,1,120.000000596046,0|2
159,274,96977,1,8
151,202,97192,2,0,B|71:210,2,60.000000298023,2|0|8
272,128,98049,2,0,B|232:64|176:40,1,120.000000596046,0|4
112,32,98692,1,0
96,104,98906,2,0,B|24:136,2,60.000000298023,2|0|8
88,248,99763,6,0,B|32:312|112:352,2,120.000000596046,0|2|0
184,264,101049,1,0
216,304,101263,1,2
256,328,101477,1,0
344,296,101906,2,0,B|416:296,2,60.000000298023,8|2|8
318,255,102549,1,8
332,209,102763,2,0,B|388:193|428:137,1,120.000000596046,0|2
368,64,103620,6,0,B|432:32,2,60.000000298023,0|2|8
320,80,104263,1,0
276,59,104477,2,0,B|212:19,2,60.000000298023,2|2|2
208,128,105335,1,8
208,128,105763,2,0,B|144:176|72:144,1,120.000000596046
48,232,106620,2,2,B|96:288|176:264,1,120.000000596046,0|2
224,336,107477,1,0
312,296,107906,1,2
256,192,108334,12,4,110049
256,192,123763,5,0
256,192,125049,1,0
256,288,125477,1,0
256,96,126334,1,0
424,192,127192,6,0,B|240:192,1,180.000000894069,2|2
152,304,128477,2,0,B|80:256,1,60.000000298023,2|0
64,240,128906,1,2
88,144,129334,2,0,B|88:72|160:32,1,120.000000596046
224,96,130192,1,0
256,184,130620,1,0
256,192,131049,12,0,132334
256,192,137477,5,4
256,288,137906,2,0,B|200:336,1,60.000000298023,2|8
192,280,138334,2,0,B|120:312,1,60.000000298023,8|0
104,272,138763,1,2
56,192,139192,6,0,B|72:128|128:72,1,120.000000596046,0|2
208,56,140049,2,0,B|288:56,1,60.000000298023,2|8
256,104,140477,2,0,B|312:120,1,60.000000298023,8|2
312,168,140906,1,0
376,96,141334,1,0
456,152,141763,5,0
440,200,141977,1,0
408,232,142192,1,8
376,320,142620,2,0,B|408:352|456:344,2,60.000000298023,8|2|2
280,328,143477,2,0,B|224:328|152:288,1,120.000000596046,0|8
104,224,144334,2,0,B|40:224,4,60.000000298023,0|0|0|0|8
56,144,145620,6,0,B|64:80|120:32,1,120.000000596046,8|4
176,112,146477,1,0
256,56,146906,1,0
336,112,147335,1,8
401,40,147763,2,0,B|448:88|464:144,1,120.000000596046,0|8
416,224,148620,6,0,B|416:296,2,60.000000298023,0|2|0
328,192,149477,2,0,B|288:168|256:208|208:184,1,120.000000596046,0|8
224,280,150335,1,0
128,288,150763,1,8
40,328,151192,5,4
128,288,151620,1,0
40,248,152049,2,0,B|24:192|32:120,1,120.000000596046,0|2
88,48,152906,2,0,B|152:112|232:16|320:40,1,240.000001192092,2|2
456,168,154620,6,0,B|408:232|472:280|392:336,1,180.000000894069
256,328,155906,2,0,B|192:328,2,60.000000298023,0|0|8
256,232,156763,1,0
256,88,157192,1,8
256,232,157620,1,0
160,120,158049,1,2
136,336,158692,6,0,B|72:288|56:216|64:160,1,180.000000894069,0|8
80,88,159763,1,0
176,72,160192,2,0,B|176:8,2,60.000000298023,0|2|0
248,128,161049,1,8
328,72,161477,6,0,B|384:48,1,60.000000298023,4|0
416,112,161906,2,0,B|480:120,1,60.000000298023,2|8
472,192,162335,1,2
368,296,162763,2,0,B|304:320,1,60.000000298023,8|2
304,248,163192,1,2
168,288,163620,2,0,B|216:232,1,60.000000298023,8|2
256,184,164049,2,0,B|256:96,2,60.000000298023,0|2|0
256,328,164906,1,4
256,192,178620,5,2
64,192,179477,1,0
160,192,179906,1,2
256,192,180335,1,0
256,192,180763,1,8
256,192,181192,1,2
448,192,182049,6,0,B|440:120|400:64,1,120.000000596046,2|2
368,168,182906,2,0,B|344:104|288:64,1,120.000000596046,2|2
280,168,183763,2,0,B|240:120|176:96,1,120.000000596046,2|2
96,136,184620,1,0
16,192,185049,1,0
96,248,185477,1,4
256,272,186335,5,0
256,176,186763,1,0
256,272,187192,2,0,B|304:312|384:320,1,120.000000596046,0|8
424,240,188049,2,0,B|456:184|416:120,2,120.000000596046,0|2|0
280,112,189763,6,0,B|240:72|160:48,1,120.000000596046
192,144,190620,2,0,B|144:112|72:120,1,120.000000596046
104,208,191477,2,0,B|120:248|176:272|208:272,1,120.000000596046,0|2
256,192,192335,1,2
256,192,192763,12,2,195763
