osu file format v9

[General]
AudioFilename: Final_Fantasy_7_The_Twelfth_Commandment_OC_ReMix.mp3
AudioLeadIn: 0
PreviewTime: 28178
Countdown: 0
SampleSet: Soft
StackLeniency: 0.7
Mode: 0
LetterboxInBreaks: 1

[Editor]
DistanceSpacing: 1
BeatDivisor: 4
GridSize: 8

[Metadata]
Title:The Twelfth Commandment (OC ReMix)
Artist:Midee, prozax
Creator:Mukku
Version:Normal
Source:Final Fantasy VII
Tags:Nobuo Uematsu Judgement Day ffvii ocremix

[Difficulty]
HPDrainRate:4
CircleSize:4
OverallDifficulty:4
ApproachRate:4
SliderMultiplier:1.1
SliderTickRate:1

[Events]
//Background and Video events
0,0,"ffvii bg.jpg"
//Break Periods
2,22887,28320
2,72278,74417
2,143986,151246
//Storyboard Layer 0 (Background)
//Storyboard Layer 1 (Fail)
//Storyboard Layer 2 (Pass)
//Storyboard Layer 3 (Foreground)
//Storyboard Sound Samples
//Background Colour Transformations
3,100,163,162,255

[TimingPoints]
12079.0909090909,365.853658536585,4,2,0,51,1,0
29276,-100,4,1,0,69,0,0
38239,-200,4,1,0,77,0,0
39337,-100,4,1,0,52,0,0
40434,-100,4,1,0,62,0,0
41166,-100,4,2,0,62,0,0
46837,-100,4,1,0,66,0,0
50404,-100,4,1,0,12,0,0
50678,-100,4,1,0,66,0,0
52507,-100,4,1,0,66,0,0
58727,-200,4,2,0,66,0,0
61471,-100,4,1,0,66,0,0
63483,-100,4,1,0,66,0,0
70434,-200,4,1,0,66,0,0
71532,-100,4,1,0,66,0,0
75556,-100,4,2,0,66,0,0
76837,-100,4,1,0,66,0,0
78300,-100,4,2,0,66,0,0
79215,-100,4,1,0,66,0,0
79946,-200,4,1,0,66,0,0
81227,-100,4,1,0,66,0,0
84245,-100,4,2,0,35,0,0
86623,-200,4,2,0,35,0,0
87538,-100,4,2,0,35,0,0
89550,-200,4,2,0,35,0,0
90465,-100,4,1,0,45,0,0
91471,-200,4,1,0,45,0,0
93483,-100,4,1,0,45,0,0
95312,-200,4,1,0,45,0,0
99337,-100,4,1,0,45,0,0
104367,-100,4,1,0,45,0,0
113605,-200,4,1,0,45,0,0
119733,-100,4,1,0,45,0,0
120373,-100,4,1,0,45,0,1
123117,-200,4,1,0,45,0,1
124764,-100,4,1,0,0,0,1
125129,-100,4,1,0,49,0,1
131349,-200,4,1,0,49,0,0
134642,-100,4,1,0,49,0,0
152203,-100,4,2,0,49,0,0
152751,-100,4,1,0,54,0,0
153117,-100,4,2,0,49,0,0
153483,-100,4,1,0,36,0,0
153849,-100,4,2,0,49,0,0
154215,-100,4,1,0,54,0,0
154581,-100,4,2,0,49,0,0
154946,-100,4,1,0,38,0,0
155312,-100,4,2,0,49,0,0
155693,-100,4,1,0,51,0,0
156044,-200,4,2,0,49,0,0
158605,-100,4,1,0,42,0,0
158971,-100,4,2,0,49,0,0
159337,-100,4,1,0,32,0,0
159703,-100,4,2,0,49,0,0
160068,-100,4,1,0,46,0,0
160434,-100,4,2,0,49,0,0
160800,-100,4,1,0,33,0,0
161166,-100,4,2,0,44,0,0
164459,-100,4,1,0,54,0,0
164824,-100,4,2,0,44,0,0
165190,-100,4,1,0,44,0,0
165556,-100,4,2,0,44,0,0
165922,-100,4,1,0,54,0,0
166288,-100,4,2,0,44,0,0
166654,-100,4,1,0,44,0,0
167020,-200,4,2,0,44,0,0
168117,-100,4,1,0,56,0,0
168483,-100,4,2,0,44,0,0
168849,-100,4,1,0,37,0,0
169215,-100,4,2,0,44,0,0
169581,-100,4,1,0,56,0,0
169946,-100,4,2,0,44,0,0
170312,-100,4,1,0,37,0,0
170678,-200,4,2,0,44,0,0
172142,-100,4,1,0,44,0,0
172873,-100,4,2,0,44,0,0
173239,-100,4,1,0,49,0,0
173605,-100,4,2,0,44,0,0
173971,-100,4,1,0,51,0,0
174337,-100,4,2,0,44,0,0
174703,-100,4,1,0,38,0,0
175068,-100,4,2,0,44,0,0
175434,-100,4,1,0,56,0,0
175800,-100,4,2,0,44,0,0
176166,-100,4,1,0,44,0,0
179824,-100,4,2,0,37,0,0
181288,-100,4,2,0,32,0,0
181791,-100,4,2,0,37,0,0
182477,-200,4,2,0,37,0,0
183392,-100,4,2,0,37,0,0
188331,-200,4,2,0,37,0,0
189245,-100,4,1,0,37,0,0
189814,-100,4,1,0,68,0,0
190434,-100,4,1,0,26,0,0

[Colours]
Combo1 : 116,116,116
Combo2 : 233,233,233
Combo3 : 167,167,167

[HitObjects]
144,72,12079,1,0
256,72,12444,1,0
368,72,12810,1,2
312,168,13176,1,0
256,72,13542,5,0
200,168,13908,1,0
256,264,14274,1,0
368,264,14640,1,0
312,168,15005,5,0
312,168,15371,1,0
424,168,15737,1,2
424,168,16103,1,0
368,72,16469,5,0
368,72,16835,1,0
256,72,17201,1,8
256,72,17566,1,0
200,168,17932,5,0
192,280,18298,1,0
200,168,18664,1,2
232,272,19030,1,0
200,168,19396,5,0
272,256,19762,1,0
272,144,20127,6,0,B|324:85|369:153,2,110
272,256,21225,6,0,B|220:315|175:247,2,110,0|2|0
272,144,22322,6,0,B|220:85|175:153,1,110
200,128,29640,5,0
312,128,30005,1,2
312,240,30371,1,8
200,240,30737,1,0
104,184,31103,6,0,B|44:136|103:90,2,110,0|4|8
216,184,32201,1,0
328,184,32566,2,0,B|388:232|329:278,2,110,0|2|8
216,184,33664,6,0,B|213:116|291:110,1,110
176,80,34396,1,4
216,184,34762,2,0,B|219:252|141:258,1,110,8|0
264,272,35493,5,0
264,80,36225,5,0
376,80,36591,1,4
376,192,36957,5,8
376,192,37322,1,0
264,192,37688,5,8
264,192,38054,1,0
264,80,38420,2,0,B|320:40|375:86,1,110,2|8
376,192,39518,6,0,B|272:297|169:184,1,220
184,88,40615,1,0
376,192,41347,6,0,B|272:297|169:184,1,220,0|8
280,136,42444,1,0
280,136,42810,1,2
280,136,43176,1,0
280,136,43542,1,8
72,64,44274,6,0,B|-6:160|75:275,1,220,0|8
128,168,45371,1,2
128,168,45737,1,0
128,168,46103,1,2
128,168,46469,1,8
336,104,47201,6,0,B|366:271|234:106|233:256,2,220,4|8|4
224,104,49030,1,2
112,104,49396,1,8
112,216,49762,1,0
112,328,50127,6,0,B|154:250|196:340,1,110,4|0
296,328,50859,2,0,B|296:224|296:224|280:200|280:200|280:112,1,220
169,111,51957,1,2
169,220,52322,1,8
408,104,53054,6,0,B|408:328,2,220,4|8|4
296,104,54883,1,0
296,216,55249,1,8
184,216,55615,1,0
184,104,55981,6,0,B|304:104,2,110,4|2|8
376,216,57444,2,0,B|272:216|272:216|256:216,2,110
376,104,58908,6,0,B|240:104,1,110
136,272,60371,6,0,B|264:272,1,110
80,120,61835,5,0
248,120,62383,1,0
248,120,62566,2,0,B|361:36|434:159,1,220
357,236,63664,5,0
265,297,64030,2,0,B|217:360|172:290,2,110,8|0|4
256,192,64944,12,4,67322
256,96,67688,6,0,B|352:153|164:158|273:220,1,165
320,216,68420,2,0,B|460:173|201:129|376:72,1,220,8|0
464,136,69518,5,0
464,248,69883,2,0,B|465:325|369:308,1,110,2|0
280,312,70615,2,0,B|144:344|291:187|112:226,1,220
256,104,75737,5,2
312,200,76103,1,2
200,200,76469,1,4
400,112,77201,6,0,B|449:157|400:213,2,110,0|4|8
184,136,78664,5,0
184,248,79030,1,2
296,248,79396,2,0,B|296:120,1,110
408,136,80127,2,0,B|408:264,1,110
184,240,81591,6,0,B|184:112,1,110
296,128,82322,2,0,B|296:352,2,220
88,192,84518,5,4
88,192,84701,2,0,B|208:192,1,110,2|0
232,232,85249,2,0,B|294:182|224:136,1,110
336,192,85981,5,4
336,192,86164,2,0,B|208:192,1,110,2|0
192,232,86713,2,0,B|130:182|200:136,1,110,0|0
288,192,87810,5,0
248,88,88176,2,0,B|296:21|338:98,1,110
416,168,88908,5,2
416,168,89091,2,0,B|437:244|345:256,1,110
328,216,89640,2,0,B|275:154|230:237,1,110
128,232,90737,5,0
128,120,91103,1,0
368,96,91835,6,0,B|446:114|448:256|358:258,1,220,0|0
208,256,94030,6,0,B|128:176,1,110,0|0
240,168,94762,2,0,B|312:64,1,110
400,128,95493,2,0,B|320:240,1,110
336,216,96408,1,4
224,216,96774,5,0
224,216,96957,2,0,B|144:112,2,110
328,112,99152,5,0
376,208,99518,2,0,B|323:255|272:200,1,110,4|0
186,145,100249,2,0,B|89:257|205:343,1,220
352,192,101713,6,0,B|352:312,2,110,0|0|0
240,192,102810,2,0,B|128:192,1,110,8|0
185,81,103542,5,2
295,81,103908,2,0,B|408:80,1,110,0|8
350,191,104640,1,0
350,191,105005,1,2
256,192,105371,12,0,107932
328,104,108664,6,0,B|388:143|348:210,3,110,2|0|8|4
248,200,110127,1,0
136,200,110493,2,0,B|90:255|149:306,2,110,0|8|4
136,88,111591,5,2
248,88,111957,2,0,B|376:88,4,110,0|8|4|0|0
248,200,113786,1,0
456,272,114518,6,0,B|472:384|368:384,1,165
256,192,116347,1,0
256,192,116713,1,0
256,192,117079,1,0
144,192,117444,6,0,B|144:88|260:88,2,165
256,192,120005,1,0
368,192,120371,2,0,B|420:344|245:296,1,220
256,192,121469,5,0
256,80,121835,2,0,B|422:48|366:198,1,220
256,192,122932,5,0
152,192,123298,2,0,B|152:312,2,110
360,120,125493,6,0,B|249:44|152:120|152:120,1,220
256,176,126591,2,0,B|256:256|256:256,2,55
368,176,127322,2,0,B|368:104|368:104,2,55
368,288,128054,1,0
256,288,128420,6,0,B|144:288|144:288,1,110
120,176,129152,2,0,B|248:176|248:176,1,110
208,64,129883,2,0,B|88:64|88:64,1,110
120,176,130615,1,0
176,176,130798,1,0
232,176,130981,1,0
280,280,131347,6,0,B|378:183|280:80|280:80,1,220
152,192,133542,5,0
360,192,134274,1,0
176,88,135005,6,0,B|229:48|284:91,4,110
229,184,136835,1,0
275,283,137201,6,0,B|219:339|164:268,2,110
352,205,138298,1,0
274,127,138664,1,0
144,304,139396,6,0,B|88:248|88:176|104:136|152:104|208:96|256:112|293:138|293:138,1,330,0|0
256,192,140859,12,0,143786
112,168,152566,5,0
184,88,152932,1,0
256,168,153298,1,0
328,88,153664,1,0
400,168,154030,5,0
328,256,154396,1,0
256,168,154762,1,0
184,256,155127,1,0
112,168,155493,5,0
256,168,155859,1,0
400,168,156225,2,0,B|400:112|400:112|344:112|344:112,2,110
312,240,158420,5,0
312,240,158786,1,0
200,240,159152,1,0
200,240,159518,1,0
200,128,159883,5,0
200,128,160249,1,0
312,128,160615,1,0
312,128,160981,1,0
312,240,161347,5,0
200,240,161713,1,0
88,240,162079,2,0,B|38:134|92:61|167:80|167:80,2,220
256,104,164274,5,0
320,192,164640,1,0
384,104,165005,1,0
448,192,165371,1,0
384,280,165737,5,0
320,192,166103,1,0
256,280,166469,1,0
192,192,166835,1,0
128,280,167201,6,0,B|56:280|48:216|48:216,1,110
104,120,168298,1,8
104,120,168664,1,0
216,120,169030,5,8
216,120,169396,1,0
328,120,169762,1,8
328,120,170127,1,0
440,120,170493,5,8
440,120,170859,2,0,B|440:240|440:240,2,110,0|0|8
328,120,172688,1,0
216,120,173054,5,0
104,120,173420,1,8
160,216,173786,1,0
216,312,174152,1,8
272,216,174518,5,0
328,312,174883,1,8
384,216,175249,1,0
328,120,175615,1,8
248,48,175981,6,0,B|296:112|288:128|184:112|128:40|128:40,2,220
248,160,177810,1,0
248,272,178176,2,0,B|200:208|208:192|312:208|368:280|368:280,2,220
328,88,180371,5,0
216,88,180737,1,0
104,88,181103,1,0
104,200,181469,2,0,B|104:240|104:240,2,27.5
184,200,181835,6,0,B|240:152|304:208|304:208,1,110
312,240,182383,1,0
336,288,182566,2,0,B|392:336|456:280|456:280,1,110,0|0
416,184,183664,5,0
304,184,184030,2,0,B|184:184|184:184,1,110
144,280,184762,2,0,B|50:196|144:96|144:96,1,192.5
160,112,185493,2,0,B|160:184|208:192|240:176,1,110
304,112,186225,6,0,B|392:184|304:296|304:296,1,192.5
288,280,186957,2,0,B|288:208|240:200|208:216,1,110
200,104,187688,5,0
312,104,188054,1,0
256,200,188420,2,0,B|183:245|305:255|238:287|238:287|237:284,2,110
368,192,190249,1,0
288,112,190615,5,0
208,192,190981,1,0
128,112,191347,1,0
48,192,191713,1,0
128,272,192079,5,0
208,192,192444,1,0
288,272,192810,1,0
368,192,193176,1,0
256,192,193542,12,4,196469
