osu file format v9

[General]
AudioFilename: Final_Fantasy_7_The_Twelfth_Commandment_OC_ReMix.mp3
AudioLeadIn: 0
PreviewTime: 28178
Countdown: 0
SampleSet: Soft
StackLeniency: 0.7
Mode: 0
LetterboxInBreaks: 1

[Editor]
DistanceSpacing: 0.8
BeatDivisor: 4
GridSize: 8

[Metadata]
Title:The Twelfth Commandment (OC ReMix)
Artist:Midee, prozax
Creator:Mukku
Version:Hard
Source:Final Fantasy VII
Tags:Nobuo Uematsu Judgement Day ffvii ocremix

[Difficulty]
HPDrainRate:5
CircleSize:5
OverallDifficulty:7
ApproachRate:7
SliderMultiplier:1.4
SliderTickRate:1

[Events]
//Background and Video events
0,0,"ffvii bg.jpg"
//Break Periods
2,22888,28740
2,73742,74837
2,114717,118740
2,143986,151666
//Storyboard Layer 0 (Background)
//Storyboard Layer 1 (Fail)
//Storyboard Layer 2 (Pass)
//Storyboard Layer 3 (Foreground)
//Storyboard Sound Samples
//Background Colour Transformations
3,100,163,162,255

[TimingPoints]
12079.0909090909,365.853658536585,4,2,0,51,1,0
29276,-100,4,1,0,65,0,0
39337,-100,4,1,0,35,0,0
40434,-100,4,1,0,62,0,0
41166,-100,4,2,0,62,0,0
46837,-100,4,1,0,65,0,0
58818,-200,4,2,0,66,0,0
61471,-100,4,1,0,66,0,0
70434,-200,4,1,0,66,0,0
71532,-100,4,1,0,66,0,0
75556,-100,4,2,0,66,0,0
76837,-100,4,1,0,72,0,0
78300,-100,4,2,0,66,0,0
79215,-100,4,1,0,66,0,0
80312,-100,4,2,0,53,0,0
81410,-100,4,1,0,66,0,0
82142,-200,4,1,0,66,0,0
83148,-100,4,2,0,39,0,0
84337,-100,4,1,0,49,0,0
84885,-100,4,2,0,39,0,0
86623,-200,4,2,0,35,0,0
87538,-100,4,2,0,51,0,0
88727,-100,4,2,0,68,0,0
89276,-100,4,2,0,51,0,0
89550,-200,4,2,0,35,0,0
90465,-100,4,1,0,45,0,0
90831,-100,4,1,0,65,0,0
95312,-200,4,1,0,45,0,0
99245,-100,4,1,0,45,0,0
100160,-200,4,1,0,45,0,0
104367,-100,4,1,0,45,0,0
113605,-200,4,1,0,45,0,0
120190,-100,4,1,0,77,0,1
123117,-100,4,1,0,65,0,1
124764,-100,4,1,0,0,0,1
125312,-100,4,1,0,70,0,1
131257,-100,4,1,0,49,0,1
132069,-200,4,1,0,49,0,0
134459,-100,4,1,0,64,0,0
139306,-200,4,1,0,64,0,0
152203,-100,4,2,0,49,0,0
152751,-100,4,1,0,59,0,0
153117,-100,4,2,0,49,0,0
153483,-100,4,1,0,41,0,0
153849,-100,4,2,0,49,0,0
154215,-100,4,1,0,59,0,0
154581,-100,4,2,0,49,0,0
154946,-100,4,1,0,38,0,0
155312,-100,4,2,0,49,0,0
155770,-100,4,1,0,59,0,0
156044,-200,4,2,0,49,0,0
158605,-100,4,1,0,52,0,0
158971,-100,4,2,0,49,0,0
159337,-100,4,1,0,33,0,0
159703,-100,4,2,0,49,0,0
160068,-100,4,1,0,55,0,0
160434,-100,4,2,0,49,0,0
160800,-100,4,1,0,34,0,0
161166,-100,4,2,0,44,0,0
164459,-100,4,1,0,49,0,0
164824,-100,4,2,0,44,0,0
165190,-100,4,1,0,38,0,0
165556,-100,4,2,0,44,0,0
165922,-100,4,1,0,50,0,0
166288,-100,4,2,0,44,0,0
166654,-100,4,1,0,34,0,0
167020,-200,4,1,0,44,0,0
168117,-100,4,1,0,51,0,0
168483,-100,4,2,0,44,0,0
168849,-100,4,1,0,42,0,0
169215,-100,4,2,0,44,0,0
169581,-100,4,1,0,56,0,0
169946,-100,4,2,0,44,0,0
170312,-100,4,1,0,42,0,0
170678,-200,4,2,0,44,0,0
172142,-100,4,1,0,44,0,0
172873,-200,4,2,0,44,0,0
173605,-100,4,1,0,44,0,0
173971,-100,4,1,0,51,0,0
174337,-100,4,2,0,44,0,0
174703,-100,4,1,0,38,0,0
175068,-100,4,2,0,44,0,0
175434,-100,4,1,0,56,0,0
175800,-100,4,2,0,44,0,0
176166,-100,4,1,0,44,0,0
180190,-100,4,2,0,37,0,0
182477,-200,4,2,0,37,0,0
183392,-100,4,2,0,37,0,0
188331,-200,4,2,0,37,0,0
189245,-100,4,1,0,37,0,0
189611,-100,4,1,0,53,0,0
189814,-100,4,1,0,68,0,0
190434,-100,4,1,0,26,0,0
191896,-100,4,1,0,16,0,0

[Colours]
Combo1 : 116,116,116
Combo2 : 230,230,230
Combo3 : 167,167,167

[HitObjects]
256,80,12079,1,0
352,136,12444,1,0
256,192,12810,1,2
160,248,13176,1,0
256,296,13542,5,0
256,296,13908,1,0
352,248,14274,1,0
256,192,14640,1,0
160,136,15005,5,0
256,80,15371,1,0
256,80,15737,1,2
352,136,16103,1,0
352,136,16286,1,0
352,136,16469,1,0
256,192,16835,5,0
256,192,17018,1,0
256,192,17201,1,8
256,304,17566,1,0
160,240,17932,5,0
352,240,18298,1,0
256,192,18664,1,2
160,128,19030,5,0
352,240,19396,1,0
160,240,19762,1,0
352,128,20127,1,0
72,176,20493,6,0,B|0:176,2,70
448,176,21225,1,0
256,320,21591,1,2
256,56,21957,1,0
256,192,22322,5,0
256,192,22505,1,0
256,192,22688,1,0
128,152,29640,6,0,B|190:86|250:154,1,140,0|4
247,151,30188,1,0
248,152,30371,2,0,B|310:86|370:154,1,140,8|0
248,240,31103,5,2
248,240,31286,1,0
248,240,31469,1,2
360,240,31835,1,8
360,128,32201,1,0
256,88,32566,6,0,B|331:134|163:147|279:193,2,140,4|0|8
256,88,33664,1,0
256,328,34030,1,2
392,200,34396,1,0
256,200,34579,1,0
112,200,34762,1,8
392,200,35127,1,0
256,80,35493,5,4
368,80,35859,1,0
368,192,36225,1,8
256,192,36591,1,0
144,192,36957,5,2
144,248,37140,1,0
144,304,37322,1,2
200,304,37505,1,0
256,304,37688,1,8
256,248,37871,1,0
256,192,38054,1,0
200,96,38420,6,0,B|200:240,2,140,0|0|8
312,96,39518,2,0,B|312:272,2,140
256,192,40615,1,8
256,312,41347,6,0,B|376:208,1,140
360,168,41896,1,0
360,112,42079,2,0,B|256:16,1,140,8|0
240,72,42627,1,0
264,120,42810,1,0
224,160,42993,1,2
272,192,43176,1,4
160,176,43542,1,8
272,176,43908,1,0
288,272,44274,6,0,B|344:360|400:264,2,140,0|0|8
336,168,45371,1,0
384,64,45737,2,0,B|328:-24|272:72,2,140,0|0|4
200,192,47201,6,2,B|234:109|259:304|296:149,1,140,0|0
248,136,47749,1,0
288,96,47932,2,2,B|254:13|229:208|192:53,1,140,8|0
112,152,48664,1,2
112,208,48847,1,0
112,264,49030,1,2
112,264,49213,1,0
168,264,49396,6,0,B|320:264,2,140,8|0|0
104,168,50493,1,0
368,168,50859,1,8
232,312,51591,5,4
232,32,51957,1,0
432,168,52322,1,8
240,224,53054,5,2
240,224,53237,1,0
296,168,53420,1,2
240,112,53603,1,0
184,168,53786,1,8
136,272,54152,5,0
136,272,54335,1,0
136,272,54518,1,8
352,272,54883,5,0
352,272,55066,1,0
352,272,55249,1,8
352,80,55615,1,0
136,88,55981,6,0,B|80:160,1,70
136,176,56347,2,0,B|184:112,1,70
224,152,56713,2,0,B|136:264,2,140,0|0|0
272,120,57627,5,0
328,120,57810,1,0
376,152,57993,1,0
400,200,58176,1,0
344,192,58359,1,0
296,168,58542,1,0
272,120,58725,1,0
224,152,58908,6,0,B|81:207|330:225|180:293,1,210
352,288,60371,2,0,B|269:257|456:235|331:198,1,140,0|0
120,192,61469,5,0
120,192,61652,1,0
120,192,61835,2,0,B|288:192|288:192,1,140
260,192,62383,1,4
260,192,62566,1,8
400,192,62932,5,0
400,248,63115,1,0
400,248,63298,1,0
400,192,63481,1,0
400,136,63664,1,0
400,80,63847,1,4
400,80,64030,1,8
400,192,64396,1,0
304,128,64762,6,0,B|160:120,1,140,0|0
184,232,65493,6,0,B|352:240,1,140,0|0
304,352,66225,6,0,B|160:344,1,140
120,240,66957,6,0,B|72:240,4,35,8|0|0|0|0
192,152,67688,6,0,B|336:152|336:152,1,140
332,152,68237,1,4
332,152,68420,1,8
264,224,68786,5,0
264,280,68969,1,0
240,224,69152,1,0
240,280,69335,1,0
216,224,69518,1,0
216,280,69701,1,4
168,250,69883,2,0,B|88:185|240:147,1,140,8|0
296,224,70615,2,0,B|400:184|320:112,1,140,0|8
256,192,71713,12,4,73542
256,192,75737,5,2
296,192,76103,1,2
336,192,76469,1,4
184,192,77201,6,0,B|83:195|155:296,2,140,0|4|4
408,184,78664,6,0,B|408:272,2,70,2|0|2
264,176,79396,6,0,B|296:128|296:128|256:48,2,140,0|4|4
160,136,80493,5,2
136,184,80676,1,0
168,232,80859,1,2
128,272,81042,1,0
176,296,81225,1,2
256,216,81591,6,0,B|314:142|372:223,1,140
256,216,82322,2,0,B|198:290|140:209,1,140,4|0
368,88,83786,5,2
368,144,83969,1,2
368,200,84152,1,0
272,144,84518,6,0,B|192:144,1,70,0|4
176,256,85066,1,0
288,256,85249,2,0,B|448:256,2,140
288,144,86164,5,0
176,144,86347,1,0
176,256,86530,1,0
288,256,86713,6,0,B|207:225|364:194|264:158,1,140
264,104,87627,5,0
232,176,87810,1,0
280,240,87993,1,0
224,320,88176,2,0,B|122:342|214:248|115:261,1,140
88,144,88908,5,0
88,144,89091,1,0
200,144,89457,1,0
200,144,89640,2,0,B|300:135|169:229|272:200,1,105
272,208,90371,6,0,B|272:144,1,35
328,160,90737,2,0,B|328:72,1,70
384,88,91103,2,0,B|384:232,1,140
256,192,91835,12,0,93298
256,312,94030,6,0,B|176:192,1,140
288,232,94762,2,0,B|344:96,1,140
240,56,95493,2,0,B|148:88|210:167,1,140
248,200,96408,5,0
304,192,96591,1,0
344,152,96774,1,0
368,104,96957,1,0
368,104,97322,1,0
412,137,97505,1,0
445,182,97688,2,0,B|509:257|405:302,2,140
336,192,99518,5,0
224,192,99883,2,0,B|186:147|240:118,1,70
176,96,100249,2,0,B|124:164|187:237,1,140,0|0
400,192,101713,6,0,B|343:268|279:187,1,140
284,166,102627,1,0
284,142,102810,2,0,B|223:65|156:148,2,140
392,192,104640,5,0
80,192,105005,1,0
392,192,105371,2,0,B|392:280,2,70
256,192,106103,12,0,107932
256,192,108664,6,0,B|315:115|377:196,3,140,2|0|8|0
312,280,110127,2,0,B|253:357|191:276,2,140,0|0|8
256,184,111225,5,0
200,88,111591,2,0,B|262:17|322:92,4,140,2|0|8|0|0
152,192,113420,1,0
256,192,113786,2,2,B|315:269|377:188,1,140,2|6
256,272,119640,6,0,B|256:168,1,70
200,184,120188,1,0
144,168,120371,6,0,B|20:146|45:55|112:8|162:54|196:103,1,280
256,184,121469,1,0
312,280,121835,2,0,B|382:382|455:321|469:240|405:215|347:205,1,280
256,184,122932,5,0
328,96,123298,2,0,B|287:63|209:47|148:79|62:166|104:299|243:388|367:284|361:197,1,560
344,56,125493,5,0
352,280,125859,1,0
160,160,126225,1,0
384,160,126591,2,0,B|336:160,4,35
184,128,127322,5,0
240,128,127505,1,0
296,128,127688,2,0,B|128:128,1,140
152,240,128420,5,0
192,280,128603,1,0
232,240,128786,1,0
272,280,128969,1,0
312,240,129152,2,0,B|400:184|304:136,1,140
200,144,129883,2,0,B|112:200|208:248,1,140
256,144,130615,6,0,B|256:56,1,70
312,72,130981,2,0,B|312:152,1,70
200,72,131347,2,0,B|200:224,1,140
312,212,132079,2,0,B|312:52,1,140
256,240,133176,5,0
256,100,133542,2,0,B|315:27|377:107,1,140
344,224,135005,5,4
232,224,135371,1,0
344,224,135737,1,8
232,224,136103,1,0
336,184,136469,1,4
232,224,136835,1,0
312,152,137201,1,8
312,152,137383,1,4
312,152,137566,1,0
208,104,137932,6,0,B|136:42|71:118,2,140
264,120,138847,1,0
264,176,139030,1,0
264,232,139213,1,0
320,248,139396,2,0,B|383:310|449:248,1,140
256,192,140859,12,4,143786
256,72,152566,5,0
256,72,152932,1,0
256,312,153298,5,0
256,312,153664,1,0
424,192,154030,5,0
424,192,154396,1,0
80,192,154762,5,0
80,192,155127,1,0
192,192,155493,6,0,B|253:120|309:196,1,140
248,288,156225,2,0,B|308:356|372:287,2,140,0|0|0
136,88,158420,5,0
136,88,158786,1,0
384,288,159152,5,0
384,288,159518,1,0
376,88,159883,5,0
376,88,160249,1,0
136,288,160615,5,0
136,288,160981,1,0
254,198,161347,6,0,B|315:268|385:187,1,140
376,168,161804,2,0,B|376:112,2,35
376,168,162079,2,0,B|315:98|245:179,1,140,0|0
248,280,162810,2,0,B|187:350|117:269,1,140,0|0
234,244,163542,2,0,B|234:164,2,70
272,112,164274,5,0
328,208,164640,1,0
272,112,165005,1,0
288,224,165371,1,0
256,328,165737,1,0
240,216,166103,1,0
272,112,166469,1,0
200,192,166835,1,0
120,112,167201,6,2,B|185:33|248:120|244:113,1,140
160,192,168298,1,0
256,288,168664,1,0
352,192,169030,1,8
256,272,169396,5,0
64,104,169762,1,8
256,256,170127,5,0
456,104,170493,1,8
256,112,170859,2,0,B|256:256,2,140,0|0|8
192,280,173054,6,0,B|255:344|324:276,1,140,0|0
256,192,174152,1,0
352,248,174518,1,0
256,120,174883,5,8
104,256,175249,1,0
256,48,175615,1,8
408,248,175981,5,0
256,192,176347,2,0,B|256:336,2,140,8|0|8
200,96,177444,6,0,B|72:16,2,140,0|8|0
256,192,178542,1,8
312,96,178908,2,0,B|440:24,2,140,0|8|0
256,192,180005,1,8
152,288,180371,5,0
360,96,180737,1,0
152,96,181103,1,0
360,288,181469,1,0
288,56,181835,6,0,B|439:67|379:219,1,210
339,196,182566,2,0,B|296:112|304:288|248:168,1,140
184,80,183664,2,0,B|122:19|50:92,2,140
120,280,184762,6,0,B|368:216,1,245
384,224,185493,2,0,B|232:160,1,140
144,192,186225,6,0,B|400:120,1,245
408,128,186957,2,0,B|256:64,1,140
264,184,187688,5,2
264,184,187871,1,0
208,184,188054,1,2
208,184,188237,1,0
152,184,188420,2,0,B|85:116|160:65,1,140
213,67,189335,5,0
269,67,189518,1,0
325,67,189701,1,0
380,67,189883,2,0,B|471:105|285:130|414:171,1,140
400,320,190615,5,0
304,256,190981,1,0
208,320,191347,5,0
112,256,191713,1,0
112,96,192079,5,0
208,160,192444,1,0
304,96,192810,5,0
400,160,193176,1,0
256,192,193542,12,4,196469
