osu file format v8

[General]
AudioFilename: Final_Fantasy_7_The_Twelfth_Commandment_OC_ReMix.mp3
AudioLeadIn: 0
PreviewTime: 28178
Countdown: 0
SampleSet: Soft
StackLeniency: 0.7
Mode: 0
LetterboxInBreaks: 1

[Editor]
DistanceSpacing: 1.2
BeatDivisor: 4
GridSize: 8

[Metadata]
Title:The Twelfth Commandment (OC ReMix)
Artist:Midee, prozax
Creator:Mukku
Version:Easy
Source:Final Fantasy VII
Tags:Nobuo Uematsu Judgement Day ffvii ocremix

[Difficulty]
HPDrainRate:3
CircleSize:3
OverallDifficulty:3
ApproachRate:3
SliderMultiplier:0.6
SliderTickRate:1

[Events]
//Background and Video events
0,0,"ffvii bg.jpg"
//Break Periods
2,22887,28200
2,103010,107224
2,143986,151126
//Storyboard Layer 0 (Background)
//Storyboard Layer 1 (Fail)
//Storyboard Layer 2 (Pass)
//Storyboard Layer 3 (Foreground)
//Storyboard Sound Samples
//Background Colour Transformations
3,100,163,162,255

[TimingPoints]
12079.0909090909,365.853658536585,4,2,0,51,1,0
29276,-100,4,1,0,71,0,0
35312,-100,4,2,0,71,0,0
35678,-100,4,1,0,69,0,0
39337,-100,4,1,0,35,0,0
40434,-100,4,1,0,62,0,0
41166,-100,4,2,0,62,0,0
46837,-100,4,1,0,66,0,0
58544,-100,4,2,0,66,0,0
61471,-100,4,1,0,66,0,0
75373,-100,4,2,0,66,0,0
76837,-100,4,1,0,66,0,0
117812,-100,4,1,0,54,0,0
118178,-100,4,1,0,43,0,0
118544,-100,4,1,0,37,0,0
118910,-100,4,1,0,12,0,0
120373,-100,4,1,0,66,0,1
130617,-100,4,1,0,66,0,0
152203,-100,4,2,0,49,0,0
152751,-100,4,1,0,49,0,0
153849,-100,4,2,0,49,0,0
154215,-100,4,1,0,49,0,0
155312,-100,4,2,0,49,0,0
155693,-100,4,1,0,41,0,0
156776,-100,4,2,0,41,0,0
157142,-100,4,1,0,41,0,0
158239,-100,4,2,0,41,0,0
158971,-100,4,1,0,49,0,0
159703,-100,4,2,0,49,0,0
160434,-100,4,1,0,49,0,0
161166,-100,4,2,0,44,0,0
164459,-100,4,1,0,44,0,0
164824,-100,4,2,0,44,0,0
165190,-100,4,1,0,44,0,0
165556,-100,4,2,0,44,0,0
166471,-100,4,1,0,44,0,0
166562,-100,4,2,0,44,0,0
168117,-100,4,1,0,51,0,0
168483,-100,4,2,0,44,0,0
168849,-100,4,1,0,37,0,0
169215,-100,4,2,0,44,0,0
169581,-100,4,1,0,51,0,0
169946,-100,4,2,0,44,0,0
172142,-100,4,1,0,44,0,0
172873,-100,4,2,0,44,0,0
173605,-100,4,1,0,44,0,0
174154,-100,4,2,0,44,0,0
174703,-100,4,1,0,38,0,0
175068,-100,4,2,0,44,0,0
175434,-100,4,1,0,56,0,0
175800,-100,4,2,0,44,0,0
176623,-100,4,1,0,44,0,0
177081,-100,4,2,0,44,0,0
178087,-100,4,1,0,44,0,0
178544,-100,4,2,0,44,0,0
179550,-100,4,1,0,44,0,0
180007,-100,4,2,0,37,0,0
181288,-100,4,2,0,32,0,0
181654,-100,4,2,0,37,0,0
182477,-100,4,1,0,37,0,0
182660,-100,4,2,0,37,0,0
183940,-100,4,1,0,37,0,0
184123,-100,4,2,0,37,0,0
189245,-100,4,1,0,37,0,0
189611,-100,4,1,0,53,0,0
189814,-100,4,1,0,68,0,0
190434,-100,4,1,0,51,0,0
191257,-100,4,1,0,45,0,0
191989,-100,4,1,0,34,0,0
192721,-100,4,1,0,25,0,0
193544,-100,4,1,0,17,0,0

[Colours]
Combo1 : 116,116,116
Combo2 : 233,233,233
Combo3 : 167,167,167

[HitObjects]
144,120,12079,2,0,B|199:56|259:129|259:129,2,120
144,264,14274,1,2
288,264,15005,6,0,B|344:208|280:144|280:144,2,120
152,304,17201,1,8
128,160,17932,6,0,B|200:160|200:160,1,60
264,160,18664,2,0,B|336:160|336:160,1,60,0|0
324,232,19396,2,0,B|259:232,1,60
191,232,20127,2,0,B|58:232,1,120
71,160,21225,6,0,B|106:107|179:107,1,120
245,107,22322,2,0,B|312:107,1,60
184,128,29640,5,0
256,128,30005,1,4
328,128,30371,1,8
256,256,31103,5,0
184,256,31469,1,0
112,256,31835,1,8
184,128,32566,6,0,B|256:128|256:128,2,60,0|4|8
128,264,34030,2,0,B|264:264|264:264,1,120,0|8
376,192,35493,5,2
232,192,36225,2,0,B|104:192|104:192,2,120,0|8|0
376,192,38420,6,0,B|440:152|416:80|416:80,2,120,4|8|0
256,112,40615,1,8
112,112,41347,5,0
112,184,41713,1,0
112,256,42079,1,2
256,256,42810,6,0,B|256:192|256:192,2,60,0|0|2
400,256,44274,6,0,B|400:128|400:128,2,120,0|2|0
328,256,46103,1,0
256,256,46469,1,2
184,128,47201,6,0,B|148:68|129:199|92:108,2,120,0|8|0
256,128,49030,1,0
328,128,49396,2,0,B|364:68|383:199|420:108,1,120,8|0
416,256,50859,2,0,B|376:186|372:310|324:241,2,120,8|0|8
416,112,53054,6,0,B|280:112|280:112,2,120,0|8|0
416,184,54883,1,0
416,256,55249,2,0,B|280:256|280:256,1,120,8|0
152,256,56713,1,8
152,112,57444,6,0,B|80:112|80:112,2,60,0|0|8
296,112,58908,6,0,B|368:112,2,60
176,192,60371,6,0,B|112:192|112:192,2,60
256,72,61835,5,0
256,176,62383,2,0,B|256:208,1,30,0|0
312,336,63298,1,0
392,216,64030,1,0
392,144,64396,1,0
320,144,64762,6,0,B|192:144,3,120
168,288,67688,5,0
280,288,68237,2,0,B|280:256,1,30
280,112,69152,1,0
416,72,69883,5,0
408,144,70249,1,0
416,216,70615,2,0,B|448:272|424:320|376:312,1,120
256,272,72079,6,0,B|200:240|224:184|240:152|240:160,1,120
344,72,73542,6,0,B|408:88|400:176,2,120
200,112,75737,6,0,B|128:112,2,60
320,192,77201,6,0,B|384:192,2,60
176,192,78664,5,0
256,312,79396,2,0,B|269:255|363:349|344:267,1,120
351,133,80859,2,0,B|279:133,2,60,0|0|0
216,192,82322,6,0,B|168:144|168:256|112:176,2,120
256,56,84518,1,0
296,192,85249,2,0,B|340:125|341:247|406:178,1,120
280,280,86713,6,0,B|240:344|232:224|176:288,1,120
136,144,88176,1,0
280,144,88908,2,0,B|352:144,2,60
136,144,90371,5,0
136,216,90737,1,0
136,288,91103,2,0,B|192:336|248:288,3,120
352,192,94030,5,0
208,192,94762,1,0
280,64,95493,1,0
136,64,96225,6,0,B|136:24,2,30
136,136,96957,1,0
136,280,97688,2,0,B|195:318|249:279,1,120
248,136,99152,1,0
256,192,99883,12,0,102810
256,48,108664,6,0,B|328:48,4,60,4|0|8|0|0
256,192,110859,1,8
256,336,111591,6,0,B|184:336,4,60,4|0|8|0|0
256,192,113786,1,8
112,192,114518,6,0,B|48:192,4,60,0|0|8|0|0
256,192,116713,1,8
256,192,117444,12,4,119640
152,96,120371,6,0,B|256:3|375:104,1,240,0|0
256,184,122566,1,8
152,280,123298,6,0,B|256:373|375:272,1,240
256,184,125493,1,8
152,80,126225,5,0
224,56,126591,1,0
296,80,126957,1,8
368,56,127322,1,0
440,80,127688,2,0,B|374:129|491:121|425:179,1,120,0|8
304,256,129152,5,0
232,256,129518,1,0
160,256,129883,1,8
96,128,130615,2,0,B|145:85|164:164|211:117,1,120,0|8
278,121,131713,1,0
350,121,132079,1,0
280,248,132810,1,8
112,192,133542,5,0
256,192,134274,1,8
400,192,135005,2,0,B|472:192,4,60
256,288,137201,5,0
190,258,137566,1,0
142,203,137932,2,0,B|110:155|124:125|154:85,2,120
256,152,140127,1,8
256,192,140859,12,4,143786
256,80,152566,5,0
352,192,153298,1,0
256,304,154030,1,0
160,192,154762,1,0
256,80,155493,6,0,B|256:144,2,60,0|0|0
352,192,156957,1,0
256,304,157688,1,0
160,192,158420,5,0
256,80,159152,1,0
400,80,159883,1,0
400,224,160615,1,0
256,224,161347,2,0,B|216:224,4,30
256,80,162810,5,0
112,80,163542,1,0
112,224,164274,5,0
184,224,164640,1,0
256,224,165005,1,0
328,224,165371,1,0
400,224,165737,2,0,B|432:168|400:104,2,120,0|4|4
256,192,167932,5,0
192,152,168298,1,8
128,192,168664,1,0
64,152,169030,2,8,B|64:80,2,60,8|0|8
64,224,170127,6,0,B|56:280|73:316|124:316,2,120
200,184,172322,1,0
344,184,173054,6,0,B|392:128|336:72,2,120
280,216,174883,1,8
216,184,175249,1,0
152,216,175615,1,8
88,184,175981,6,0,B|40:144|72:112|128:96,1,120
260,99,177444,2,0,B|304:111|336:143|288:183,1,120
136,280,178908,2,0,B|190:327|245:280,1,120
368,208,180371,5,0
408,144,180737,1,0
368,80,181103,1,0
296,64,181469,1,0
232,104,181835,6,0,B|296:144|232:216,2,120
160,120,183664,2,0,B|136:64,2,60
192,184,184762,5,0
256,216,185127,1,0
320,184,185493,1,8
384,216,185859,1,0
448,184,186225,6,0,B|448:112,1,60
384,88,186957,1,8
320,120,187322,1,0
256,88,187688,6,0,B|204:29|202:157|152:69,3,120,0|0|0|4
120,144,190249,1,0
128,215,190615,1,0
255,256,191347,5,0
376,176,192079,1,0
264,80,192810,1,0
256,192,193542,12,4,196469
