osu file format v10

[General]
AudioFilename: MiddleIsland - Vision.mp3
AudioLeadIn: 0
PreviewTime: 73368
Countdown: 0
SampleSet: Soft
StackLeniency: 0.7
Mode: 0
LetterboxInBreaks: 0

[Editor]
DistanceSpacing: 1.6
BeatDivisor: 4
GridSize: 4

[Metadata]
Title:Vision
TitleUnicode:Vision
Artist:MiddleIsland
ArtistUnicode:MiddleIsland
Creator:Lan wings
Version:Normal
Source:Gen Sou Musai Shoku
Tags:Nakajima Misaki Piano Violin Beren -Baby Strawberry-
BeatmapID:177692
BeatmapSetID:54465

[Difficulty]
HPDrainRate:3
CircleSize:3
OverallDifficulty:3
ApproachRate:5
SliderMultiplier:1.5
SliderTickRate:1

[Events]
//Background and Video events
0,0,"bg.jpg"
//Break Periods
//Storyboard Layer 0 (Background)
//Storyboard Layer 1 (Fail)
//Storyboard Layer 2 (Pass)
//Storyboard Layer 3 (Foreground)
//Storyboard Sound Samples
//Background Colour Transformations
3,100,163,162,255

[TimingPoints]
22760,521.739130434783,3,2,1,25,1,0
25629,-100,3,2,1,20,0,0
47542,-100,3,2,1,15,0,0
49107,-100,3,2,2,30,0,0
50151,-100,3,2,0,40,0,0
50673,-100,3,2,2,30,0,0
51846,-100,3,2,0,40,0,0
52107,-100,3,2,2,30,0,0
53281,-100,3,2,0,12,0,0
53803,-100,3,2,2,30,0,0
56412,-100,3,2,0,40,0,0
56933,-100,3,2,2,30,0,0
58107,-100,3,2,0,40,0,0
58368,-100,3,2,2,30,0,0
59542,-100,3,2,0,15,0,0
59933,-100,3,2,1,30,0,0
60586,-100,3,2,2,30,0,0
61629,-100,3,2,1,30,0,0
62673,-100,3,2,1,40,0,0
63064,-100,3,2,2,30,0,0
64238,-100,3,2,2,40,0,0
64760,-100,3,2,1,30,0,0
65933,-100,3,2,1,40,0,0
66325,-100,3,2,1,30,0,0
66846,-100,3,2,2,30,0,0
68020,-100,3,2,1,30,0,0
68412,-100,3,2,1,40,0,0
68933,-100,3,2,2,30,0,0
71151,-100,3,2,1,30,0,0
71281,528.63436123348,3,2,1,30,1,0
72716,-100,3,1,1,20,0,0
73107,-100,3,2,2,50,0,0
74452,521.739130434783,6,1,1,60,1,1
77412,-100,6,2,1,60,0,1
77843,-100,6,1,1,40,0,1
78234,-100,6,1,1,60,0,1
80020,-100,6,2,1,50,0,1
80412,-100,6,1,1,50,0,1
81210,512.820512820513,6,1,1,50,1,1
81585,-100,6,2,1,50,0,1
81977,-100,6,1,1,50,0,1
82235,512.820512820513,6,1,1,50,1,1
82368,-100,6,1,1,40,0,1
82890,-100,6,1,1,50,0,1
83151,-100,6,2,1,50,0,1
83412,-100,6,1,1,50,0,1
83774,512.820512820513,6,1,1,50,1,1
85178,-100,6,1,1,30,0,1
86678,-100,6,1,1,60,0,1
86851,508.474576271186,6,1,1,60,1,1
89218,-100,6,1,1,40,0,1
89726,-100,6,2,1,60,0,1
89883,508.474576271186,6,2,1,60,1,1
90108,-100,6,1,1,60,0,1
91252,-100,6,1,1,45,0,1
91389,508.474576271186,6,1,1,45,1,1
92014,-100,6,1,1,60,0,1
92904,495.867768595041,6,2,1,60,1,1
93151,-100,6,1,1,60,0,1
96746,-100,6,1,1,30,0,1
97614,-100,6,1,1,60,0,1
103069,-100,6,1,1,55,0,1
104184,-100,6,2,1,80,0,1
104804,485.82995951417,6,1,1,80,1,1
106990,-100,6,1,1,70,0,1
107476,-100,6,1,1,80,0,1
109905,-100,6,2,1,80,0,1
110391,-100,6,1,1,80,0,1
110633,480,6,1,1,80,1,1
114233,-100,6,2,1,70,0,1
114713,-100,6,1,1,70,0,1
115013,-100,6,1,2,50,0,1
115913,-100,6,1,1,70,0,1
116153,-100,6,1,1,80,0,1
116387,472.44094488189,6,1,1,80,1,1
116629,-100,6,1,1,45,0,1
117331,-100,6,2,1,80,0,1
117574,-100,6,1,1,50,0,1
117692,-100,6,1,1,80,0,1
118046,-100,6,1,1,45,0,1
118749,-100,6,2,1,80,0,1
118991,-100,6,1,1,50,0,1
119109,-100,6,1,1,80,0,1
122003,-100,6,1,1,80,0,0
122062,-100,6,1,1,70,0,1
122121,-100,6,2,1,70,0,0
123473,-100,6,2,1,65,0,0
123946,-100,6,2,1,60,0,0
124418,-100,6,2,1,55,0,0
124890,-100,6,2,1,50,0,0
125363,-100,6,2,1,45,0,0
125835,-100,6,2,1,40,0,0
126308,-100,6,2,1,35,0,0
126780,-100,6,2,1,30,0,0
127253,-100,6,2,1,25,0,0
127725,-100,6,2,1,20,0,0
128198,-100,6,2,1,15,0,0
128670,-100,6,2,1,10,0,0
129142,-100,6,2,1,5,0,0

[Colours]
Combo1 : 255,0,128
Combo2 : 206,233,22
Combo3 : 213,0,0
Combo4 : 38,147,255

[HitObjects]
404,60,22760,2,0,B|390:134|325:222,1,150,4|0,0:0|0:0,0:0:0
420,244,23542,2,0,B|361:292|255:317,1,150,2|0,0:0|0:0,0:0:0
196,324,24325,5,0,0:0:0
32,248,24846,1,8,0:0:0
180,144,25368,1,0,0:0:0
344,220,25890,2,0,B|400:288,2,75,2|0|0,0:0|0:0|0:0,0:0:0
432,204,26673,2,0,B|507:248,2,75,0|2|0,0:0|0:0|0:0,0:0:0
372,140,27455,6,0,B|344:112|344:112|304:148|236:132,2,150,4|0|0,0:0|0:0|0:0,0:0:0
328,320,29020,2,0,B|256:344|160:320,1,150,8|0,0:0|0:0,0:0:0
52,196,30064,1,2,0:0:0
224,148,30586,1,0,0:0:0
396,204,31107,2,0,B|441:209|488:244,1,75,8|0,0:0|0:0,0:0:0
416,156,31629,2,0,B|376:80|268:60,1,150,2|8,0:0|0:0,0:0:0
212,56,32412,2,0,B|164:52|136:116,1,75
124,176,32933,2,0,B|84:160|68:124,2,75,0|2|0,0:0|0:0|0:0,0:0:0
156,260,33716,6,0,B|204:288|364:248|344:128|168:128|148:248|308:288|356:260,1,375,4|0,0:0|0:0,0:0:0
380,172,35281,2,0,B|336:108|256:92|256:92|176:108|132:172,1,300,2|0,0:0|0:0,0:0:0
112,260,36586,1,0,0:0:0
184,316,36846,2,0,B|220:340|292:340|328:316,2,150,8|0|0,0:0|0:0|0:0,0:0:0
200,228,38151,1,2,0:0:0
288,224,38412,2,0,B|292:188|260:156|260:156|248:120|264:80,1,150,8|0,0:0|0:0,0:0:0
436,36,39455,5,8,0:0:0
482,112,39716,1,0,0:0:0
394,119,39977,2,0,B|351:188|288:224,1,150,4|2,0:0|0:0,0:0:0
200,224,40760,2,0,B|204:276|256:304,2,75
248,148,41542,2,0,B|189:86|101:80,1,150,8|0,0:0|0:0,0:0:0
28,240,42586,5,8,0:0:0
8,328,42846,1,0,0:0:0
92,296,43107,2,0,B|160:289|237:325,1,150,4|2,0:0|0:0,0:0:0
328,312,43890,2,0,B|332:348|308:384,2,75
268,248,44673,2,0,B|312:216|380:224|408:276,2,150,8|0|0,0:0|0:0|0:0,0:0:0
256,160,45977,1,0,0:0:0
184,212,46238,6,0,B|110:240|30:207,1,150,2|0,0:0|0:0,0:0:0
116,48,47281,1,0,0:0:0
256,160,47803,2,2,B|303:165|330:210|325:252|293:290|247:307|205:297|172:257|183:210,1,300,0|2,0:0|0:0,0:0:0
224,36,49368,5,2,0:0:0
380,128,49890,1,0,0:0:0
224,216,50412,1,2,0:0:0
72,124,50933,6,0,B|44:216,1,75,2|0,0:0|0:0,0:0:0
140,180,51455,2,0,B|145:276,1,75,2|0,0:0|0:0,0:0:0
224,216,51977,2,0,B|261:304,1,75,2|0,0:0|0:0,0:0:0
316,228,52499,2,0,B|429:352,1,150,2|0,0:0|0:0,0:0:0
512,184,53542,1,6,0:0:0
340,132,54064,2,0,B|372:154|441:164,1,75,2|0,0:0|0:0,0:0:0
320,158,54586,2,0,B|254:207|175:208,1,150,2|0,0:0|0:0,0:0:0
194,31,55629,5,2,0:0:0
320,158,56151,1,0,0:0:0
145,205,56673,1,2,0:0:0
280,324,57194,6,0,B|332:380,2,75,2|0|2,0:0|0:0|0:0,0:0:0
280,232,57977,2,0,B|228:176,2,75,0|2|0,0:0|0:0|0:0,0:0:0
356,284,58760,2,0,B|421:327|520:308,1,150,2|0,0:0|0:0,0:0:0
444,136,59803,1,4,0:0:0
360,100,60064,1,0,0:0:0
276,68,60325,2,0,B|200:48|108:60,2,150,4|2|0,0:0|0:0|0:0,0:0:0
120,160,61890,6,0,B|196:180|288:168,1,150,4|0,0:0|0:0,0:0:0
448,168,62933,2,0,B|520:216,1,75,2|0,0:0|0:0,0:0:0
420,224,63455,2,0,B|360:280|252:276,2,150,0|2|2,0:0|0:0|0:0,0:0:0
352,56,65020,1,4,0:0:0
196,144,65542,2,0,B|140:180,3,50,0|0|0|2,0:0|0:0|0:0|0:0,0:0:0
328,212,66586,1,4,0:0:0
508,196,67107,6,0,B|464:200|440:240|440:240|400:324|328:320,1,225,2|0,0:0|0:0,0:0:0
244,308,68151,1,2,0:0:0
68,264,68673,2,0,B|84:216|132:176|132:176|212:188|252:104,1,225,8|2,0:0|0:0,0:0:0
156,92,69716,1,0,0:0:0
336,72,70238,2,0,B|370:184|308:184|336:308,1,225,2|0,0:0|0:0,0:0:0
360,380,71281,1,4,0:0:0
204,288,71809,2,0,B|136:244,1,75,8|0,0:0|0:0,0:0:0
136,156,72338,2,0,B|73:115,2,75,2|0|4,0:0|0:0|0:0,0:0:0
292,68,73395,6,2,B|360:96|416:168,1,150,2|0,0:0|0:0,0:0:0
504,312,74452,6,0,B|452:340|396:312|396:312|339:286|288:312,1,225,4|0,0:0|0:0,0:0:0
208,352,75495,2,0,B|124:332|92:256,1,150,0|4,0:0|0:0,0:0:0
56,180,76278,2,0,B|20:88,2,75
128,124,77060,2,2,B|163:26,1,75,0|0,0:0|0:0,0:0:0
244,64,77582,6,2,B|305:19|444:32,1,150,4|0,0:0|0:0,0:0:0
476,40,78365,1,0,0:0:0
424,112,78625,1,0,0:0:0
416,288,79147,2,0,B|388:236|328:232|328:232|240:244|192:172,1,225,4|0,0:0|0:0,0:0:0
292,144,80191,1,2,0:0:0
332,324,80712,6,2,B|267:342|188:300|188:300|88:340,1,217,4|0,0:0|0:0,0:0:0
28,348,81722,2,0,B|24:292|52:260|80:248|80:248|132:228,1,150,2|0,0:0|0:0,0:0:0
192,208,82491,2,2,B|232:236|288:252,1,75,0|0,0:0|0:0,0:0:0
344,212,83004,2,0,B|420:228,2,75,0|4|0,0:0|0:0|0:0,0:0:0
368,120,83774,6,0,B|308:112|272:152|272:152|220:104|144:128,1,225,4|0,0:0|0:0,0:0:0
76,152,84799,2,0,B|36:160|4:212,1,75
96,236,85312,2,2,B|151:201|202:199|202:199|243:228|272:286,1,225,0|0,0:0|0:0,0:0:0
184,296,86338,2,2,B|136:304|100:340,1,75,0|2,0:0|0:0,0:0:0
204,336,86851,6,0,B|248:392|324:380|348:328|348:328|432:312,1,225,4|0,0:0|0:0,0:0:0
488,304,87867,2,0,B|444:128,1,150
376,208,88630,2,0,B|332:32,1,150,0|4,0:0|0:0,0:0:0
248,56,89393,2,2,B|267:128,1,75,0|0,0:0|0:0,0:0:0
284,216,89883,6,0,B|224:220|188:168|188:168|160:204,1,150,4|0,0:0|0:0,0:0:0
112,272,90645,2,0,B|32:272,2,75
200,288,91389,2,2,B|268:312|332:292|332:292|348:296,1,150,4|0,0:0|0:0,0:0:0
440,300,92151,1,0,0:0:0
412,212,92405,2,2,B|312:188,1,75,0|0,0:0|0:0,0:0:0
344,104,92904,6,0,B|304:100|268:124|252:164|252:164|176:148,1,150,4|0,0:0|0:0,0:0:0
132,144,93647,2,0,B|92:136|60:164,2,75
120,232,94391,2,0,B|288:280,1,150,4|0,0:0|0:0,0:0:0
352,300,95135,1,0,0:0:0
328,212,95383,2,2,B|400:136,1,75,0|0,0:0|0:0,0:0:0
468,160,95879,6,0,B|468:108|416:60|364:68,1,150,4|0,0:0|0:0,0:0:0
284,88,96623,1,0,0:0:0
228,156,96870,2,2,B|200:224|92:256,1,150,0|0,0:0|0:0,0:0:0
276,328,97862,2,0,B|304:260|412:228,1,150,0|4,0:0|0:0,0:0:0
512,104,98854,6,0,B|440:136|376:68|376:68|343:48|304:52,1,225,12|8,0:0|0:0,0:0:0
216,56,99846,1,0,0:0:0
80,168,100342,2,0,B|116:252,1,75,12|0,0:0|0:0,0:0:0
196,264,100837,2,0,B|105:253,1,75,0|8,0:0|0:0,0:0:0
56,320,101333,2,2,B|110:246,1,75,0|0,0:0|0:0,0:0:0
154,187,101829,5,12,0:0:0
214,119,102077,1,0,0:0:0
295,157,102325,1,0,0:0:0
285,246,102573,1,8,0:0:0
196,264,102821,1,0,0:0:0
16,268,103317,2,0,B|92:288|92:288|124:360|224:368,1,225,12|8,0:0|0:0,0:0:0
296,364,104308,6,0,B|328:344|332:296|332:296|376:268|372:216,1,150,4|12,0:0|0:0,0:0:0
192,220,105289,1,0,0:0:0
244,296,105532,1,8,0:0:0
284,216,105775,2,0,B|308:144|396:136|428:188,1,150,0|12,0:0|0:0,0:0:0
496,172,106504,2,0,B|496:216|456:248,2,75,0|0|8,0:0|0:0|0:0,0:0:0
460,88,107233,2,2,B|384:52,1,75,0|0,0:0|0:0,0:0:0
308,28,107718,6,0,B|276:86|164:112,1,150,12|0,0:0|0:0,0:0:0
96,116,108447,1,8,0:0:0
148,188,108690,2,0,B|224:231|240:328,2,150,0|12|0,0:0|0:0|0:0,0:0:0
17,311,110148,6,0,B|81:313|126:273|126:273|143:283|149:307,1,150,4|12,0:0|0:0,0:0:0
28,164,111113,1,0,0:0:0
184,72,111593,2,2,B|156:108|112:128,1,75,0|0,0:0|0:0,0:0:0
216,112,112073,2,0,B|368:140,2,150,12|0|0,0:0|0:0|0:0,0:0:0
296,272,113513,2,0,B|144:244,2,150,12|0|4,0:0|0:0|0:0,0:0:0
464,212,114953,2,2,B|512:207|540:164|536:121|506:82|460:63|418:72|384:111|394:157,1,300,12|0,0:0|0:0,0:0:0
400,340,116387,5,12,0:0:0
236,268,116859,2,2,B|156:256|124:180|124:180|80:180|48:232,1,225,0|2,0:0|0:0,0:0:0
0,280,117804,1,12,0:0:0
168,344,118276,2,2,B|256:380|308:324|308:324|352:312|392:336,1,225,2|2,0:0|0:0,0:0:0
460,372,119221,6,0,B|484:328|468:276|468:276|380:208,1,150,12|0,0:0|0:0,0:0:0
272,152,120166,1,0,0:0:0
248,332,120638,2,0,B|196:336|144:304|128:244,2,150,12|0|0,0:0|0:0|0:0,0:0:0
416,264,122056,1,4,0:0:0
256,192,122292,12,2,129142,0:0:0
