osu file format v10

[General]
AudioFilename: MiddleIsland - Vision.mp3
AudioLeadIn: 0
PreviewTime: 73368
Countdown: 0
SampleSet: Soft
StackLeniency: 0.7
Mode: 0
LetterboxInBreaks: 0

[Editor]
DistanceSpacing: 0.8
BeatDivisor: 8
GridSize: 4

[Metadata]
Title:Vision
TitleUnicode:Vision
Artist:MiddleIsland
ArtistUnicode:MiddleIsland
Creator:Lan wings
Version:Insane
Source:Gen Sou Musai Shoku
Tags:Nakajima Misaki Piano Violin Beren -Baby Strawberry-
BeatmapID:165554
BeatmapSetID:54465

[Difficulty]
HPDrainRate:6
CircleSize:4
OverallDifficulty:6
ApproachRate:8
SliderMultiplier:1.7
SliderTickRate:1

[Events]
//Background and Video events
0,0,"bg.jpg"
//Break Periods
//Storyboard Layer 0 (Background)
//Storyboard Layer 1 (Fail)
//Storyboard Layer 2 (Pass)
//Storyboard Layer 3 (Foreground)
//Storyboard Sound Samples
//Background Colour Transformations
3,100,163,162,255

[TimingPoints]
22760,521.739130434783,3,2,1,28,1,0
40042,-100,3,2,1,5,0,0
40238,-100,3,2,1,28,0,0
47673,-100,3,2,1,20,0,0
48716,-100,3,2,1,5,0,0
48846,-100,3,2,2,30,0,0
49107,-100,3,2,2,40,0,0
49368,-100,3,2,2,30,0,0
49629,-100,3,2,2,50,0,0
54520,-100,3,2,2,60,0,0
54651,-100,3,2,2,50,0,0
59673,-100,3,2,2,60,0,0
59933,-100,3,2,2,50,0,0
60781,-100,3,2,2,60,0,0
60912,-100,3,2,2,50,0,0
64760,-100,3,2,2,60,0,0
66064,-100,3,2,1,30,0,0
66238,-100,3,2,2,50,0,0
67042,-100,3,2,2,60,0,0
67173,-100,3,2,2,50,0,0
69064,-100,3,2,2,60,0,0
69325,-100,3,2,2,50,0,0
70629,-100,3,2,2,60,0,0
70890,-100,3,2,2,50,0,0
71281,528.63436123348,3,2,2,50,1,0
72194,-100,3,2,2,60,0,0
72455,-100,3,2,2,50,0,0
73107,-66.6666666666667,3,1,1,30,0,0
73890,-66.6666666666667,3,1,1,50,0,0
74452,521.739130434783,6,1,1,60,1,1
74452,-66.6666666666667,6,1,1,60,0,1
75064,-66.6666666666667,6,1,1,50,0,1
75585,-66.6666666666667,6,2,1,60,0,1
75846,-66.6666666666667,6,1,1,60,0,1
76629,-66.6666666666667,6,1,1,40,0,1
76890,-66.6666666666667,6,1,1,50,0,1
77151,-66.6666666666667,6,1,1,40,0,1
77412,-66.6666666666667,6,2,1,60,0,1
77672,-66.6666666666667,6,1,1,60,0,1
80060,-100,6,2,2,100,0,1
80452,-66.6666666666667,6,2,2,50,0,1
80672,-66.6666666666667,6,1,1,60,0,1
81210,512.820512820513,6,1,1,60,1,1
81210,-66.6666666666667,6,1,1,60,0,1
81585,-66.6666666666667,6,2,1,40,0,1
81781,-66.6666666666667,6,1,1,60,0,1
82235,512.820512820513,6,1,1,60,1,1
82235,-66.6666666666667,6,1,1,60,0,1
82694,-66.6666666666667,6,1,1,40,0,1
82825,-66.6666666666667,6,1,1,60,0,1
83216,-66.6666666666667,6,1,1,55,0,1
83672,-66.6666666666667,6,1,1,60,0,1
83774,512.820512820513,6,1,1,60,1,1
83774,-66.6666666666667,6,1,1,60,0,1
84990,-66.6666666666667,6,1,1,80,0,1
86428,-66.6666666666667,6,1,1,30,0,1
86851,508.474576271186,6,1,1,60,1,1
86851,-66.6666666666667,6,1,1,60,0,1
89883,508.474576271186,6,1,1,60,1,1
89883,-66.6666666666667,6,1,1,60,0,1
90298,-66.6666666666667,6,1,1,55,0,1
91252,-66.6666666666667,6,1,1,60,0,1
91389,508.474576271186,6,1,1,60,1,1
91389,-66.6666666666667,6,1,1,60,0,1
91643,-66.6666666666667,6,1,1,50,0,1
91897,-66.6666666666667,6,1,1,55,0,1
92014,-66.6666666666667,6,1,1,60,0,1
92269,-66.6666666666667,6,1,1,55,0,1
92523,-66.6666666666667,6,1,1,40,0,1
92777,-66.6666666666667,6,2,1,40,0,1
92904,495.867768595041,6,2,1,60,1,1
92904,-66.6666666666667,6,2,1,60,0,1
93027,-66.6666666666667,6,1,1,60,0,1
93337,-66.6666666666667,6,1,1,50,0,1
93523,-66.6666666666667,6,1,1,60,0,1
93771,-66.6666666666667,6,1,1,55,0,1
94019,-66.6666666666667,6,1,1,40,0,1
94267,-66.6666666666667,6,1,1,55,0,1
94453,-66.6666666666667,6,1,1,60,0,1
97242,-66.6666666666667,6,2,2,50,0,1
97583,-66.6666666666667,6,2,0,50,0,1
97645,-66.6666666666667,6,2,2,50,0,1
97862,-66.6666666666667,6,2,2,60,0,1
98358,-66.6666666666667,6,1,1,70,0,1
100837,-66.6666666666667,6,1,1,40,0,1
101209,-66.6666666666667,6,1,1,50,0,1
101581,-66.6666666666667,6,1,1,60,0,1
101705,-66.6666666666667,6,1,1,70,0,1
102325,-66.6666666666667,6,1,1,50,0,1
102573,-66.6666666666667,6,1,1,70,0,1
102821,-66.6666666666667,6,1,1,50,0,1
103069,-66.6666666666667,6,1,1,60,0,1
104804,485.82995951417,6,1,1,80,1,1
104804,-66.6666666666667,6,1,1,80,0,1
106868,-66.6666666666667,6,1,1,40,0,1
107111,-66.6666666666667,6,1,1,50,0,1
107354,-66.6666666666667,6,1,1,40,0,1
107597,-66.6666666666667,6,1,1,70,0,1
108326,-66.6666666666667,6,2,2,80,0,1
109115,-66.6666666666667,6,1,1,60,0,1
109662,-66.6666666666667,6,2,2,80,0,1
109905,-66.6666666666667,6,1,1,70,0,1
110026,-66.6666666666667,6,2,1,70,0,1
110391,-66.6666666666667,6,1,1,50,0,1
110633,480,6,1,1,80,1,1
110633,-66.6666666666667,6,1,1,80,0,1
111473,-66.6666666666667,6,2,2,80,0,1
112073,-66.6666666666667,6,1,1,80,0,1
112193,-66.6666666666667,6,2,2,80,0,1
112493,-66.6666666666667,6,1,1,80,0,1
113933,-66.6666666666667,6,1,1,50,0,1
114113,-66.6666666666667,6,1,1,80,0,1
114353,-66.6666666666667,6,2,1,65,0,1
114533,-66.6666666666667,6,1,1,80,0,1
114893,-66.6666666666667,6,1,1,50,0,1
115373,-66.6666666666667,6,1,1,80,0,1
116387,472.44094488189,6,1,1,80,1,1
116387,-66.6666666666667,6,1,1,80,0,1
118873,-66.6666666666667,6,1,1,45,0,1
119109,-66.6666666666667,6,1,1,55,0,1
119818,-66.6666666666667,6,1,1,80,0,1
120349,-66.6666666666667,6,2,2,70,0,1
120467,-66.6666666666667,6,1,1,80,0,1
120822,-66.6666666666667,6,2,2,70,0,1
120940,-66.6666666666667,6,1,1,70,0,1
121767,-66.6666666666667,6,2,1,70,0,1
122003,-66.6666666666667,6,2,1,70,0,0
122062,-66.6666666666667,6,1,1,70,0,1
122121,-66.6666666666667,6,2,1,70,0,0
123473,-66.6666666666667,6,2,1,65,0,0
123946,-66.6666666666667,6,2,1,60,0,0
124418,-66.6666666666667,6,2,1,55,0,0
124890,-66.6666666666667,6,2,1,50,0,0
125363,-66.6666666666667,6,2,1,45,0,0
125835,-66.6666666666667,6,2,1,40,0,0
126308,-66.6666666666667,6,2,1,35,0,0
126780,-66.6666666666667,6,2,1,30,0,0
127253,-66.6666666666667,6,2,1,25,0,0
127725,-66.6666666666667,6,2,1,20,0,0
128198,-66.6666666666667,6,2,1,15,0,0
128670,-66.6666666666667,6,2,1,10,0,0
129142,-100,6,2,1,5,0,0

[Colours]
Combo1 : 255,0,128
Combo2 : 206,233,22
Combo3 : 213,0,0
Combo4 : 38,147,255

[HitObjects]
200,244,22586,2,0,B|176:268,2,21.25,0|0|4,0:0|0:0|0:0,0:0:0
292,148,23020,1,0,0:0:0
316,124,23281,1,0,0:0:0
408,216,23542,1,4,0:0:0
432,244,23803,1,0,0:0:0
456,272,24064,1,0,0:0:0
256,296,24325,6,0,B|210:289|176:280|176:280|140:256|96:236,1,170,0|8,0:0|0:0,0:0:0
184,172,25107,2,0,B|172:132|168:76,1,85,0|8,0:0|0:0,0:0:0
336,124,25629,1,8,0:0:0
372,144,25759,1,8,0:0:0
400,176,25890,1,8,0:0:0
440,332,26151,5,0,0:0:0
460,324,26238,1,0,0:0:0
480,316,26325,1,0,0:0:0
500,304,26412,2,0,B|468:280|424:256,1,85,8|0,0:0|0:0,0:0:0
300,220,26933,1,8,0:0:0
256,344,27194,5,2,0:0:0
204,100,27455,1,4,0:0:0
468,176,27716,1,0,0:0:0
452,160,27803,1,0,0:0:0
436,144,27890,1,0,0:0:0
416,132,27977,2,0,B|374:112|328:108,1,85,10|0,0:0|0:0,0:0:0
468,176,28499,6,0,B|431:193|408:216|408:216|392:216|392:216|360:240|336:304,1,170,8|8,0:0|0:0,0:0:0
236,200,29281,1,0,0:0:0
164,316,29542,1,8,0:0:0
256,64,30064,1,2,0:0:0
372,316,30586,6,0,B|428:304|472:340|472:340|500:312|492:264,1,170,4|8,0:0|0:0,0:0:0
384,100,31499,1,0,0:0:0
424,168,31629,2,0,B|376:188|332:156|332:156|284:188,1,127.5,8|0,0:0|0:0,0:0:0
228,240,32151,6,0,B|188:272|188:272|124:292,1,85
132,288,32499,1,0,0:0:0
108,292,32586,1,0,0:0:0
84,296,32673,2,0,B|176:312,1,85,8|0,0:0|0:0,0:0:0
348,272,33194,5,8,0:0:0
392,128,33455,1,0,0:0:0
220,124,33716,1,4,0:0:0
200,116,33803,1,0,0:0:0
180,108,33890,1,0,0:0:0
160,100,33977,1,0,0:0:0
12,148,34238,2,0,B|108:188,1,85,8|0,0:0|0:0,0:0:0
12,156,35020,5,8,0:0:0
44,188,35151,1,8,0:0:0
76,216,35281,2,0,B|172:256,1,85,4|0,0:0|0:0,0:0:0
256,280,35803,1,0,0:0:0
264,288,36586,5,0,0:0:0
264,288,36846,2,0,B|304:244|364:252|364:252|328:200,1,170,8|8,0:0|0:0,0:0:0
208,76,37629,1,0,0:0:0
336,336,38151,5,2,0:0:0
360,336,38238,1,0,0:0:0
384,332,38325,1,0,0:0:0
407,326,38412,2,0,B|439:290|448:252,1,85,8|0,0:0|0:0,0:0:0
484,92,38933,1,0,0:0:0
152,128,39455,5,0,0:0:0
296,256,39716,1,0,0:0:0
335,59,39977,2,0,B|323:84,1,21.25,4|0,0:0|0:0,0:0:0
240,288,40368,6,0,B|257:302,2,21.25,0|0|2,0:0|0:0|0:0,0:0:0
120,184,40759,1,0,0:0:0
288,120,41020,1,2,0:0:0
224,196,41281,1,0,0:0:0
432,256,41542,5,2,0:0:0
414,271,41629,1,0,0:0:0
395,282,41716,1,0,0:0:0
372,288,41803,2,0,B|325:296|285:342,1,85,0|8,0:0|0:0,0:0:0
108,344,42586,5,8,0:0:0
248,236,42846,1,0,0:0:0
88,336,43107,2,0,B|72:248,1,85,4|0,0:0|0:0,0:0:0
60,184,43499,6,0,B|56:160,2,21.25,0|0|0,0:0|0:0|0:0,0:0:0
236,72,43890,1,0,0:0:0
148,128,44151,2,0,B|164:216,1,85,2|0,0:0|0:0,0:0:0
272,312,44673,5,0,0:0:0
268,288,44759,1,0,0:0:0
264,264,44846,1,0,0:0:0
260,240,44933,1,0,0:0:0
236,72,45194,1,8,0:0:0
424,156,45716,5,8,0:0:0
400,60,45977,1,0,0:0:0
444,256,46238,6,0,B|376:260|336:204|336:204|312:248,1,170,4|8,0:0|0:0,0:0:0
252,364,47020,1,0,0:0:0
88,224,47542,5,0,0:0:0
112,328,47803,2,2,B|176:312|204:248|188:196|188:196|240:136|328:164,1,297.5,8|0,0:0|0:0,0:0:0
372,172,48846,6,0,B|392:176,8,21.25,0|0|0|0|0|0|0|0|4,0:0|0:0|0:0|0:0|0:0|0:0|0:0|0:0|0:0,0:0:0
156,116,49890,1,2,0:0:0
24,60,50412,1,2,0:0:0
16,296,50933,5,0,0:0:0
144,324,51194,1,0,0:0:0
168,324,51281,1,0,0:0:0
188,320,51368,1,0,0:0:0
208,312,51455,1,2,0:0:0
340,236,51716,5,0,0:0:0
460,60,51977,1,2,0:0:0
480,264,52238,1,0,0:0:0
320,32,52499,1,0,0:0:0
136,64,52759,5,0,0:0:0
116,76,52846,1,0,0:0:0
100,92,52933,1,0,0:0:0
88,112,53020,2,0,B|68:200,1,85,2|0,0:0|0:0,0:0:0
220,376,53542,2,0,B|240:288,1,85,2|0,0:0|0:0,0:0:0
272,84,54064,5,0,0:0:0
356,204,54325,1,0,0:0:0
212,216,54586,2,0,B|180:240,6,21.25
280,164,55107,5,2,0:0:0
469,101,55629,1,0,0:0:0
411,246,56151,1,2,0:0:0
337,18,56673,1,2,0:0:0
96,100,57064,5,0,0:0:0
80,128,57194,2,0,B|66:173|56:236,1,85,0|0,0:0|0:0,0:0:0
60,232,57542,1,0,0:0:0
72,252,57629,1,0,0:0:0
92,260,57716,6,0,B|136:271|188:296,1,85,2|0,0:0|0:0,0:0:0
420,124,58238,2,0,B|375:112|324:88,1,85,2|0,0:0|0:0,0:0:0
220,40,58759,1,2,0:0:0
212,60,58846,1,0,0:0:0
204,80,58933,1,0,0:0:0
196,100,59020,1,0,0:0:0
156,208,59281,1,2,0:0:0
148,232,59803,1,2,0:0:0
336,344,60064,5,0,0:0:0
368,304,60194,1,0,0:0:0
388,256,60325,1,2,0:0:0
408,64,60586,1,0,0:0:0
160,168,60846,2,0,B|136:176,3,21.25,2|0|0|0,0:0|0:0|0:0|0:0,0:0:0
168,211,61107,2,0,B|148:232,3,28.3333333333333,0|0|0|2,0:0|0:0|0:0|0:0,0:0:0
272,272,61890,5,0,0:0:0
304,288,62412,1,2,0:0:0
340,300,62933,2,0,B|380:296|428:280,1,85,2|0,0:0|0:0,0:0:0
496,184,63455,5,2,0:0:0
476,172,63542,1,0,0:0:0
456,160,63629,1,0,0:0:0
436,148,63716,1,0,0:0:0
400,40,63977,5,2,0:0:0
380,52,64064,1,0,0:0:0
360,64,64151,1,0,0:0:0
340,76,64238,1,0,0:0:0
328,204,64499,1,2,0:0:0
328,204,65020,5,2,0:0:0
212,324,65542,2,0,B|176:367,1,56.6666666666667,2|0,0:0|0:0,0:0:0
167,218,65890,2,0,B|138:149,1,56.6666666666667,2|4,0:0|0:0,0:0:0
280,232,66325,5,0,0:0:0
316,212,66455,1,0,0:0:0
348,184,66586,1,2,0:0:0
161,176,67107,6,0,B|144:164,7,21.25,2|0|0|0|0|0|0|0,0:0|0:0|0:0|0:0|0:0|0:0|0:0|0:0,0:0:0
192,192,67629,2,0,B|240:208|284:196,1,85,0|2,0:0|0:0,0:0:0
456,200,68151,5,2,0:0:0
480,216,68673,1,0,0:0:0
504,232,69194,1,0,0:0:0
288,340,69455,5,2,0:0:0
148,276,69716,1,2,0:0:0
116,260,70238,1,0,0:0:0
88,244,70759,1,0,0:0:0
256,92,71020,5,2,0:0:0
332,224,71281,1,2,0:0:0
344,244,71809,2,0,B|344:288|332:328,1,85,0|2,0:0|0:0,0:0:0
208,308,72338,2,0,B|176:332|124:348,1,85,0|2,0:0|0:0,0:0:0
232,184,72866,1,2,0:0:0
424,272,73395,6,2,B|480:247|480:135|424:111,1,191.249994300306,0|0,0:0|0:0,0:0:0
348,192,73924,2,2,B|287:177|231:120|217:61,1,191.249994300306,0|0,0:0|0:0,0:0:0
328,64,74452,6,0,B|313:124|256:180|197:194,1,191.249994300306,4|0,0:0|0:0,0:0:0
100,216,74973,1,0,0:0:0
396,344,75234,5,2,0:0:0
199,193,75495,1,8,0:0:0
171,313,75756,1,2,0:0:0
295,269,76017,6,0,B|327:217|303:141,1,127.499996200204,4|0,0:0|0:0,0:0:0
279,101,76408,1,0,0:0:0
247,61,76538,1,0,0:0:0
72,184,76799,5,2,0:0:0
212,336,77060,1,8,0:0:0
372,208,77321,1,2,0:0:0
248,60,77582,6,2,B|220:68|224:104|224:104|192:136|128:120,1,127.499996200204,4|0,0:0|0:0,0:0:0
92,112,77973,2,0,B|90:150|100:200,1,63.749998100102,0|0,0:0|0:0,0:0:0
199,290,78365,6,0,B|236:312|256:340|256:340|260:304|292:288,1,127.499996200204,0|0,0:0|0:0,0:0:0
316,260,78756,1,0,0:0:0
360,236,78886,1,0,0:0:0
188,48,79147,6,0,B|249:41|321:75|355:125,1,191.249994300306,4|0,0:0|0:0,0:0:0
408,220,79669,1,0,0:0:0
224,160,79930,1,8,0:0:0
396,44,80191,6,0,B|434:71|456:132,1,85,2|0,0:0|0:0,0:0:0
440,160,80582,1,0,0:0:0
406,198,80712,6,0,B|308:216|224:160,1,191.250007295609,4|0,0:0|0:0,0:0:0
156,108,81210,1,0,0:0:0
132,300,81466,6,0,B|209:293|264:228,1,127.499996200204,0|2,0:0|0:0,0:0:0
284,212,81851,1,0,0:0:0
308,168,81979,1,0,0:0:0
72,112,82235,6,0,B|128:128|152:80|152:80|196:104,1,127.499996200204,4|0,0:0|0:0,0:0:0
224,120,82619,1,0,0:0:0
268,144,82747,1,2,0:0:0
476,332,83004,5,0,0:0:0
432,304,83132,1,0,0:0:0
380,292,83260,2,2,B|324:276|300:324|300:324|256:300,1,127.499996200204,0|0,0:0|0:0,0:0:0
96,188,83774,5,4,0:0:0
80,204,83859,1,0,0:0:0
68,224,83944,1,0,0:0:0
60,244,84030,2,0,B|52:312|112:364,1,127.499996200204,0|0,0:0|0:0,0:0:0
368,368,84543,1,8,0:0:0
216,276,84799,5,0,0:0:0
220,224,84927,1,0,0:0:0
244,180,85056,1,0,0:0:0
284,148,85184,1,0,0:0:0
336,144,85312,1,0,0:0:0
464,62,85568,5,0,0:0:0
468,112,85697,1,0,0:0:0
456,160,85825,1,0,0:0:0
460,312,86081,5,0,0:0:0
412,292,86209,1,0,0:0:0
384,252,86338,1,0,0:0:0
200,112,86594,1,2,0:0:0
200,112,86851,6,0,B|135:72|61:133|89:204,1,191.249994300306,4|0,0:0|0:0,0:0:0
124,296,87359,1,8,0:0:0
296,344,87613,6,0,B|360:312|384:236,1,127.499996200204,0|0,0:0|0:0,0:0:0
396,204,87995,1,0,0:0:0
404,152,88122,1,8,0:0:0
216,24,88376,6,0,B|200:90|213:159,1,127.499996200204,0|0,0:0|0:0,0:0:0
228,200,88757,1,0,0:0:0
252,244,88884,1,0,0:0:0
404,152,89139,1,4,0:0:0
128,184,89393,1,0,0:0:0
296,344,89647,1,10,0:0:0
308,128,89883,6,2,B|333:56|257:-2|194:39,1,191.249994300306,4|0,0:0|0:0,0:0:0
112,96,90391,1,2,0:0:0
188,276,90645,2,2,B|156:296|156:296|104:288|104:288|60:308,2,127.499996200204,8|2|0,0:0|0:0|0:0,0:0:0
308,176,91389,5,4,0:0:0
308,176,91473,1,0,0:0:0
308,176,91558,1,0,0:0:0
308,176,91643,2,2,B|384:172|440:208,1,127.499996200204,0|8,0:0|0:0,0:0:0
80,184,92151,5,0,0:0:0
152,96,92405,1,8,0:0:0
288,256,92660,1,2,0:0:0
216,176,92904,6,2,B|260:80|368:56,1,191.249994300306,4|0,0:0|0:0,0:0:0
472,40,93399,1,2,0:0:0
456,280,93647,5,0,0:0:0
280,340,93895,1,8,0:0:0
340,168,94143,1,2,0:0:0
352,268,94391,5,4,0:0:0
352,268,94474,1,0,0:0:0
352,268,94556,1,0,0:0:0
352,268,94639,2,0,B|276:268|220:232,1,127.499996200204,0|0,0:0|0:0,0:0:0
72,128,95135,1,8,0:0:0
428,208,95383,1,0,0:0:0
148,308,95631,1,0,0:0:0
320,40,95879,6,0,B|288:148|160:152,1,191.249994300306,4|0,0:0|0:0,0:0:0
64,156,96375,2,0,B|126:189|184:276,1,127.499996200204,0|8,0:0|0:0,0:0:0
276,344,96870,2,0,B|245:280|249:176,1,127.499996200204,0|0,0:0|0:0,0:0:0
256,48,97366,6,0,B|260:8,6,31.874999050051,0|0|0|0|2|0|0,0:0|0:0|0:0|0:0|0:0|0:0|0:0,0:0:0
328,100,97862,2,0,B|336:127|334:145|334:145|352:136|352:136|340:184|368:232,1,127.499996200204,2|0,0:0|0:0,0:0:0
372,244,98234,1,0,0:0:0
416,272,98358,1,12,0:0:0
484,92,98854,5,12,0:0:0
336,212,99102,1,0,0:0:0
298,243,99226,1,0,0:0:0
258,275,99350,1,0,0:0:0
412,152,99598,5,12,0:0:0
228,204,99846,1,0,0:0:0
181,220,99970,1,0,0:0:0
133,236,100094,1,0,0:0:0
336,212,100342,5,12,0:0:0
132,156,100589,1,0,0:0:0
106,150,100672,1,0,0:0:0
82,145,100755,1,0,0:0:0
57,138,100837,2,2,B|132:128|188:92,1,127.499996200204,0|8,0:0|0:0,0:0:0
300,32,101333,6,2,B|336:8|336:8|340:72|380:96,1,127.499996200204,0|2,0:0|0:0,0:0:0
456,192,101829,1,12,0:0:0
264,288,102077,5,0,0:0:0
240,280,102160,1,0,0:0:0
216,268,102242,1,0,0:0:0
196,252,102325,2,2,B|193:186|120:128,1,127.499996200204,0|12,0:0|0:0,0:0:0
116,128,102656,1,0,0:0:0
92,120,102738,1,0,0:0:0
68,112,102821,2,2,B|152:96|196:32,1,127.499996200204,0|0,0:0|0:0,0:0:0
372,160,103317,6,0,B|440:212,1,63.7500024318696,12|0,0:0|0:0,0:0:0
480,312,103565,2,0,B|429:273,1,63.7500024318696,0|0,0:0|0:0,0:0:0
380,284,103813,1,0,0:0:0
328,284,103937,1,0,0:0:0
280,268,104061,1,8,0:0:0
40,172,104308,6,2,B|60:158|88:148|88:148|72:136|72:136|105:124|136:84,1,127.499996200204,2|0,0:0|0:0,0:0:0
180,40,104680,1,0,0:0:0
180,40,104804,6,0,B|229:79|320:92,1,127.499996200204,12|0,0:0|0:0,0:0:0
348,100,105168,1,0,0:0:0
400,104,105289,1,0,0:0:0
108,208,105532,6,0,B|176:224|256:200,1,127.499996200204,12|0,0:0|0:0,0:0:0
284,192,105897,1,0,0:0:0
328,168,106018,1,0,0:0:0
212,368,106261,6,0,B|287:356|331:315,1,127.499996200204,12|0,0:0|0:0,0:0:0
359,280,106625,1,0,0:0:0
380,228,106747,1,0,0:0:0
292,44,106990,5,10,0:0:0
117,148,107233,1,2,0:0:0
296,246,107476,1,2,0:0:0
500,196,107718,5,12,0:0:0
485,172,107799,1,0,0:0:0
470,153,107880,1,0,0:0:0
452,136,107961,2,0,B|384:116|344:36,1,127.499996200204,0|0,0:0|0:0,0:0:0
212,52,108447,6,0,B|216:92|236:132,1,63.749998100102,2|0,0:0|0:0,0:0:0
48,124,108690,2,0,B|80:140|112:148,1,63.749998100102,2|0,0:0|0:0,0:0:0
0,292,108933,2,0,B|36:288|76:252,1,63.749998100102,2|0,0:0|0:0,0:0:0
148,208,109176,5,8,0:0:0
172,200,109257,1,0,0:0:0
196,200,109338,1,0,0:0:0
220,204,109419,1,0,0:0:0
244,216,109500,1,0,0:0:0
264,232,109581,1,0,0:0:0
280,252,109662,2,0,B|324:308|408:304,1,127.499996200204,0|8,0:0|0:0,0:0:0
476,92,110148,1,4,0:0:0
476,92,110633,6,0,B|420:120|368:80|368:80|318:85|288:124,1,191.249994300306,12|0,0:0|0:0,0:0:0
216,188,111113,1,0,0:0:0
396,264,111353,1,8,0:0:0
232,364,111593,5,0,0:0:0
192,332,111713,1,0,0:0:0
148,304,111833,2,2,B|84:272|0:276,1,127.499996200204,0|12,0:0|0:0,0:0:0
52,108,112313,5,0,0:0:0
84,148,112433,1,0,0:0:0
108,192,112553,1,0,0:0:0
308,144,112793,5,8,0:0:0
274,138,112873,1,0,0:0:0
242,139,112953,1,0,0:0:0
208,147,113033,1,0,0:0:0
268,256,113273,1,0,0:0:0
360,340,113513,6,0,B|370:300|352:268|352:268|376:264|392:244|392:244|376:204|384:160,1,191.249994300306,12|0,0:0|0:0,0:0:0
392,80,113993,1,2,0:0:0
392,80,114233,1,8,0:0:0
304,172,114473,1,4,0:0:0
264,204,114593,1,0,0:0:0
216,216,114713,1,0,0:0:0
164,216,114833,1,0,0:0:0
116,200,114953,6,2,B|36:180|12:112|12:112|4:184,1,191.249994300306,12|0,0:0|0:0,0:0:0
0,280,115433,1,0,0:0:0
168,96,115673,6,0,B|236:76|316:92,1,127.499996200204,8|0,0:0|0:0,0:0:0
304,312,116153,1,0,0:0:0
304,312,116273,1,0,0:0:0
304,312,116387,6,0,B|372:304|388:256|388:256|392:280|392:280|412:240|460:224,2,191.249994300306,12|0|8,0:0|0:0|0:0,0:0:0
164,156,117331,2,0,B|132:224,1,63.749998100102,0|0,0:0|0:0,0:0:0
36,232,117568,2,0,B|68:164,1,63.749998100102,0|0,0:0|0:0,0:0:0
116,72,117804,6,0,B|228:56|308:136,1,191.249994300306,12|0,0:0|0:0,0:0:0
360,192,118276,1,0,0:0:0
152,192,118512,1,8,0:0:0
363,84,118749,1,0,0:0:0
148,299,118985,1,2,0:0:0
256,192,119221,6,2,B|280:220|312:224|312:224|288:232|288:232|340:236|400:288,1,191.249994300306,12|0,0:0|0:0,0:0:0
456,336,119694,1,0,0:0:0
464,140,119930,1,8,0:0:0
296,240,120166,6,0,B|262:294,1,63.749998100102,0|0,0:0|0:0,0:0:0
138,346,120402,2,0,B|172:292,1,63.749998100102,2|0,0:0|0:0,0:0:0
48,152,120638,6,0,B|14:206,1,63.749998100102,12|0,0:0|0:0,0:0:0
138,154,120875,2,0,B|171:99,1,63.749998100102,2|0,0:0|0:0,0:0:0
224,24,121111,5,0,0:0:0
272,12,121229,1,0,0:0:0
320,18,121347,1,8,0:0:0
367,38,121465,1,0,0:0:0
404,73,121583,1,0,0:0:0
412,123,121701,1,0,0:0:0
403,173,121820,1,0,0:0:0
380,216,121938,1,0,0:0:0
344,250,122056,1,12,0:0:0
256,192,122292,12,2,129142,0:0:0
