osu file format v10

[General]
AudioFilename: MiddleIsland - Vision.mp3
AudioLeadIn: 0
PreviewTime: 73368
Countdown: 0
SampleSet: Soft
StackLeniency: 0.7
Mode: 0
LetterboxInBreaks: 0

[Editor]
Bookmarks: 98854
DistanceSpacing: 0.8
BeatDivisor: 4
GridSize: 4

[Metadata]
Title:Vision
TitleUnicode:Vision
Artist:MiddleIsland
ArtistUnicode:MiddleIsland
Creator:Lan wings
Version:Hardy
Source:Gen Sou Musai Shoku
Tags:Nakajima Misaki Piano Violin Beren -Baby Strawberry-
BeatmapID:176389
BeatmapSetID:54465

[Difficulty]
HPDrainRate:6
CircleSize:4
OverallDifficulty:5
ApproachRate:7
SliderMultiplier:2
SliderTickRate:1

[Events]
//Background and Video events
0,0,"bg.jpg"
//Break Periods
//Storyboard Layer 0 (Background)
//Storyboard Layer 1 (Fail)
//Storyboard Layer 2 (Pass)
//Storyboard Layer 3 (Foreground)
//Storyboard Sound Samples
//Background Colour Transformations
3,100,163,162,255

[TimingPoints]
22760,521.739130434783,3,2,1,20,1,0
27977,-133.333333333333,3,2,1,20,0,0
29803,-100,3,2,1,20,0,0
35542,-133.333333333333,3,2,1,20,0,0
36325,-100,3,2,1,20,0,0
44673,-133.333333333333,3,2,1,20,0,0
45194,-100,3,2,1,20,0,0
46238,-133.333333333333,3,2,1,20,0,0
47803,-200,3,2,1,20,0,0
49368,-100,3,2,1,20,0,0
58759,-133.333333333333,3,2,1,20,0,0
59803,-100,3,2,1,20,0,0
71281,528.63436123348,3,2,1,20,1,0
73368,-100,3,2,1,40,0,0
73890,-100,3,2,1,55,0,0
74452,521.739130434783,6,2,1,70,1,1
74452,-133.333333333333,6,2,1,70,0,1
74973,-100,6,2,1,70,0,1
78625,-133.333333333333,6,2,1,70,0,1
79669,-100,6,2,1,70,0,1
80712,-133.333333333333,6,2,1,70,0,1
81210,512.820512820513,6,2,1,70,1,1
81466,-100,6,2,1,70,0,1
82235,512.820512820513,6,2,1,70,1,1
83774,512.820512820513,6,2,1,70,1,1
84030,-133.333333333333,6,2,1,70,0,1
86081,-100,6,2,1,70,0,1
86851,508.474576271186,6,2,1,70,1,1
86851,-133.333333333333,6,2,1,70,0,1
89139,-100,6,2,1,70,0,1
89883,508.474576271186,6,2,1,70,1,1
91389,508.474576271186,6,2,1,70,1,1
91643,-133.333333333333,6,2,1,70,0,1
92405,-100,6,2,1,70,0,1
92904,495.867768595041,6,2,1,70,1,1
94639,-133.333333333333,6,2,1,70,0,1
95135,-100,6,2,1,70,0,1
95879,-133.333333333333,6,2,1,70,0,1
98412,-100,6,2,1,70,0,1
102573,-133.333333333333,6,2,1,70,0,1
104064,-100,6,2,1,70,0,1
104308,-133.333333333333,6,2,1,70,0,1
104804,485.82995951417,6,2,1,20,1,1
104804,-133.333333333333,6,2,1,70,0,1
105775,-100,6,2,1,70,0,1
106261,-133.333333333333,6,2,1,70,0,1
106990,-100,6,2,1,70,0,1
107961,-133.333333333333,6,2,1,70,0,1
109890,-100,6,2,1,70,0,1
110633,480,6,2,1,70,1,1
116387,472.44094488189,6,2,1,70,1,1
122003,-100,6,2,1,70,0,0
122062,-100,6,2,1,70,0,1
122121,-100,6,2,1,70,0,0
123473,-100,6,2,1,65,0,0
123946,-100,6,2,1,60,0,0
124418,-100,6,2,1,55,0,0
124890,-100,6,2,1,50,0,0
125363,-100,6,2,1,45,0,0
125835,-100,6,2,1,40,0,0
126308,-100,6,2,1,35,0,0
126780,-100,6,2,1,30,0,0
127253,-100,6,2,1,25,0,0
127725,-100,6,2,1,20,0,0
128198,-100,6,2,1,15,0,0
128670,-100,6,2,1,10,0,0
129142,-100,6,2,1,5,0,0

[Colours]
Combo1 : 255,0,128
Combo2 : 206,233,22
Combo3 : 213,0,0
Combo4 : 38,147,255

[HitObjects]
148,104,22760,1,4,0:0:0
384,148,23542,1,0,0:0:0
224,328,24325,1,0,0:0:0
248,168,24846,5,0,0:0:0
324,196,25107,2,0,B|372:188,2,50,0|0|2,0:0|0:0|0:0,0:0:0
260,244,25629,1,0,0:0:0
184,216,25890,2,0,B|152:156|196:108|196:108|188:64|152:40,1,200
72,24,26673,1,0,0:0:0
100,100,26933,2,0,B|76:144|92:196,1,100
124,272,27455,6,0,B|180:280|192:336,1,100,2|0,0:0|0:0,0:0:0
112,352,27977,2,0,B|100:284|156:240|232:240|260:296,1,225.000008583069
192,336,29020,2,0,B|224:388|296:392|352:344|336:272,1,225.000008583069
292,208,30064,1,2,0:0:0
264,52,30586,6,0,B|244:96|284:124|284:124|356:128|372:188,1,200,4|2,0:0|0:0,0:0:0
352,268,31629,1,2,0:0:0
292,208,32151,1,2,0:0:0
292,208,32412,2,0,B|264:224|268:260,2,50
375,190,32933,1,0,0:0:0
444,148,33194,2,0,B|468:196|436:244,1,100
375,190,33716,6,0,B|348:108|416:72|416:72|400:44|360:40,1,200,2|0,0:0|0:0,0:0:0
220,112,34760,1,0,0:0:0
296,92,35020,2,0,B|288:60|256:44,2,50,0|0|2,0:0|0:0|0:0,0:0:0
276,168,35542,2,0,B|236:204|184:184|184:184|108:200|112:272,1,225.000008583069
192,264,36586,1,0,0:0:0
272,260,36846,6,0,B|272:320|220:340,1,100,6|0,0:0|0:0,0:0:0
192,264,37368,2,0,B|140:292|140:348|140:348|92:380|52:344,1,200
36,264,38151,2,0,B|64:256|88:280,3,33.3333333333333,0|0|0|2,0:0|0:0|0:0|0:0,0:0:0
36,264,38673,2,0,B|84:231|68:175,1,100
136,40,39455,2,0,B|192:28|228:64,1,100
240,144,39977,5,4,0:0:0
164,116,40238,2,0,B|116:132,2,50,0|0|2,0:0|0:0|0:0,0:0:0
228,64,40760,1,0,0:0:0
304,92,41020,1,0,0:0:0
316,172,41281,1,0,0:0:0
256,224,41542,2,0,B|288:264|344:248|344:248|404:256|416:312,1,200,2|0,0:0|0:0,0:0:0
408,148,42586,2,0,B|420:208|376:240,1,100
288,252,43107,5,4,0:0:0
344,320,43368,2,0,B|368:336|400:324,2,50,0|0|2,0:0|0:0|0:0,0:0:0
263,300,43890,1,0,0:0:0
263,301,44151,2,0,B|220:268|164:284,1,100
204,360,44673,2,0,B|140:380|92:344|88:296,1,150.000005722046,2|0,0:0|0:0,0:0:0
164,156,45716,2,0,B|188:216|152:256,1,100
84,220,46238,6,0,B|120:152|212:160|236:216|232:260|232:260|228:304|180:324,1,300.000011444092,4|0,0:0|0:0,0:0:0
156,252,47803,2,0,B|228:248|260:180|260:180|292:200|296:240,1,200,2|2,0:0|0:0,0:0:0
160,144,49368,5,6,0:0:0
296,233,49890,1,0,0:0:0
216,218,50151,2,0,B|220:192|240:176,2,50,0|0|2,0:0|0:0|0:0,0:0:0
244,292,50673,1,0,0:0:0
244,292,50933,2,0,B|280:328|336:304|336:304|376:260|428:276,1,200,2|0,0:0|0:0,0:0:0
403,352,51716,2,0,B|460:368|492:324,1,100
428,276,52238,2,0,B|476:244|464:188,1,100,0|2,0:0|0:0,0:0:0
412,124,52759,6,0,B|400:96|416:76,3,33.3333333333333,0|0|0|2,0:0|0:0|0:0|0:0,0:0:0
412,124,53281,2,0,B|360:100|316:132,1,100
228,264,54064,1,0,0:0:0
372,196,54586,1,0,0:0:0
240,104,55107,1,2,0:0:0
92,164,55629,6,0,B|116:128|168:140|168:140|204:196|268:176,1,200,4|0,0:0|0:0,0:0:0
316,120,56673,1,2,0:0:0
240,104,57194,1,2,0:0:0
240,104,57455,2,0,B|232:80|200:72,2,50,0|0|2,0:0|0:0|0:0,0:0:0
268,176,57977,1,0,0:0:0
268,176,58238,2,0,B|276:232|332:248,1,100
348,168,58760,6,0,B|412:188|432:252|416:312|360:348|296:336|268:292,1,300,2|0,0:0|0:0,0:0:0
332,244,60064,2,0,B|288:220,2,50,0|0|2,0:0|0:0|0:0,0:0:0
332,244,60586,1,0,0:0:0
320,148,60846,1,0,0:0:0
224,128,61107,2,0,B|172:148|172:204,1,100
320,148,61890,5,4,0:0:0
196,44,62412,1,0,0:0:0
172,204,62933,2,0,B|180:248|148:276|148:276|224:264|250:320,1,200,0|2,0:0|0:0,0:0:0
176,356,63716,1,0,0:0:0
96,340,63977,2,0,B|80:348|56:344,3,33.3333333333333,0|0|0|2,0:0|0:0|0:0|0:0,0:0:0
68,264,64499,2,0,B|72:236|96:216|96:216|72:208|64:184,1,100
128,136,65020,5,2,0:0:0
288,120,65542,2,0,B|316:148|348:140,2,66.6666666666667,2|2|2,0:0|0:0|0:0,0:0:0
340,72,66064,2,0,B|292:28|220:44|204:112|224:148,1,200,4|0,0:0|0:0,0:0:0
172,312,67107,2,0,B|220:356|292:340|308:272|288:236,1,200
255,147,67890,6,0,B|312:128|348:160,1,100,6|4,0:0|0:0,0:0:0
288,228,69455,6,0,B|284:284|227:300,1,100,6|4,0:0|0:0,0:0:0
208,212,71020,6,0,B|160:180|175:123,1,100,6|4,0:0|0:0,0:0:0
316,116,73395,6,2,B|224:120|196:196,1,150
160,176,73924,2,0,B|209:253|289:239,1,150,2|0,0:0|0:0,0:0:0
292,280,74452,2,0,B|334:198|282:136,1,150,6|0,0:0|0:0,0:0:0
340,80,75234,6,0,B|376:120|436:100,1,100,2|2,0:0|0:0,0:0:0
452,180,75756,2,0,B|399:191|386:253,1,100,0|2,0:0|0:0,0:0:0
312,228,76278,2,0,B|328:176|281:134,1,100,0|2,0:0|0:0,0:0:0
236,200,76799,2,0,B|219:251|263:290,1,100,0|2,0:0|0:0,0:0:0
208,348,77321,2,0,B|172:308|116:326,1,100,0|6,0:0|0:0,0:0:0
96,248,77843,6,0,B|148:236|160:179,1,100,0|2,0:0|0:0,0:0:0
80,168,78365,2,0,B|44:172|24:208,1,66.6666666666667
80,168,78625,2,0,B|92:112|144:100|144:100|176:96|200:108|200:108|232:128|240:160|240:160|256:204|296:204,1,300.000011444092,2|0,0:0|0:0,0:0:0
324,128,79930,1,2,0:0:0
392,72,80191,2,0,B|428:120|400:168,1,100
324,128,80712,6,0,B|276:116|240:152|240:152|248:228|168:252,1,217,4|2,0:0|0:0,0:0:0
92,236,81722,2,0,B|108:180|164:172,1,100,0|2,0:0|0:0,0:0:0
112,108,82235,2,0,B|160:80|208:108,1,100,0|2,0:0|0:0,0:0:0
216,24,82747,2,0,B|268:36|288:88,1,100,0|2,0:0|0:0,0:0:0
352,20,83260,2,0,B|384:68|368:116,1,100,0|2,0:0|0:0,0:0:0
304,160,83774,6,0,B|264:152|244:184,1,66.6666666666667
304,160,84030,2,0,B|336:208|396:200|424:172|424:172|344:220|360:312,1,300.000011444092,2|2,0:0|0:0,0:0:0
440,288,85312,2,0,B|412:224|348:204|276:244|280:308,1,225.000008583069,0|2,0:0|0:0,0:0:0
184,232,86594,1,0,0:0:0
108,212,86851,6,0,B|128:148|200:152|200:152|288:140|288:68|284:40|260:16,1,300.000011444092,4|0,0:0|0:0,0:0:0
204,68,88122,1,2,0:0:0
124,56,88376,2,0,B|120:141|208:153|208:153|252:140|288:164,1,225.000008583069,0|2,0:0|0:0,0:0:0
336,228,89393,2,0,B|284:264|240:228,1,100
164,228,89883,6,0,B|164:308|240:344|328:320|344:232|304:180,1,300,4|2,0:0|0:0,0:0:0
247,138,90899,2,0,B|216:180|244:232,1,100,0|2,0:0|0:0,0:0:0
316,272,91389,2,0,B|336:260|352:268,2,33.3333333333333
316,272,91643,2,0,B|276:328|208:308|208:308|180:256|124:252,1,225.000008583069,2|2,0:0|0:0,0:0:0
128,336,92660,1,0,0:0:0
128,336,92787,1,0,0:0:0
128,336,92904,1,4,0:0:0
248,236,93399,6,0,B|272:188|332:192,1,100,0|2,0:0|0:0,0:0:0
412,188,93895,2,0,B|404:128|352:116,1,100,0|2,0:0|0:0,0:0:0
276,144,94391,2,0,B|252:128|224:140,2,33.3333333333333
276,144,94639,2,0,B|296:200|360:212|400:176,1,150.000005722046,2|0,0:0|0:0,0:0:0
352,116,95383,2,0,B|328:64|264:64,1,100,0|2,0:0|0:0,0:0:0
204,104,95879,6,0,B|172:188|244:248|320:212|320:212|420:236|408:332,1,375.000014305115,4|2,0:0|0:0,0:0:0
324,304,97366,2,0,B|208:340|108:252|112:156,1,300.000011444092,0|2,0:0|0:0,0:0:0
272,148,98854,5,4,0:0:0
484,120,99598,2,0,B|408:92|352:136|352:136|356:172|336:192,1,200,2|0,0:0|0:0,0:0:0
268,236,100342,2,0,B|300:288|364:268,1,100,2|0,0:0|0:0,0:0:0
336,192,100837,1,0,0:0:0
264,160,101085,2,0,B|202:161|188:227,1,100,2|0,0:0|0:0,0:0:0
268,236,101581,1,0,0:0:0
336,192,101829,2,0,B|360:136|312:92,1,100,2|0,0:0|0:0,0:0:0
264,160,102325,1,0,0:0:0
268,236,102573,6,0,B|308:300|400:284|424:224|412:172,2,225.000008583069,2|2|2,0:0|0:0|0:0,0:0:0
200,200,104308,6,0,B|156:220|128:192,1,75.0000028610231,2|0,0:0|0:0,0:0:0
84,252,104804,2,0,B|40:212|48:156|72:116|136:104|176:136,1,225.000008583069,4|2,0:0|0:0,0:0:0
248,160,105775,2,0,B|296:188|340:152,1,100,0|2,0:0|0:0,0:0:0
288,96,106261,2,0,B|232:160|292:236|328:220|328:220,1,150.000005722046,0|2,0:0|0:0,0:0:0
340,152,106990,2,0,B|280:200|224:148|224:148|180:152|152:192,1,200,0|2,0:0|0:0,0:0:0
224,236,107718,6,0,B|208:252|184:260,2,33.3333333333333
224,236,107961,2,0,B|276:272|348:248|380:224|380:224|456:228|484:300,1,300.000011444092,2|0,0:0|0:0,0:0:0
392,316,109176,2,0,B|312:360|216:348|176:300,1,225.000008583069,2|0,0:0|0:0,0:0:0
100,292,110148,1,2,0:0:0
92,144,110633,6,0,B|188:136|232:208|232:208|304:256|352:184,1,300,4|2,0:0|0:0,0:0:0
436,172,111593,2,0,B|424:116|360:96,1,100
296,120,112073,2,0,B|253:158|273:225,1,100,2|0,0:0|0:0,0:0:0
324,268,112553,2,0,B|384:280|426:234,1,100
352,188,113033,1,0,0:0:0
256,60,113513,6,0,B|196:40|160:84|160:84|144:136|184:172,1,200,4|2,0:0|0:0,0:0:0
256,324,114473,2,0,B|316:344|352:300|352:300|368:248|328:212,1,200,2|4,0:0|0:0,0:0:0
256,192,115073,8,0,115913,0:0:0
212,176,116387,6,0,B|136:132|168:0|288:20|328:60|316:140,1,300,6|2,0:0|0:0,0:0:0
264,268,117568,1,2,0:0:0
192,268,117804,6,0,B|192:320|224:364|344:384|376:252|300:208,1,300,4|0,0:0|0:0,0:0:0
248,116,118985,1,2,0:0:0
174,148,119221,6,0,B|190:184|226:192|226:192|256:192,1,100,4|0,0:0|0:0,0:0:0
337,236,119694,2,0,B|321:200|285:192|285:192|256:192,1,100,0|0,0:0|0:0,0:0:0
176,239,120166,2,0,B|216:243|241:216|241:216|256:192,1,100
334,143,120638,2,0,B|294:139|270:166|270:166|256:192,1,100,4|0,0:0|0:0,0:0:0
257,284,121111,2,0,B|281:252|270:217|270:217|256:192,1,100
254,99,121583,2,0,B|230:131|242:166|242:166|256:192,1,100
256,192,122056,21,4,0:0:0
256,192,122292,12,2,129142,0:0:0
