osu file format v10

[General]
AudioFilename: MiddleIsland - Vision.mp3
AudioLeadIn: 0
PreviewTime: 73368
Countdown: 0
SampleSet: Soft
StackLeniency: 0.7
Mode: 0
LetterboxInBreaks: 0

[Editor]
DistanceSpacing: 1.6
BeatDivisor: 4
GridSize: 4

[Metadata]
Title:Vision
TitleUnicode:Vision
Artist:MiddleIsland
ArtistUnicode:MiddleIsland
Creator:Lan wings
Version:Easy
Source:Gen Sou Musai Shoku
Tags:Nakajima Misaki Piano Violin Beren -Baby Strawberry-
BeatmapID:169821
BeatmapSetID:54465

[Difficulty]
HPDrainRate:1
CircleSize:3
OverallDifficulty:1
ApproachRate:2
SliderMultiplier:1.2
SliderTickRate:1

[Events]
//Background and Video events
0,0,"bg.jpg"
//Break Periods
//Storyboard Layer 0 (Background)
//Storyboard Layer 1 (Fail)
//Storyboard Layer 2 (Pass)
//Storyboard Layer 3 (Foreground)
//Storyboard Sound Samples
//Background Colour Transformations
3,100,163,162,255

[TimingPoints]
22760,521.739130434783,3,2,1,25,1,0
25629,-100,3,2,1,30,0,0
47281,-100,3,2,1,20,0,0
49107,-100,3,2,2,30,0,0
71281,528.63436123348,3,2,2,30,1,0
73107,-100,3,1,1,30,0,0
74452,521.739130434783,6,1,1,50,1,1
79890,-100,6,1,1,30,0,1
80412,-100,6,1,1,50,0,1
80933,-100,6,1,1,70,0,1
81210,512.820512820513,6,1,1,70,1,1
82235,512.820512820513,6,1,1,70,1,1
83774,512.820512820513,6,1,1,70,1,1
85053,-100,6,1,1,40,0,1
86851,508.474576271186,6,1,1,60,1,1
89091,-100,6,1,1,40,0,1
89599,-100,6,1,1,60,0,1
89883,508.474576271186,6,1,1,60,1,1
90616,-100,6,1,1,40,0,1
91125,-100,6,1,1,60,0,1
91389,508.474576271186,6,1,1,60,1,1
92904,495.867768595041,6,1,1,60,1,1
102573,-100,6,1,1,40,0,1
103069,-100,6,1,1,40,0,1
104308,-100,6,1,1,80,0,1
104804,485.82995951417,6,1,1,80,1,1
105046,-100,6,1,1,50,0,1
105532,-100,6,1,1,60,0,1
106018,-100,6,1,1,80,0,1
106504,-100,6,1,1,50,0,1
106990,-100,6,1,1,60,0,1
107476,-100,6,1,1,80,0,1
107961,-100,6,1,1,50,0,1
108447,-100,6,1,1,60,0,1
108933,-100,6,1,1,80,0,1
110633,480,6,1,1,80,1,1
116387,472.44094488189,6,1,1,80,1,1
122003,-100,6,1,1,80,0,0
122062,-100,6,2,1,70,0,1
122121,-100,6,2,1,70,0,0
123473,-100,6,2,1,65,0,0
123946,-100,6,2,1,60,0,0
124418,-100,6,2,1,55,0,0
124890,-100,6,2,1,50,0,0
125363,-100,6,2,1,45,0,0
125835,-100,6,2,1,40,0,0
126308,-100,6,2,1,35,0,0
126780,-100,6,2,1,30,0,0
127253,-100,6,2,1,25,0,0
127725,-100,6,2,1,20,0,0
128198,-100,6,2,1,15,0,0
128670,-100,6,2,1,10,0,0
129142,-100,6,2,1,5,0,0

[Colours]
Combo1 : 255,0,128
Combo2 : 206,233,22
Combo3 : 213,0,0
Combo4 : 38,147,255

[HitObjects]
176,288,22760,2,0,B|204:332|308:332|336:288,2,180,4|0|0,0:0|0:0|0:0,0:0:0
116,184,24846,2,0,B|176:160|236:184,1,120,8|0,0:0|0:0,0:0:0
312,96,25890,2,0,B|349:151|427:162,2,120,8|0|2,0:0|0:0|0:0,0:0:0
416,40,27455,5,4,0:0:0
512,108,27977,1,8,0:0:0
512,228,28499,1,0,0:0:0
412,172,29020,2,0,B|380:228|404:272|404:272|336:312|256:280,1,240,8|2,0:0|0:0,0:0:0
196,192,30586,6,0,B|143:234|149:307,1,120,0|8,0:0|0:0,0:0:0
80,196,31629,1,0,0:0:0
136,92,32151,6,0,B|203:94|247:37,1,120,4|0,0:0|0:0,0:0:0
348,104,33194,2,0,B|414:115|444:181,1,120,0|0,0:0|0:0,0:0:0
488,284,34238,1,8,0:0:0
248,284,35281,6,0,B|183:284|128:304,1,120,4|0,0:0|0:0,0:0:0
264,100,36846,6,0,B|328:99|384:80,2,120,0|8|0,0:0|0:0|0:0,0:0:0
304,212,38412,2,0,B|239:211|184:192,1,120,0|0,0:0|0:0,0:0:0
76,144,39455,1,8,0:0:0
148,240,39977,6,0,B|208:176|180:96|180:96|196:48|240:36,1,240,4|0,0:0|0:0,0:0:0
356,40,41542,2,0,B|412:60|476:120,1,120
508,212,42586,1,8,0:0:0
388,212,43107,6,0,B|264:246|204:372,1,240,4|0,0:0|0:0,0:0:0
184,244,44673,2,0,B|170:176|120:100,1,120,0|8,0:0|0:0,0:0:0
68,36,45716,1,0,0:0:0
12,140,46238,1,2,0:0:0
12,140,46760,1,8,0:0:0
128,348,47803,6,2,B|204:356|289:271|280:195,1,240,8|0,0:0|0:0,0:0:0
268,76,49368,5,4,0:0:0
376,132,49890,1,2,0:0:0
440,232,50412,1,2,0:0:0
320,240,50933,2,0,B|256:252|204:336,2,120,0|2|2,0:0|0:0|0:0,0:0:0
208,192,52499,5,0,0:0:0
93,152,53020,1,2,0:0:0
132,38,53542,1,2,0:0:0
246,78,54064,2,0,B|380:109|517:2,1,240,0|2,0:0|0:0,0:0:0
436,148,55629,6,0,B|376:288,1,120,0|2,0:0|0:0,0:0:0
344,368,56673,1,2,0:0:0
252,292,57194,2,0,B|197:254|128:244,1,120,0|2,0:0|0:0,0:0:0
20,252,58238,1,2,0:0:0
76,148,58760,6,0,B|23:110|6:40,2,120,0|2|2,0:0|0:0|0:0,0:0:0
136,40,60325,2,0,B|256:64|396:36,1,240,0|2,0:0|0:0,0:0:0
460,124,61890,6,0,B|484:184|460:260,2,120,0|2|2,0:0|0:0|0:0,0:0:0
360,188,63455,2,0,B|309:228|229:227,2,120,0|2|2,0:0|0:0|0:0,0:0:0
260,124,65020,6,0,B|201:95|167:23,2,120,0|2|2,0:0|0:0|0:0,0:0:0
192,224,66586,2,0,B|296:260|360:184|360:184|392:172|412:200,1,240,0|2,0:0|0:0,0:0:0
472,300,68151,6,0,B|415:342|332:332,1,120,2|0,0:0|0:0,0:0:0
236,320,69194,1,2,0:0:0
132,260,69716,6,0,B|188:220|276:212,1,120,2|0,0:0|0:0,0:0:0
360,200,70759,1,2,0:0:0
376,84,71281,2,0,B|256:52|256:116|116:84,1,240,0|2,0:0|0:0,0:0:0
52,172,72866,5,0,0:0:0
52,172,73395,2,2,B|104:212|180:204,1,120,0|2,0:0|0:0,0:0:0
252,120,74452,6,0,B|308:128|376:176,1,120,4|0,0:0|0:0,0:0:0
460,232,75495,1,0,0:0:0
364,304,76017,2,0,B|310:342|254:350,1,120,4|0,0:0|0:0,0:0:0
136,356,77060,1,0,0:0:0
196,252,77582,6,2,B|236:208|240:128,1,120,4|0,0:0|0:0,0:0:0
260,24,78625,1,0,0:0:0
348,104,79147,2,0,B|392:152|400:224,1,120,4|0,0:0|0:0,0:0:0
408,332,80191,6,2,B|344:340|260:308,1,120,0|12,0:0|0:0,0:0:0
176,276,81210,1,0,0:0:0
76,208,81722,1,0,0:0:0
36,96,82235,2,0,B|84:108|114:75|114:75|188:112,1,120,4|0,0:0|0:0,0:0:0
256,140,83260,1,0,0:0:0
366,91,83774,6,0,B|397:75|397:75|427:108|476:96,1,120,4|0,0:0|0:0,0:0:0
436,208,84799,1,0,0:0:0
336,276,85312,2,2,B|375:328|464:332,2,120,0|0|0,0:0|0:0|0:0,0:0:0
256,188,86851,6,0,B|206:104|85:145|97:243,1,240,4|0,0:0|0:0,0:0:0
204,300,88376,2,0,B|253:383|374:342|362:244,1,240,8|2,0:0|0:0,0:0:0
256,188,89883,2,2,B|243:90|364:49|414:133,1,240,4|2,0:0|0:0,0:0:0
488,228,91389,2,2,B|396:320|256:312,1,240,4|0,0:0|0:0,0:0:0
156,256,92904,6,2,B|127:320|57:336,2,120,4|2|0,0:0|0:0|0:0,0:0:0
156,128,94391,2,2,B|127:63|57:47,2,120,2|0|0,0:0|0:0|0:0,0:0:0
240,212,95879,2,0,B|288:244|424:244|472:212,1,240,4|0,0:0|0:0,0:0:0
396,120,97366,2,0,B|348:88|212:88|164:120,1,240,4|4,0:0|0:0,0:0:0
68,192,98854,5,12,0:0:0
148,280,99350,2,2,B|201:318|262:299,1,120,0|0,0:0|0:0,0:0:0
276,180,100342,1,12,0:0:0
392,200,100837,2,2,B|528:220,1,120,0|2,0:0|0:0,0:0:0
460,108,101829,6,2,B|341:90,1,120,12|0,0:0|0:0,0:0:0
220,84,102821,1,2,0:0:0
100,104,103317,2,2,B|88:236|216:308,1,240,0|2,0:0|0:0,0:0:0
324,344,104804,5,12,0:0:0
444,336,105289,1,8,0:0:0
492,224,105775,1,8,0:0:0
372,240,106261,5,12,0:0:0
364,120,106747,1,8,0:0:0
252,72,107233,1,10,0:0:0
268,192,107718,5,12,0:0:0
148,200,108204,1,8,0:0:0
100,312,108690,1,8,0:0:0
220,296,109176,2,0,B|328:336|408:296|408:296|448:224,1,240,12|0,0:0|0:0,0:0:0
431,129,110633,6,0,B|408:88|408:88|328:48|220:88,1,240,12|0,0:0|0:0,0:0:0
136,172,112073,2,0,B|92:124|104:48,2,120,4|0|0,0:0|0:0|0:0,0:0:0
224,256,113513,6,2,B|263:295|358:301,1,120,12|0,0:0|0:0,0:0:0
456,296,114473,1,2,0:0:0
476,176,114953,2,0,B|448:108|348:48|272:60,1,240,12|0,0:0|0:0,0:0:0
160,72,116387,6,0,B|204:168|300:172|300:172|400:208|416:324,2,360,12|12|12,0:0|0:0|0:0,0:0:0
76,156,119694,1,0,0:0:0
16,260,120166,1,0,0:0:0
136,260,120638,2,0,B|192:220|192:132,1,120,12|0,0:0|0:0,0:0:0
296,216,121583,1,0,0:0:0
256,192,122056,12,2,129142,0:0:0
