osu file format v12

[General]
AudioFilename: 01 - Roze.mp3
AudioLeadIn: 1000
PreviewTime: 137549
Countdown: 0
SampleSet: Soft
StackLeniency: 0.7
Mode: 0
LetterboxInBreaks: 0

[Editor]
DistanceSpacing: 1
BeatDivisor: 2
GridSize: 4

[Metadata]
Title:Roze
TitleUnicode:ロゼ
Artist:MiddleIsland
ArtistUnicode:MiddleIsland
Creator:Lan wings
Version:cmn
Source:Gensou Sokkyo Kyoku
Tags:Rose Nakajima Misaki Piano Violin Impromptu cmn_891127
BeatmapID:200312
BeatmapSetID:65994

[Difficulty]
HPDrainRate:3
CircleSize:3
OverallDifficulty:2
ApproachRate:5
SliderMultiplier:0.9
SliderTickRate:1

[Events]
//Background and Video events
0,0,"bg.jpg",0,0
//Break Periods
//Storyboard Layer 0 (Background)
//Storyboard Layer 1 (Fail)
//Storyboard Layer 2 (Pass)
//Storyboard Layer 3 (Foreground)
//Storyboard Sound Samples
//Background Colour Transformations
3,100,163,162,255

[TimingPoints]
1190.15384615385,307.692307692308,4,2,3,10,1,0
1497,332.409972299169,4,2,3,10,1,0
2494,314.13612565445,4,2,3,10,1,0
3750,276.497695852535,4,2,3,10,1,0
4302,295.566502463054,4,2,3,10,1,0
4597,329.67032967033,4,2,3,10,1,0
5586,353.565114908662,4,2,3,10,1,0
6646,323.275862068966,4,2,3,10,1,0
7292,285.714285714286,4,2,3,10,1,0
7577,292.682926829268,4,2,3,10,1,0
8455,297.029702970297,4,2,3,10,1,0
8752,-101.925833333333,4,2,3,10,0,0
9643,320.855614973262,4,2,3,10,1,0
10284,342.857142857143,4,2,3,10,1,0
10626,387.096774193548,4,2,3,10,1,0
10626,-116.766666666667,4,2,3,10,0,0
11013,517.241379310345,4,2,3,10,1,0
11530,352.941176470588,4,2,3,15,1,0
11882,-95.908333333333,4,2,3,15,0,0
12235,324.324324324324,4,2,3,15,1,0
12559,314.13612565445,4,2,3,15,1,0
15386,341.880341880342,4,2,3,15,1,0
15727,346.820809248555,4,2,3,15,1,0
16420,361.44578313253,4,2,3,15,1,0
16781,324.324324324324,4,2,3,15,1,0
17105,333.324324324324,4,2,3,15,1,0
17438,319.148936170213,4,2,3,15,1,0
17438,-94.47,4,2,3,15,0,0
17757,284.36018957346,4,2,3,15,1,0
18041,317.460317460317,4,2,3,15,1,0
20263,326.975476839237,4,2,3,15,1,0
20589,-105.359583333333,4,2,3,15,0,0
20916,362.537764350453,4,2,3,15,1,0
21278,348.837209302326,4,2,3,15,1,0
21626,357.142857142857,4,2,3,15,1,0
21983,320.855614973262,4,2,3,15,1,0
22624,314.96062992126,4,2,3,15,1,0
22624,-99.06,4,2,3,15,0,0
22938,310.077519379845,4,2,3,15,1,0
23558,304.955527318933,4,2,3,15,1,0
25082,-109.032291666667,4,2,3,15,0,0
25387,341.880341880342,4,2,3,15,1,0
26412,344.827586206897,4,2,3,15,1,0
27101,340.909090909091,4,2,3,15,1,0
27101,-98.56,4,2,3,15,0,0
27441,332.409972299169,4,2,3,15,1,0
27773,319.148936170213,4,2,3,15,1,0
28411,324.324324324324,4,2,3,15,1,0
29383,322.58064516129,4,2,3,15,1,0
29705,325.20325203252,4,2,3,15,1,0
29705,-101.859375,4,2,3,15,0,0
30030,315.789473684211,4,2,3,15,1,0
30345,333.333333333333,4,2,3,15,1,0
30678,352.941176470588,4,2,3,15,1,0
32442,327.868852459016,4,2,3,15,1,0
32442,-98.82,4,2,3,17,0,0
32769,321.71581769437,4,2,3,17,1,0
33412,317.460317460317,4,2,3,17,1,0
34999,-100.3275,4,2,3,17,0,0
35316,320.855614973262,4,2,3,17,1,0
36278,334.261838440111,4,2,3,17,1,0
36278,-102.315,4,2,3,17,0,0
36612,344.827586206897,4,2,3,17,1,0
38336,303.030303030303,4,2,3,17,1,0
38942,319.148936170213,4,2,3,17,1,0
41176,326.086956521739,4,2,3,17,1,0
41502,347.826086956522,4,2,3,17,1,0
42197,359.281437125748,4,2,3,17,1,0
42915,327.868852459016,4,2,3,17,1,0
43570,319.148936170213,4,2,3,17,1,0
44208,310.880829015544,4,2,3,17,1,0
45451,332.871012482663,4,2,3,17,1,0
46782,357.142857142857,4,2,3,17,1,0
48210,330.578512396694,4,2,3,17,1,0
50524,332.409972299169,4,2,3,17,1,0
51853,352.941176470588,4,2,3,17,1,0
52205,355.029585798817,4,2,3,17,1,0
52915,433.212996389892,4,2,3,17,1,0
53348,677.966101694915,4,2,3,17,1,0
54025,410.25641025641,4,2,3,17,1,0
54025,-88.359375,4,2,3,17,0,0
54435,315.789473684211,4,2,3,17,1,0
55382,310.880829015544,4,2,3,17,1,0
56314,315.789473684211,4,2,3,17,1,0
56629,311.688311688312,4,2,3,17,1,0
58187,313.31592689295,4,2,3,17,1,0
58187,-102.292916666667,4,2,3,17,0,0
58500,328.767123287671,4,2,3,17,1,0
58828,366.412213740458,4,2,3,17,1,0
59194,340.909090909091,4,2,3,17,1,0
59534,300.751879699248,4,2,3,17,1,0
59834,315.789473684211,4,2,3,17,1,0
60781,309.278350515464,4,2,3,17,1,0
62327,-102.658333333333,4,2,3,17,0,0
62636,326.086956521739,4,2,3,17,1,0
63288,348.837209302326,4,2,3,17,1,0
63636,356.083086053412,4,2,3,17,1,0
63992,369.230769230769,4,2,3,17,1,0
64361,320.427236315087,4,2,3,17,1,0
65001,-98.30625,4,2,3,17,0,0
65322,309.278350515464,4,2,3,17,1,0
65631,313.31592689295,4,2,3,17,1,0
66570,331.491712707182,4,2,3,17,1,0
66901,305.343511450382,4,2,3,17,1,0
67511,317.460317460317,4,2,3,17,1,0
67511,-104.58,4,2,3,17,0,0
67828,347.826086956522,4,2,3,17,1,0
68175,304.182509505703,4,2,3,17,1,0
68479,326.086956521739,4,2,3,17,1,0
68805,360.902255639098,4,2,3,17,1,0
69526,345.821325648415,4,2,3,17,1,0
69871,291.26213592233,4,2,3,17,1,0
69871,-101.455,4,2,3,17,0,0
70162,300,4,2,3,17,1,0
70462,319.573901464714,4,2,3,17,1,0
70781,314.547837483617,4,2,3,17,1,0
73297,326.975476839237,4,2,3,17,1,0
73950,361.01083032491,4,2,3,17,1,0
74672,322.58064516129,4,2,3,17,1,0
75964,312.174817898023,4,2,3,17,1,0
76900,320,4,2,3,17,1,0
77220,-101.171875,4,2,3,17,0,0
78180,335.195530726257,4,2,3,17,1,0
79185,356.083086053412,4,2,3,17,1,0
79897,336.605890603086,4,2,3,17,1,0
79897,-95.660833333333,4,2,3,17,0,0
80233,309.677419354839,4,2,3,17,1,0
80542,324.324324324324,4,2,3,17,1,0
80866,319.148936170213,4,2,3,17,1,0
81185,315.789473684211,4,2,3,17,1,0
82448,320,4,2,3,17,1,0
82448,-100.375,4,2,3,17,0,0
83088,326.086956521739,4,2,3,17,1,0
83414,-103.96,4,2,3,17,0,0
83740,352.941176470588,4,2,3,17,1,0
84445,356.612184249629,4,2,3,17,1,0
85158,322.58064516129,4,2,3,17,1,0
85480,319.148936170213,4,2,3,17,1,0
85799,322.147651006711,4,2,3,17,1,0
86443,312.5,4,2,3,17,1,0
87380,317.040951122853,4,2,3,17,1,0
87697,327.868852459016,4,2,3,17,1,0
89008,356.612184249628,4,2,3,17,1,0
90434,336.605890603086,4,2,3,17,1,0
91443,322.578512396694,4,2,3,17,1,0
91765,-102.507344401175,4,2,3,17,0,0
92088,334.261838440111,4,2,3,17,1,0
92422,335.195530726257,4,2,3,17,1,0
93092,300,4,2,3,17,1,0
93092,-98.904761904762,4,2,3,17,0,0
93392,341.394025604552,4,2,3,17,1,0
93733,340.425531914894,4,2,3,17,1,0
94073,367.534456355283,4,2,3,17,1,0
94440,364.741641337386,4,2,3,17,1,0
95169,393.44262295082,4,2,3,17,1,0
95562,284.697508896797,4,2,3,17,1,0
95846,310.880829015544,4,2,3,17,1,0
96156,336.605890603086,4,2,3,17,1,0
96156,-95.660833333333,4,2,3,17,0,0
96492,308.08729139923,4,2,3,17,1,0
96800,307.692307692308,4,2,3,17,1,0
97107,-94.611111111111,4,2,3,17,0,0
97415,273.348519362187,4,2,3,17,1,0
97688,288.461538461538,4,2,3,17,1,0
97976,297.766749379653,4,2,3,17,1,0
98273,289.855072463768,4,2,3,17,1,0
98562,281.359906213365,4,2,3,17,1,0
98562,-102.156904761905,4,2,3,17,0,0
98843,289.855072463768,4,2,3,17,1,0
99132,288.461538461538,4,2,3,17,1,0
104324,293.398533007335,4,2,3,17,1,0
105497,286.73835125448,4,2,3,17,1,0
107790,-100.963125,4,2,3,17,0,0
108077,292.682926829268,4,2,3,17,1,0
108369,291.26213592233,4,2,3,17,1,0
108951,-99.566666666667,4,2,3,17,0,0
109825,286.396181384248,4,2,3,17,1,0
110397,-101.08375,4,2,3,17,0,0
110684,292.682926829268,4,2,3,17,1,0
110976,287.769784172662,4,2,3,17,1,0
111263,291.970802919708,4,2,3,17,1,0
111263,-106.289166666667,4,2,3,17,0,0
111554,290.556900726392,4,2,3,17,1,0
111844,307.692307692308,4,2,3,17,1,0
111997,344.827586206897,4,2,3,17,1,0
112169,320,4,2,3,17,1,0
112489,297.397769516729,4,2,3,17,1,0
112489,-104.349583333333,4,2,3,17,0,0
113381,321.71581769437,4,2,3,17,1,0
114024,327.421555252387,4,2,3,17,1,0
114678,320,4,2,3,17,1,0
114998,287.081339712919,4,2,3,17,1,0
114998,-99.158888888889,4,2,3,17,0,0
115285,284.36018957346,4,2,3,17,1,0
120403,297.397769516729,4,2,3,17,1,0
120700,-101.88375,4,2,3,17,0,0
121295,314.13612565445,4,2,3,17,1,0
121609,324.324324324324,4,2,3,17,1,0
121933,299.625468164794,4,2,3,17,1,0
121933,-104.68625,4,2,3,17,0,0
122232,324.763193504736,4,2,3,17,1,0
122556,318.725099601594,4,2,3,17,1,0
122874,299.625468164794,4,2,3,17,1,0
123173,297.029702970297,4,2,3,17,1,0
123173,-98.418888888889,4,2,3,17,0,0
123767,283.687943262411,4,2,3,17,1,0
124334,277.777777777778,4,2,3,17,1,0
124334,-101.16,4,2,3,17,0,0
125167,291.26213592233,4,2,3,17,1,0
125458,280.373831775701,4,2,3,17,1,0
126579,277.777777777778,4,2,3,17,1,0
127134,288.808664259928,4,2,3,17,1,0
127422,290.908664259928,4,2,3,17,1,0
127712,302.267002518892,4,2,3,17,1,0
127712,-102.72375,4,2,3,17,0,0
128014,319.573901464714,4,2,3,17,1,0
128333,317.880794701987,4,2,3,17,1,0
128650,326.086956521739,4,2,3,17,1,0
128976,302.267002518892,4,2,3,17,1,0
128976,-98.367777777778,4,2,3,17,0,0
129278,288.461538461538,4,2,3,17,1,0
129566,271.186440677966,4,2,3,17,1,0
129566,-104.8171875,4,2,3,17,0,0
129837,287.425149700599,4,2,3,17,1,0
130411,292.682926829268,4,2,3,17,1,0
130703,307.692307692308,4,2,3,17,1,0
131010,333.333333333333,4,2,3,17,1,0
131343,327.421555252387,4,2,3,17,1,0
131343,-98.344166666667,4,2,3,17,0,0
131670,313.31592689295,4,2,3,17,1,0
131983,289.855072463768,4,2,3,17,1,0
131983,-99.084,4,2,3,17,0,0
132562,285.714285714286,4,2,3,17,1,0
133419,309.278350515464,4,2,3,17,1,0
133573,338.028169014084,4,2,3,17,1,0
133742,307.692307692308,4,2,3,17,1,0
134972,303.030303030303,4,2,3,17,1,0
136184,370.027752081406,4,2,3,17,1,0
137664,307.692307692308,4,2,3,17,1,0
137971,298.879202988792,4,2,3,17,1,0
137971,-101.490277777778,4,2,3,17,0,0
138269,315.789473684211,4,2,3,17,1,0
138584,327.421555252387,4,2,3,20,1,1
139566,316.622691292876,4,2,3,20,1,1
139882,313.31592689295,4,2,3,20,1,1
139882,-98.409722222222,4,2,3,20,0,1
140195,306.122448979592,4,2,3,20,1,1
140807,298.507462686567,4,2,3,20,1,1
140956,360.36036036036,4,2,3,20,1,1
141136,277.777777777778,4,2,3,20,1,1
141136,-101.16,4,2,3,20,0,1
141413,285.714285714286,4,2,3,20,1,1
142270,-110.5125,4,2,3,20,0,1
142555,315.789473684211,4,2,3,20,1,1
142712,307.692307692308,4,2,3,20,1,1
143019,342.857142857143,4,2,3,20,1,1
143533,333.333333333333,4,2,3,20,1,1
144199,329.67032967033,4,2,3,20,1,1
144199,-94.791666666667,4,2,3,20,0,1
144528,296.73590504451,4,2,3,20,1,1
146308,279.06976744186,4,2,3,20,1,1
146587,301.507537688442,4,2,3,20,1,1
147494,282.352941176471,4,2,3,20,1,1
147776,260.869565217391,4,2,3,20,1,1
147906,331.491712707182,4,2,3,20,1,1
148237,355.555555555556,4,2,3,20,1,1
148414,300,4,2,3,20,1,1
149914,285.035629453682,4,2,3,20,1,1
149914,-103.320416666667,4,2,3,20,0,1
150199,304.955527318933,4,2,3,20,1,1
150503,302.648171500631,4,2,3,20,1,1
150805,267.558528428094,4,2,3,20,1,1
150805,-102.158333333333,4,2,3,20,0,1
151072,287.081339712919,4,2,3,20,1,1
151359,294.840294840295,4,2,3,20,1,1
151359,-99.715,4,2,3,20,0,1
151653,320,4,2,3,20,1,1
151973,267.857142857143,4,2,3,20,1,1
152240,295.566502463054,4,2,3,20,1,1
152535,303.413400758534,4,2,3,20,1,1
153141,301.88679245283,4,2,3,20,1,1
153141,-102.35625,4,2,3,20,0,1
153442,317.880794701987,4,2,3,20,1,1
153759,305.343511450382,4,2,3,20,1,1
154369,317.460317460317,4,2,3,20,1,1
155321,333.333333333333,4,2,3,20,1,1
155654,318.725099601594,4,2,3,20,1,1
157247,336.605890603086,4,2,3,20,1,1
158593,304.800609601219,4,2,3,20,1,1
160726,334.261838440111,4,2,3,20,1,1
160726,-96.331666666667,4,2,3,20,0,1
161060,310.480829015544,4,2,3,20,1,1
161991,-99.2009719172,4,2,3,20,0,1
162301,306.513409961686,4,2,3,20,1,1
162914,303.79746835443,4,2,3,20,1,1
164736,-105.991666666667,4,2,3,20,0,1
165040,340.425531914894,4,2,3,20,1,1
165720,327.868852459016,4,2,3,20,1,1
165720,-96.786666666667,4,2,3,20,0,1
166047,298.879202988792,4,2,3,20,1,1
166345,327.868852459016,4,2,3,20,1,1
166345,-101.94625,4,2,3,20,0,1
166672,340.909090909091,4,2,3,20,1,1
167012,332.409972299169,4,2,3,20,1,1
167344,338.028169014084,4,2,3,20,1,1
167682,352.941176470588,4,2,3,20,1,1
168034,365.853658536585,4,2,3,20,1,1
168399,333.333333333333,4,2,3,20,1,1
168399,-97.4,4,2,3,20,0,1
168732,309.278350515464,4,2,3,20,1,1
169041,324.324324324324,4,2,3,20,1,1
169365,315.789473684211,4,2,3,20,1,1
169680,312.093628088427,4,2,3,20,1,1
169992,313.31592689295,4,2,3,20,1,1
170618,322.147651006711,4,2,3,20,1,1
170940,-101.7390625,4,2,3,20,0,1
171262,346.820809248555,4,2,3,20,1,1
171608,-100.98875,4,2,3,20,0,1
171955,361.44578313253,4,2,3,20,1,1
172316,386.473429951691,4,2,3,20,1,1
172316,-94.554642857143,4,2,3,20,0,1
172702,406.779661016949,4,2,3,20,1,1
173108,441.663599558336,4,2,3,20,1,1
174874,468.75,4,2,3,10,1,0
175811,461.538461538462,4,2,3,10,1,0
176272,434.782608695652,4,2,3,10,1,0
176706,477.516912057302,4,2,3,10,1,0
178138,471.698113207547,4,2,3,10,1,0
178609,307.692307692308,4,2,3,15,1,0
178916,347.826086956522,4,2,3,15,1,0
179263,335.195530726257,4,2,3,15,1,0
179598,311.688311688312,4,2,3,15,1,0
180533,301.507537688442,4,2,3,15,1,0
180834,334.728033472803,4,2,3,15,1,0
181168,265.486725663717,4,2,3,15,1,0
181168,-105.655,4,2,3,15,0,0
181433,296.296296296296,4,2,3,15,1,0
182025,323.450134770889,4,2,3,15,1,0
182995,360.36036036036,4,2,3,15,1,0
183355,389.61038961039,4,2,3,15,1,0
183744,318.894499069891,4,2,3,15,1,0
184700,293.757649938801,4,2,3,15,1,0
185875,311.688311688312,4,2,3,15,1,0
186186,266.963292547275,4,2,3,15,1,0
186186,-104.50875,4,2,3,15,0,0
186452,292.682926829268,4,2,3,15,1,0
186744,321.71581769437,4,2,3,15,1,0
187065,316.622691292876,4,2,3,15,1,0
187381,-103.593333333333,4,2,3,10,0,0
187698,339.943342776204,4,2,3,10,1,0
188037,400,4,2,3,10,1,0
188437,505.263157894737,4,2,3,5,1,0

[Colours]
Combo1 : 0,255,255
Combo2 : 255,85,85
SliderBorder : 255,255,255

[HitObjects]
132,168,1190,2,0,P|98:166|43:201,1,90,2|0,0:0|0:0,0:0:0:0:
114,256,1829,2,0,P|96:283|99:349,1,90,0|0,0:0|0:0,0:0:0:0:
184,319,2494,2,0,P|276:281|283:206,1,180,2|0,0:0|0:0,0:0:0:0:
200,232,3436,1,0,0:0:0:0:
116,252,3750,6,0,P|125:182|219:147,1,180,2|0,0:0|0:0,0:0:0:0:
286,208,4597,1,0,0:0:0:0:
343,275,4926,2,0,P|274:297|200:232,1,180,2|0,0:0|0:0,0:0:0:0:
218,146,5939,1,0,0:0:0:0:
308,124,6293,5,2,0:0:0:0:
372,188,6646,2,0,P|465:156|480:85,1,180,0|0,0:0|0:0,0:0:0:0:
416,21,7577,2,0,P|323:53|308:124,1,180,2|0,0:0|0:0,0:0:0:0:
394,105,8455,1,0,0:0:0:0:
372,188,8752,6,0,P|305:217|225:160,2,180,2|0|2,0:0|0:0|0:0,0:0:0:0:
244,72,10626,6,0,P|311:43|391:100,1,180,0|6,0:0|0:0,0:0:0:0:
372,188,11882,6,0,P|332:169|304:121,2,90,0|0|0,0:0|0:0|0:0,0:0:0:0:
456,212,12873,2,0,P|427:257|336:269,2,135,2|0|0,0:0|0:0|0:0,0:0:0:0:
372,188,14129,6,0,B|324:160|244:216|196:188,1,180,6|0,0:0|0:0,0:0:0:0:
112,156,15072,2,0,P|73:131|24:136,1,90,0|2,0:0|0:0,0:0:0:0:
48,220,15727,2,0,P|136:244|196:188,1,180,0|0,0:0|0:0,0:0:0:0:
184,100,16781,5,6,0:0:0:0:
268,136,17105,1,0,0:0:0:0:
280,224,17438,2,0,P|347:179|344:88,1,180,0|2,0:0|0:0,0:0:0:0:
260,48,18358,1,0,0:0:0:0:
268,136,18675,6,0,P|340:180|420:140,2,180,0|6|0,0:0|0:0|0:0,0:0:0:0:
344,88,20263,1,0,0:0:0:0:
419,141,20589,2,0,P|452:180|416:292,1,180,2|0,0:0|0:0,0:0:0:0:
368,216,21626,1,0,0:0:0:0:
320,140,21983,6,0,P|288:176|296:268,1,135,6|0,0:0|0:0,0:0:0:0:
316,296,22624,2,0,P|288:340|164:336,1,180,0|2,0:0|0:0,0:0:0:0:
144,260,23558,2,0,P|196:256|228:272,2,90,0|0|0,0:0|0:0|0:0,0:0:0:0:
60,292,24472,6,0,P|55:234|104:176,1,135,6|0,0:0|0:0,0:0:0:0:
144,168,25082,2,0,P|220:205|230:292,2,180,0|2|0,0:0|0:0|0:0,0:0:0:0:
144,260,26756,6,0,L|144:312,1,45,0|0,0:0|0:0,0:0:0:0:
188,288,27101,2,0,P|224:312|336:260,1,180,6|0,0:0|0:0,0:0:0:0:
252,225,28092,1,0,0:0:0:0:
209,144,28411,2,0,P|292:142|328:174,2,135,2|0|0,0:0|0:0|0:0,0:0:0:0:
146,208,29705,6,0,P|91:263|-7:236,2,180,6|0|2,0:0|0:0|0:0,0:0:0:0:
36,53,31736,2,0,P|72:109|60:174,1,135,0|0,0:0|0:0,0:0:0:0:
98,203,32442,6,0,P|174:173|245:228,1,180,6|0,0:0|0:0,0:0:0:0:
163,263,33412,2,0,L|157:308,1,45,0|0,0:0|0:0,0:0:0:0:
199,293,33729,2,0,P|259:251|316:259,2,135,2|0|0,0:0|0:0|0:0,0:0:0:0:
276,339,34999,6,0,P|329:350|404:256,1,180,6|0,0:0|0:0,0:0:0:0:
360,184,35957,2,0,L|408:164,1,45,0|0,0:0|0:0,0:0:0:0:
448,184,36278,2,0,P|408:132|448:36,2,180,2|0|6,0:0|0:0|0:0,0:0:0:0:
496,112,37991,5,0,0:0:0:0:
404,112,38336,2,0,P|368:188|280:200,1,180,0|2,0:0|0:0,0:0:0:0:
191,234,39261,2,0,P|216:132|308:112,1,210,0|0,0:0|0:0,0:0:0:0:
343,132,40218,6,0,P|372:180|324:284,1,180,6|0,0:0|0:0,0:0:0:0:
280,201,41176,1,0,0:0:0:0:
216,132,41502,2,0,P|188:176|236:284,1,180,2|0,0:0|0:0,0:0:0:0:
280,200,42556,1,0,0:0:0:0:
280,104,42915,5,14,0:0:0:0:
184,104,43242,2,0,L|128:120,2,45,2|0|2,0:0|0:0|0:0,0:0:0:0:
184,200,43889,2,0,L|132:276,1,90,0|2,0:0|0:0,0:0:0:0:
232,284,44518,2,0,L|256:376,2,90,0|2|0,0:0|0:0|0:0,0:0:0:0:
328,308,45451,6,0,P|388:316|440:292,1,120,2|0,0:0|0:0,0:0:0:0:
468,240,46116,2,0,P|444:184|396:148,1,120,2|0,0:0|0:0,0:0:0:0:
368,184,46782,6,6,P|197:122|271:52,1,360,6|6,0:0|0:0,0:0:0:0:
288,144,48540,6,0,P|320:108|364:96,2,90,0|0|0,0:0|0:0|0:0,0:0:0:0:
368,184,49532,2,0,P|404:220|406:300,2,135,2|0|0,0:0|0:0|0:0,0:0:0:0:
324,264,50856,2,0,P|312:280|249:308,1,90,2|0,0:0|0:0,0:0:0:0:
244,220,51521,2,0,P|224:212|156:220,1,90,0|0,0:0|0:0,0:0:0:0:
71,252,52205,2,0,P|96:148|156:128,1,180,2|2,0:0|0:0,0:0:0:0:
420,188,54025,6,0,P|321:197|288:276,1,180,6|0,0:0|0:0,0:0:0:0:
380,272,55066,1,0,0:0:0:0:
468,288,55382,2,0,P|436:344|372:364,2,135,2|0|0,0:0|0:0|0:0,0:0:0:0:
380,272,56629,6,0,B|332:244|252:300|204:272,1,180,6|0,0:0|0:0,0:0:0:0:
132,220,57564,2,0,P|100:200|80:148,1,90,0|2,0:0|0:0,0:0:0:0:
168,140,58187,2,0,P|169:102|204:58,2,90,0|0|0,0:0|0:0|0:0,0:0:0:0:
260,128,59194,6,0,P|296:112|348:118,1,90,6|0,0:0|0:0,0:0:0:0:
312,200,59834,2,0,P|408:184|432:104,1,180,2|0,0:0|0:0,0:0:0:0:
425,24,60781,1,0,0:0:0:0:
358,81,61090,2,0,B|350:105|350:121|350:121|306:101|260:128,1,135
232,164,61708,6,0,P|200:196|108:192,1,135,6|0,0:0|0:0,0:0:0:0:
80,164,62327,2,0,P|72:84|148:28,1,180,2|2,0:0|0:0,0:0:0:0:
156,116,63288,1,0,0:0:0:0:
232,164,63636,2,0,P|264:180|316:176,1,90,2|0,0:0|0:0,0:0:0:0:
387,116,64361,6,0,P|408:155|383:237,1,135,6|0,0:0|0:0,0:0:0:0:
344,264,65001,2,0,P|265:248|233:162,1,180,0|2,0:0|0:0,0:0:0:0:
236,72,65944,2,0,P|216:44|152:24,2,90,0|0|0,0:0|0:0|0:0,0:0:0:0:
156,112,66901,6,0,P|140:176|156:244,1,135,6|0,0:0|0:0,0:0:0:0:
176,280,67511,2,0,P|268:272|340:324,1,180,0|2,0:0|0:0,0:0:0:0:
428,340,68479,2,0,P|468:344|512:320,1,90,0|0,0:0|0:0,0:0:0:0:
452,252,69165,6,0,L|464:204,2,45,0|0|6,0:0|0:0|0:0,0:0:0:0:
364,276,69871,2,0,P|324:280|280:256,2,90,0|0|0,0:0|0:0|0:0,0:0:0:0:
340,188,70781,2,0,P|368:132|344:64,2,135,2|0|0,0:0|0:0|0:0,0:0:0:0:
280,124,72039,6,0,P|204:108|140:188,1,180,6|0,0:0|0:0,0:0:0:0:
228,192,72982,2,0,L|242:234,2,45,0|0|2,0:0|0:0|0:0,0:0:0:0:
196,112,73623,1,0,0:0:0:0:
164,32,73950,2,0,L|112:32,1,45,2|0,0:0|0:0,0:0:0:0:
68,96,74311,2,0,L|113:96,1,45,0|2,0:0|0:0,0:0:0:0:
196,112,74672,6,0,P|240:180|199:261,1,180,6|0,0:0|0:0,0:0:0:0:
152,188,75639,2,0,L|116:216,1,45,0|0,0:0|0:0,0:0:0:0:
112,262,75964,2,0,P|136:324|200:348,2,135,2|0|0,0:0|0:0|0:0,0:0:0:0:
200,264,77220,6,0,P|264:212|352:244,2,180,6|0|2,0:0|0:0|0:0,0:0:0:0:
164,296,78682,2,0,P|124:328|84:332,1,90,0|0,0:0|0:0,0:0:0:0:
50,305,79185,2,0,P|44:212|63:180,1,135,0|0,0:0|0:0,0:0:0:0:
104,156,79897,6,0,P|176:80|160:12,2,180,6|0|2,0:0|0:0|0:0,0:0:0:0:
88,68,81500,2,0,L|37:76,1,45,0|0,0:0|0:0,0:0:0:0:
61,121,81816,2,0,L|37:185,2,60,2|0|0,0:0|0:0|0:0,0:0:0:0:
126,117,82448,6,0,B|162:165|266:169|290:73|290:73|304:76,1,225,6|0,0:0|0:0,0:0:0:0:
344,96,83414,2,0,P|400:144|380:248,1,180,0|0,0:0|0:0,0:0:0:0:
316,184,84445,2,0,P|252:184|196:276,1,180,0|14,0:0|0:0,0:0:0:0:
244,348,85480,6,0,P|264:356|332:348,1,90,2|0,0:0|0:0,0:0:0:0:
288,268,86121,2,0,L|309:228,1,45,0|0,0:0|0:0,0:0:0:0:
264,232,86443,2,0,P|208:216|184:180,1,90,2|0,0:0|0:0,0:0:0:0:
188,94,87068,2,0,P|208:72|264:56,1,90,0|0,0:0|0:0,0:0:0:0:
264,144,87697,6,0,P|324:124|352:44,1,135,2|0,0:0|0:0,0:0:0:0:
398,54,88352,2,0,P|460:84|480:144,1,135,2|0,0:0|0:0,0:0:0:0:
472,184,89008,2,6,B|406:171|350:224|360:288|360:288|324:232|244:232|208:288,1,360,6|6,0:0|0:0,0:0:0:0:
32,316,91107,6,0,P|108:320|120:316,1,90,0|0,0:0|0:0,0:0:0:0:
132,228,91765,2,0,P|228:184|252:192,2,135,2|0|0,0:0|0:0|0:0,0:0:0:0:
212,272,93092,2,0,P|296:320|216:104,1,630,2|0,0:0|0:0,0:0:0:0:
196,184,95562,2,0,P|156:156|108:156,1,90
124,241,96156,6,0,P|96:256|38:256,2,90,6|0|0,0:0|0:0|0:0,0:0:0:0:
68,172,97107,2,0,B|8:108|24:12|144:-28|216:32|212:124|212:124|244:72,1,405,2|0,0:0|0:0,0:0:0:0:
264,56,98562,2,0,P|468:188|230:210,1,630,2|0,0:0|0:0,0:0:0:0:
204,124,100862,6,0,P|144:180|240:300,1,270,6|0,0:0|0:0,0:0:0:0:
231,209,102016,2,0,P|291:225|333:291,2,135,2|0|0,0:0|0:0|0:0,0:0:0:0:
144,192,103170,2,0,P|84:176|42:110,2,135,2|0|0,0:0|0:0|0:0,0:0:0:0:
136,100,104324,2,0,P|284:44|316:200,1,360,2|6,0:0|0:0,0:0:0:0:
136,192,106070,6,0,P|92:236|224:336,1,270,0|0,0:0|0:0,0:0:0:0:
176,268,107217,2,0,P|244:268|272:288,1,90,2|0,0:0|0:0,0:0:0:0:
344,316,107790,2,0,P|420:308|464:220,1,180,2|0,0:0|0:0,0:0:0:0:
284,232,108951,2,0,P|328:146|404:138,2,180,2|0|6,0:0|0:0|0:0,0:0:0:0:
376,228,110397,6,0,P|331:313|255:321,1,180,0|0,0:0|0:0,0:0:0:0:
196,240,111263,2,0,P|240:154|316:146,1,180,2|0,0:0|0:0,0:0:0:0:
288,236,112169,1,0,0:0:0:0:
244,320,112489,2,0,P|172:328|156:160,2,270,6|2|0,0:0|0:0|0:0,0:0:0:0:
196,240,114678,1,0,0:0:0:0:
233,158,114998,6,0,P|280:213|168:328,2,270,6|0|0,0:0|0:0|0:0,0:0:0:0:
196,240,116991,1,2,0:0:0:0:
280,272,117275,2,0,P|368:256|424:96,2,270,2|0|0,0:0|0:0|0:0,0:0:0:0:
196,240,119266,1,2,0:0:0:0:
124,172,119550,6,0,P|92:116|144:160,1,180,2|0,0:0|0:0,0:0:0:0:
108,260,120403,1,0,0:0:0:0:
156,332,120700,2,0,P|120:348|36:312,2,135,2|2|0,0:0|0:0|0:0,0:0:0:0:
236,284,121933,2,0,P|292:200|452:208,1,270,6|0,0:0|0:0,0:0:0:0:
380,276,123173,2,0,P|282:300|168:187,1,270,2|0,0:0|0:0,0:0:0:0:
260,192,124334,6,0,P|300:112|260:36,2,180,0|2|0,0:0|0:0|0:0,0:0:0:0:
168,192,125738,2,0,P|128:120|168:36,1,180,0|0,0:0|0:0,0:0:0:0:
215,114,126579,2,0,P|271:90|372:140,1,180,2|0,0:0|0:0,0:0:0:0:
261,253,127712,2,0,P|273:193|372:140,1,180,2|0,0:0|0:0,0:0:0:0:
448,300,128976,6,0,P|400:331|324:328,1,135,2|0,0:0|0:0,0:0:0:0:
284,308,129566,2,0,P|192:280|132:332,2,180,2|0|0,0:0|0:0|0:0,0:0:0:0:
216,368,131010,1,2,0:0:0:0:
200,280,131343,6,0,L|176:140,1,135,6|0,0:0|0:0,0:0:0:0:
200,104,131983,2,0,P|361:177|200:280,1,450,2|0,0:0|0:0,0:0:0:0:
176,192,133742,5,6,0:0:0:0:
176,192,134665,6,0,L|228:192,1,45,2|0,0:0|0:0,0:0:0:0:
256,160,134972,2,4,P|384:192|256:224,1,360,2|6,0:0|0:0,0:0:0:0:
128,52,137664,6,0,L|83:52,1,45,2|0,0:0|0:0,0:0:0:0:
36,53,137971,2,0,P|72:109|60:174,1,135,0|0,0:0|0:0,0:0:0:0:
98,203,138584,6,0,P|174:173|245:228,1,180,6|0,0:0|0:0,0:0:0:0:
163,263,139566,2,0,L|157:308,1,45,0|0,0:0|0:0,0:0:0:0:
199,293,139882,2,0,P|259:251|316:259,2,135,2|0|0,0:0|0:0|0:0,0:0:0:0:
276,339,141136,6,0,P|329:350|404:256,1,180,6|0,0:0|0:0,0:0:0:0:
360,184,141984,2,0,L|408:164,1,45,0|0,0:0|0:0,0:0:0:0:
448,184,142270,2,0,P|408:132|448:36,2,180,2|0|6,0:0|0:0|0:0,0:0:0:0:
496,112,143866,5,0,0:0:0:0:
404,112,144199,2,0,P|368:188|280:200,1,180,2|0,0:0|0:0,0:0:0:0:
204,248,145121,2,0,P|211:144|318:121,1,225,2|0,0:0|0:0,0:0:0:0:
352,144,146011,6,0,P|364:244|300:296,1,174.5,6|0,0:0|0:0,0:0:0:0:
280,201,146888,1,0,0:0:0:0:
252,117,147190,2,0,P|193:180|216:264,1,174.8,2|0,0:0|0:0,0:0:0:0:
280,200,148071,1,0,0:0:0:0:
280,200,148414,6,0,P|316:168|408:176,1,135,6|0,0:0|0:0,0:0:0:0:
436,196,149014,2,0,P|480:168|476:44,1,180,0|2,0:0|0:0,0:0:0:0:
412,108,149914,2,0,P|380:92|328:96,2,90,0|0|0,0:0|0:0|0:0,0:0:0:0:
360,180,150805,6,0,P|365:238|316:296,1,135,6|0,0:0|0:0,0:0:0:0:
276,304,151359,2,0,P|200:267|190:180,2,180,0|2|0,0:0|0:0|0:0,0:0:0:0:
276,212,152838,6,0,L|276:160,1,45,2|0,0:0|0:0,0:0:0:0:
320,184,153141,2,0,P|356:160|468:212,1,180,6|0,0:0|0:0,0:0:0:0:
384,244,154064,1,0,0:0:0:0:
324,308,154369,2,0,P|400:332|448:308,2,135,2|0|0,0:0|0:0|0:0,0:0:0:0:
296,224,155654,2,0,B|240:84|128:84|100:176|128:268|240:268|296:124,1,450,6|0,0:0|0:0,0:0:0:0:
372,176,157583,6,0,P|472:168|504:100,1,180,0|6,0:0|0:0,0:0:0:0:
416,96,158593,2,0,P|396:88|328:96,1,90,0|0,0:0|0:0,0:0:0:0:
260,144,159202,2,0,L|220:172,1,45,0|0,0:0|0:0,0:0:0:0:
188,200,159507,2,0,P|160:248|176:324,2,135,2|0|0,0:0|0:0|0:0,0:0:0:0:
248,272,160726,6,0,P|308:308|400:256,1,180,6|0,0:0|0:0,0:0:0:0:
320,216,161680,2,0,L|360:172,1,45,0|0,0:0|0:0,0:0:0:0:
380,148,161991,2,0,P|296:136|264:48,1,180,2|0,0:0|0:0,0:0:0:0:
352,64,162914,1,0,0:0:0:0:
296,136,163217,6,0,L|204:248,1,135,6|0,0:0|0:0,0:0:0:0:
188,280,163825,2,0,P|255:240|352:264,1,180,0|2,0:0|0:0,0:0:0:0:
416,324,164736,2,0,P|376:348|328:348,2,90,0|0|0,0:0|0:0|0:0,0:0:0:0:
440,236,165720,6,0,P|404:192|408:112,1,135,6|0,0:0|0:0,0:0:0:0:
344,136,166345,2,0,P|280:152|200:72,2,180,0|2|0,0:0|0:0|0:0,0:0:0:0:
292,60,168034,1,0,0:0:0:0:
344,136,168399,6,0,P|380:208|360:272,1,135,14|0,0:0|0:0,0:0:0:0:
344,296,169041,1,0,0:0:0:0:
248,296,169365,2,0,L|272:256,1,45,2|0,0:0|0:0,0:0:0:0:
292,212,169680,2,0,P|260:168|256:132,1,90,2|0,0:0|0:0,0:0:0:0:
160,133,170305,2,0,P|156:168|124:212,1,90,2|0,0:0|0:0,0:0:0:0:
208,248,170940,6,0,P|252:292|320:296,1,120,2|0,0:0|0:0,0:0:0:0:
344,250,171608,2,0,P|388:212|448:208,1,120,2|0,0:0|0:0,0:0:0:0:
512,216,172316,2,6,P|484:60|435:266,1,630,6|6,0:0|0:0,0:0:0:0:
264,292,175811,6,0,P|224:316|168:312,1,90,0|0,0:0|0:0,0:0:0:0:
200,228,176706,2,0,P|224:168|200:104,2,135,2|0|0,0:0|0:0|0:0,0:0:0:0:
132,168,178609,6,0,P|98:166|43:201,1,90,6|0,0:0|0:0,0:0:0:0:
114,256,179263,2,0,P|96:283|99:349,1,90,0|0,0:0|0:0,0:0:0:0:
184,319,179909,2,0,P|276:281|283:206,1,180,2|0,0:0|0:0,0:0:0:0:
200,232,180834,1,0,0:0:0:0:
116,252,181169,6,0,P|125:182|219:147,1,180,2|0,0:0|0:0,0:0:0:0:
286,208,182025,1,0,0:0:0:0:
343,275,182348,2,0,P|274:297|200:232,1,180,2|0,0:0|0:0,0:0:0:0:
218,146,183355,1,0,0:0:0:0:
308,124,183744,5,2,0:0:0:0:
372,188,184062,2,0,P|465:156|480:85,1,180,0|0,0:0|0:0,0:0:0:0:
416,21,184993,2,0,P|323:53|308:124,1,180,2|0,0:0|0:0,0:0:0:0:
394,105,185875,1,0,0:0:0:0:
372,188,186186,6,0,P|305:217|225:160,1,180,2|0,0:0|0:0,0:0:0:0:
395,104,187381,2,0,P|315:47|248:76,1,180,2|0,0:0|0:0,0:0:0:0:
200,148,188437,1,0,0:0:0:0:
256,192,188942,12,4,190458,0:0:0:0:
