osu file format v12

[General]
AudioFilename: 01 - Roze.mp3
AudioLeadIn: 1000
PreviewTime: 137549
Countdown: 0
SampleSet: Soft
StackLeniency: 0.7
Mode: 0
LetterboxInBreaks: 0

[Editor]
DistanceSpacing: 0.1
BeatDivisor: 2
GridSize: 4

[Metadata]
Title:Roze
TitleUnicode:ロゼ
Artist:MiddleIsland
ArtistUnicode:MiddleIsland
Creator:Lan wings
Version:Hard
Source:Gensou Sokkyo Kyoku
Tags:Rose Nakajima Misaki Piano Violin Impromptu cmn_891127
BeatmapID:203905
BeatmapSetID:65994

[Difficulty]
HPDrainRate:5
CircleSize:4
OverallDifficulty:4
ApproachRate:7
SliderMultiplier:1
SliderTickRate:1

[Events]
//Background and Video events
0,0,"bg.jpg",0,0
//Break Periods
//Storyboard Layer 0 (Background)
//Storyboard Layer 1 (Fail)
//Storyboard Layer 2 (Pass)
//Storyboard Layer 3 (Foreground)
//Storyboard Sound Samples
//Background Colour Transformations
3,100,163,162,255

[TimingPoints]
1190.15384615385,307.692307692308,4,2,1,8,1,0
1497,332.409972299169,4,2,1,8,1,0
2494,314.13612565445,4,2,1,5,1,0
3750,276.497695852535,4,2,1,10,1,0
4302,295.566502463054,4,2,1,10,1,0
4597,329.67032967033,4,2,1,10,1,0
4761,-100,4,2,1,12,0,0
5586,353.565114908662,4,2,1,12,1,0
6204,-100,4,2,1,13,0,0
6646,323.275862068966,4,2,1,13,1,0
7292,285.714285714286,4,2,1,15,1,0
7577,292.682926829268,4,2,1,10,1,0
8455,297.029702970297,4,2,1,10,1,0
8603,-100,4,2,1,12,0,0
9643,320.855614973262,4,2,1,12,1,0
9803,-100,4,2,1,5,0,0
10284,342.857142857143,4,2,1,5,1,0
10626,387.096774193548,4,3,1,5,1,0
11013,517.241379310345,4,3,1,5,1,0
11530,352.941176470588,4,2,1,10,1,0
12235,324.324324324324,4,2,1,10,1,0
12559,314.13612565445,4,2,1,11,1,0
15386,341.880341880342,4,2,1,12,1,0
15727,346.820809248555,4,2,1,9,1,0
16420,361.44578313253,4,2,1,9,1,0
16781,324.324324324324,4,2,1,15,1,0
17105,333.324324324324,4,2,1,10,1,0
17438,319.148936170213,4,2,1,10,1,0
17757,284.36018957346,4,2,1,10,1,0
18041,317.460317460317,4,2,1,10,1,0
18596,-100,4,2,1,9,0,0
19231,-133.333333333333,4,2,1,14,0,0
19390,-133.333333333333,4,3,1,13,0,0
19469,-133.333333333333,4,2,1,12,0,0
20263,326.975476839237,4,2,1,15,1,0
20426,-100,4,2,1,13,0,0
20916,362.537764350453,4,2,1,13,1,0
21278,348.837209302326,4,2,1,15,1,0
21626,357.142857142857,4,2,1,15,1,0
21983,320.855614973262,4,2,1,15,1,0
22624,314.96062992126,4,2,1,13,1,0
22938,310.077519379845,4,2,1,13,1,0
23558,304.955527318933,4,2,1,15,1,0
24396,-133.333333333333,4,3,1,13,0,0
25006,-100,4,2,1,13,0,0
25387,341.880341880342,4,2,1,13,1,0
25557,-100,4,2,1,15,0,0
26412,344.827586206897,4,2,1,15,1,0
27101,340.909090909091,4,2,1,14,1,0
27441,332.409972299169,4,2,1,14,1,0
27773,319.148936170213,4,2,1,13,1,0
28411,324.324324324324,4,2,1,13,1,0
29383,322.58064516129,4,2,1,13,1,0
29705,325.20325203252,4,2,1,15,1,0
30030,315.789473684211,4,2,1,15,1,0
30345,333.333333333333,4,2,1,15,1,0
30678,352.941176470588,4,2,1,15,1,0
30854,-100,4,2,1,10,0,0
31560,-100,4,2,1,16,0,0
32442,327.868852459016,4,2,1,14,1,0
32769,321.71581769437,4,2,1,16,1,0
33412,317.460317460317,4,2,1,16,1,0
34205,-100,4,2,1,14,0,0
34840,-100,4,2,1,13,0,0
35316,320.855614973262,4,2,1,16,1,0
36278,334.261838440111,4,2,1,14,1,0
36612,344.827586206897,4,2,1,14,1,0
37129,-100,4,2,1,14,0,0
37474,-100,4,2,1,13,0,0
38336,303.030303030303,4,2,1,12,1,0
38942,319.148936170213,4,2,1,16,1,0
40138,-133.333333333333,4,2,1,18,0,0
41176,326.086956521739,4,3,1,16,1,0
41502,347.826086956522,4,2,1,16,1,0
42197,359.281437125748,4,2,1,16,1,0
42915,327.868852459016,4,2,1,18,1,0
42915,-133.333333333333,4,2,1,18,0,0
43570,319.148936170213,4,1,1,18,1,0
43889,-100,4,2,1,16,0,0
43968,-100,4,2,1,18,0,0
44208,310.880829015544,4,2,1,20,1,0
45451,332.871012482663,4,2,1,16,1,0
45561,-100,4,2,1,15,0,0
45783,-100,4,2,1,14,0,0
46033,-100,4,2,1,13,0,0
46199,-100,4,2,1,12,0,0
46449,-100,4,2,1,11,0,0
46782,357.142857142857,4,2,1,16,1,0
46782,-133.333333333333,4,2,1,16,0,0
48210,330.578512396694,4,2,1,14,1,0
48705,-100,4,2,1,12,0,0
49367,-100,4,2,1,15,0,0
50524,332.409972299169,4,2,1,15,1,0
50690,-133.333333333333,4,2,1,15,0,0
51853,352.941176470588,4,2,1,15,1,0
51853,-100,4,2,1,14,0,0
52205,355.029585798817,4,2,1,13,1,0
52382,-100,4,2,1,12,0,0
52915,433.212996389892,4,2,1,13,1,0
53348,677.966101694915,4,2,1,14,1,0
54025,410.25641025641,4,2,1,15,1,0
54435,315.789473684211,4,2,1,16,1,0
55382,310.880829015544,4,2,1,18,1,0
56314,315.789473684211,4,2,1,18,1,0
56629,311.688311688312,4,2,1,18,1,0
57875,-100,4,2,1,20,0,0
58187,313.31592689295,4,2,1,18,1,0
58500,328.767123287671,4,2,1,16,1,0
58828,366.412213740458,4,2,1,14,1,0
59194,340.909090909091,4,2,1,16,1,0
59534,300.751879699248,4,2,1,16,1,0
59834,315.789473684211,4,2,1,16,1,0
60307,-100,4,2,1,14,0,0
60623,-100,4,2,1,16,0,0
60781,309.278350515464,4,2,1,16,1,0
61012,-100,4,2,1,18,0,0
61399,-100,4,2,1,20,0,0
62250,-100,4,2,1,14,0,0
62636,326.086956521739,4,2,1,16,1,0
63288,348.837209302326,4,2,1,14,1,0
63636,356.083086053412,4,2,1,16,1,0
63992,369.230769230769,4,2,1,18,1,0
64361,320.427236315087,4,2,1,18,1,0
64361,-133.333333333333,4,2,1,18,0,0
64921,-133.333333333333,4,2,1,20,0,0
65322,309.278350515464,4,2,1,18,1,0
65631,313.31592689295,4,2,1,16,1,0
66570,331.491712707182,4,2,1,16,1,0
66901,305.343511450382,4,2,1,16,1,0
66901,-133.333333333333,4,2,1,18,0,0
67511,317.460317460317,4,2,1,20,1,0
67828,347.826086956522,4,2,1,18,1,0
68175,304.182509505703,4,2,1,18,1,0
68479,326.086956521739,4,2,1,18,1,0
68805,360.902255639098,4,2,1,18,1,0
69526,345.821325648415,4,2,1,20,1,0
69871,291.26213592233,4,2,1,14,1,0
70162,300,4,2,1,20,1,0
70462,319.573901464714,4,2,1,16,1,0
70781,314.547837483617,4,2,1,20,1,0
71514,-100,4,2,1,14,0,0
71881,-100,4,2,1,20,0,0
72196,-100,4,2,1,18,0,0
73297,326.975476839237,4,2,1,14,1,0
73950,361.01083032491,4,2,1,18,1,0
74220,-100,4,2,1,19,0,0
74672,322.58064516129,4,2,1,20,1,0
75964,312.174817898023,4,2,1,18,1,0
76900,320,4,2,1,18,1,0
77060,-100,4,2,1,20,0,0
78180,335.195530726257,4,2,1,18,1,0
79185,356.083086053412,4,2,1,18,1,0
79897,336.605890603086,4,2,1,18,1,0
80233,309.677419354839,4,2,1,18,1,0
80542,324.324324324324,4,2,1,20,1,0
80542,-133.333333333333,4,2,1,18,0,0
80866,319.148936170213,4,2,1,18,1,0
81185,315.789473684211,4,2,1,18,1,0
82448,320,4,2,1,18,1,0
83088,326.086956521739,4,2,1,19,1,0
83740,352.941176470588,4,2,1,20,1,0
84445,356.612184249629,4,2,1,17,1,0
84712,-100,4,2,1,22,0,0
85158,322.58064516129,4,3,1,25,1,0
85480,319.148936170213,4,3,1,18,1,0
85799,322.147651006711,4,2,1,18,1,0
86443,312.5,4,2,1,18,1,0
87380,317.040951122853,4,2,1,14,1,0
87697,327.868852459016,4,2,1,20,1,0
87806,-100,4,2,1,18,0,0
88024,-100,4,2,1,16,0,0
88270,-100,4,2,1,14,0,0
88434,-100,4,2,1,12,0,0
88680,-100,4,2,1,10,0,0
89008,356.612184249628,4,2,1,18,1,0
89008,-133.333333333333,4,2,1,18,0,0
90434,336.605890603086,4,2,1,18,1,0
90938,-133.333333333333,4,2,1,14,0,0
91443,322.578512396694,4,2,1,18,1,0
91604,-100,4,2,1,20,0,0
92088,334.261838440111,4,2,1,18,1,0
92422,335.195530726257,4,2,1,18,1,0
93092,300,4,2,1,18,1,0
93092,-133.333333333333,4,2,1,18,0,0
93392,341.394025604552,4,2,1,18,1,0
93733,340.425531914894,4,2,1,18,1,0
93903,-100,4,2,3,18,0,0
94073,367.534456355283,4,2,1,18,1,0
94440,364.741641337386,4,2,1,18,1,0
94440,-133.333333333333,4,2,1,18,0,0
95169,393.44262295082,4,2,1,18,1,0
95169,-133.333333333333,4,2,1,18,0,0
95562,284.697508896797,4,2,1,16,1,0
95846,310.880829015544,4,2,1,18,1,0
96156,336.605890603086,4,2,1,20,1,0
96492,308.08729139923,4,2,1,18,1,0
96800,307.692307692308,4,2,1,18,1,0
97030,-100,4,2,1,19,0,0
97415,273.348519362187,4,2,1,19,1,0
97688,288.461538461538,4,2,1,19,1,0
97976,297.766749379653,4,2,1,19,1,0
98273,289.855072463768,4,2,1,18,1,0
98562,281.359906213365,4,2,1,18,1,0
98843,289.855072463768,4,2,1,18,1,0
99132,288.461538461538,4,2,1,20,1,0
99636,-100,4,2,1,22,0,0
100357,-100,4,2,1,18,0,0
100502,-100,4,2,1,22,0,0
100790,-100,4,2,1,24,0,0
102232,-100,4,2,1,23,0,0
104324,293.398533007335,4,2,1,25,1,0
104470,-100,4,2,1,20,0,0
105497,286.73835125448,4,2,1,22,1,0
105998,-100,4,2,1,20,0,0
106428,-100,4,2,1,22,0,0
106715,-100,4,2,1,20,0,0
106859,-100,4,2,1,27,0,0
107289,-100,4,2,1,25,0,0
107719,-100,4,2,1,27,0,0
108077,292.682926829268,4,2,1,23,1,0
108369,291.26213592233,4,2,1,22,1,0
108878,-100,4,2,1,20,0,0
109461,-100,4,2,1,19,0,0
109825,286.396181384248,4,2,1,19,1,0
110039,-100,4,2,1,22,0,0
110684,292.682926829268,4,2,1,23,1,0
110976,287.769784172662,4,2,1,23,1,0
111263,291.970802919708,4,2,1,25,1,0
111554,290.556900726392,4,2,1,25,1,0
111844,307.692307692308,4,2,1,25,1,0
111997,344.827586206897,4,2,1,25,1,0
112169,320,4,2,1,25,1,0
112489,297.397769516729,4,2,1,25,1,0
113381,321.71581769437,4,2,1,30,1,0
114024,327.421555252387,4,2,1,33,1,0
114187,-100,4,2,1,25,0,0
114678,320,4,2,1,23,1,0
114998,287.081339712919,4,2,1,25,1,0
115069,-100,4,2,1,22,0,0
115285,284.36018957346,4,2,1,22,1,0
116920,-100,4,2,1,23,0,0
117204,-100,4,2,1,18,0,0
117346,-100,4,2,1,20,0,0
117488,-100,4,2,1,24,0,0
119194,-100,4,2,1,26,0,0
120403,297.397769516729,4,2,1,26,1,0
121295,314.13612565445,4,2,1,26,1,0
121609,324.324324324324,4,2,1,26,1,0
121933,299.625468164794,4,2,1,28,1,0
122232,324.763193504736,4,2,1,28,1,0
122556,318.725099601594,4,2,1,26,1,0
122874,299.625468164794,4,2,1,26,1,0
123173,297.029702970297,4,2,1,22,1,0
123767,283.687943262411,4,2,1,22,1,0
123979,-100,4,2,1,24,0,0
124334,277.777777777778,4,2,1,26,1,0
124820,-100,4,2,1,14,0,0
125167,291.26213592233,4,2,1,27,1,0
125458,280.373831775701,4,2,1,27,1,0
125668,-100,4,2,1,24,0,0
126369,-100,4,2,1,28,0,0
126579,277.777777777778,4,2,1,28,1,0
127134,288.808664259928,4,2,1,28,1,0
127422,290.908664259928,4,2,1,28,1,0
127712,302.267002518892,4,2,1,28,1,0
128014,319.573901464714,4,2,1,28,1,0
128333,317.880794701987,4,2,1,18,1,0
128650,326.086956521739,4,2,1,28,1,0
128976,302.267002518892,4,2,1,30,1,0
129278,288.461538461538,4,2,1,30,1,0
129566,271.186440677966,4,2,1,28,1,0
129837,287.425149700599,4,2,1,28,1,0
130052,-100,4,2,1,26,0,0
130196,-100,4,2,1,29,0,0
130411,292.682926829268,4,2,1,29,1,0
130703,307.692307692308,4,2,1,28,1,0
131010,333.333333333333,4,2,1,29,1,0
131343,327.421555252387,4,2,1,30,1,0
131670,313.31592689295,4,2,1,28,1,0
131983,289.855072463768,4,2,1,28,1,0
132562,285.714285714286,4,2,1,28,1,0
133419,309.278350515464,4,2,1,28,1,0
133573,338.028169014084,4,2,1,28,1,0
133742,307.692307692308,4,2,1,35,1,0
134972,303.030303030303,4,2,1,35,1,0
135123,-100,4,2,1,12,0,0
136184,370.027752081406,4,2,1,12,1,0
137664,307.692307692308,4,2,1,30,1,0
137971,298.879202988792,4,2,1,28,1,0
138269,315.789473684211,4,2,1,28,1,0
138584,327.421555252387,4,2,1,26,1,1
139566,316.622691292876,4,2,1,26,1,1
139882,313.31592689295,4,2,1,26,1,1
140195,306.122448979592,4,2,1,26,1,1
140807,298.507462686567,4,2,1,26,1,1
140956,360.36036036036,4,2,1,26,1,1
141136,277.777777777778,4,2,1,20,1,1
141136,-133.333333333333,4,2,1,20,0,1
141413,285.714285714286,4,2,1,20,1,1
141555,-100,4,2,1,26,0,1
142555,315.789473684211,4,2,1,28,1,1
142712,307.692307692308,4,2,1,26,1,1
143019,342.857142857143,4,2,1,26,1,1
143533,333.333333333333,4,2,1,20,1,1
144199,329.67032967033,4,2,1,26,1,1
144528,296.73590504451,4,2,1,26,1,1
144972,-100,4,2,1,28,0,1
145343,-100,4,2,1,26,0,1
145937,-100,4,2,1,26,0,1
146308,279.06976744186,4,2,1,26,1,1
146587,301.507537688442,4,2,1,26,1,1
147494,282.352941176471,4,2,1,26,1,1
147776,260.869565217391,4,2,1,26,1,1
147906,331.491712707182,4,2,1,26,1,1
148237,355.555555555556,4,2,1,26,1,1
148414,300,4,2,1,28,1,1
148789,-100,4,2,1,26,0,1
149914,285.035629453682,4,2,1,30,1,1
150199,304.955527318933,4,2,1,30,1,1
150503,302.648171500631,4,2,1,26,1,1
150805,267.558528428094,4,2,1,26,1,1
151072,287.081339712919,4,2,1,26,1,1
151359,294.840294840295,4,2,1,28,1,1
151653,320,4,2,1,26,1,1
151973,267.857142857143,4,2,1,26,1,1
152240,295.566502463054,4,2,1,26,1,1
152535,303.413400758534,4,2,1,28,1,1
153141,301.88679245283,4,2,1,26,1,1
153442,317.880794701987,4,2,1,26,1,1
153759,305.343511450382,4,2,1,26,1,1
154369,317.460317460317,4,2,1,26,1,1
155321,333.333333333333,4,2,1,26,1,1
155654,318.725099601594,4,2,1,26,1,1
157247,336.605890603086,4,2,1,26,1,1
158200,-100,4,2,1,35,0,1
158593,304.800609601219,4,2,1,26,1,1
159126,-100,4,2,1,35,0,1
159278,-100,4,2,1,30,0,1
160726,334.261838440111,4,2,1,32,1,1
161060,310.480829015544,4,2,1,28,1,1
162301,306.513409961686,4,2,1,28,1,1
162914,303.79746835443,4,2,1,28,1,1
163141,-100,4,2,1,30,0,1
165040,340.425531914894,4,2,1,30,1,1
165720,327.868852459016,4,2,1,35,1,1
166047,298.879202988792,4,2,1,32,1,1
166345,327.868852459016,4,2,1,28,1,1
166672,340.909090909091,4,2,1,28,1,1
167012,332.409972299169,4,2,1,32,1,1
167344,338.028169014084,4,2,1,32,1,1
167682,352.941176470588,4,2,1,32,1,1
168034,365.853658536585,4,2,1,32,1,1
168399,333.333333333333,4,2,1,28,1,1
168732,309.278350515464,4,2,1,28,1,1
168809,-100,4,2,1,32,0,1
169041,324.324324324324,4,2,1,28,1,1
169365,315.789473684211,4,2,1,28,1,1
169443,-100,4,2,1,32,0,1
169680,312.093628088427,4,2,1,28,1,1
169992,313.31592689295,4,2,1,28,1,1
170305,-100,4,2,1,18,0,1
170618,322.147651006711,4,2,1,20,1,1
170940,-100,4,2,1,28,0,1
171262,346.820809248555,4,2,1,28,1,1
171955,361.44578313253,4,2,1,28,1,1
172316,386.473429951691,4,2,1,26,1,1
172702,406.779661016949,4,2,1,24,1,1
173108,441.663599558336,4,2,1,22,1,1
174874,468.75,4,2,1,14,1,0
175811,461.538461538462,4,2,1,10,1,0
176272,434.782608695652,4,2,1,10,1,0
176706,477.516912057302,4,2,1,15,1,0
178138,471.698113207547,4,2,1,15,1,0
178609,307.692307692308,4,2,1,20,1,0
178609,-133.333333333333,4,2,1,20,0,0
178916,347.826086956522,4,2,1,20,1,0
179263,335.195530726257,4,2,1,20,1,0
179263,-133.333333333333,4,2,1,20,0,0
179598,311.688311688312,4,2,1,20,1,0
179753,-133.333333333333,4,2,1,22,0,0
180533,301.507537688442,4,2,1,22,1,0
180533,-133.333333333333,4,2,1,22,0,0
180834,334.728033472803,4,2,1,22,1,0
181168,265.486725663717,4,2,1,24,1,0
181168,-133.333333333333,4,2,1,24,0,0
181433,296.296296296296,4,2,1,22,1,0
182025,323.450134770889,4,2,1,22,1,0
182025,-133.333333333333,4,2,1,22,0,0
182995,360.36036036036,4,2,1,22,1,0
182995,-133.333333333333,4,2,1,22,0,0
183355,389.61038961039,4,2,1,22,1,0
183744,318.894499069891,4,2,1,24,1,0
183744,-133.333333333333,4,2,1,24,0,0
184222,-133.333333333333,4,2,1,22,0,0
184700,293.757649938801,4,2,1,22,1,0
184895,-100,4,2,1,21,0,0
185875,311.688311688312,4,2,1,20,1,0
186186,266.963292547275,4,2,1,24,1,0
186186,-133.333333333333,4,2,1,24,0,0
186452,292.682926829268,4,2,1,22,1,0
186744,321.71581769437,4,2,1,20,1,0
187065,316.622691292876,4,2,1,18,1,0
187065,-133.333333333333,4,2,1,18,0,0
187698,339.943342776204,4,2,1,16,1,0
188037,400,4,2,1,14,1,0
188037,-133.333333333333,4,2,1,14,0,0
188437,505.263157894737,4,2,1,12,1,0
188689,-100,4,2,1,5,0,0

[Colours]
Combo1 : 0,255,255
Combo2 : 255,85,85
SliderBorder : 255,255,255

[HitObjects]
76,248,1190,2,0,P|125:242|176:224,1,100,2|0,0:0|0:0,0:0:0:0:
272,140,1829,2,0,P|268:192|276:244,1,100
368,340,2494,2,0,B|424:344|460:312|460:312|432:260|376:244,1,200,2|0,0:0|0:0,0:0:0:0:
256,252,3436,1,0,0:0:0:0:
116,212,3750,6,0,P|80:176|60:128,1,100,2|0,0:0|0:0,0:0:0:0:
100,16,4302,2,0,P|136:52|156:100,1,100,0|0,0:0|0:0,0:0:0:0:
232,204,4926,2,0,B|276:180|284:124|284:124|380:200,1,200,2|0,0:0|0:0,0:0:0:0:
468,264,5939,1,0,0:0:0:0:
320,288,6293,6,0,P|271:306|220:332,1,100,6|0,0:0|0:0,0:0:0:0:
332,220,6969,2,0,P|380:201|432:176,1,100
300,160,7577,1,2,0:0:0:0:
183,216,7869,1,0,0:0:0:0:
244,101,8162,1,0,0:0:0:0:
262,230,8455,1,0,0:0:0:0:
172,136,8752,6,0,B|124:152|124:152|72:160,1,100,6|0,0:0|0:0,0:0:0:0:
84,312,9346,2,0,P|103:259|132:214,1,100
140,56,9963,2,0,P|188:60|236:77,1,100,2|0,0:0|0:0,0:0:0:0:
288,180,10626,6,0,P|384:160|432:76,1,200.4,0|0,2:0|0:0,0:0:0:0:
431,76,11530,6,0,B|432:132|488:152|488:152|488:216|452:248,1,200,6|0,0:2|0:0,0:0:0:0:
320,312,12559,1,0,0:0:0:0:
320,312,12716,1,0,0:0:0:0:
320,312,12873,2,0,P|274:306|224:284,1,100,2|0,0:0|0:0,0:0:0:0:
348,244,13501,2,0,P|384:280|388:332,1,100,0|0,0:0|0:0,0:0:0:0:
192,360,14129,6,2,P|144:280|204:204,1,200,6|0,0:0|0:0,0:0:0:0:
312,276,15072,5,0,0:0:0:0:
240,284,15229,1,0,0:0:0:0:
168,272,15386,2,0,P|136:244|136:172,1,100,2|0,0:0|0:0,0:0:0:0:
236,260,16073,2,0,P|228:312|184:340,1,100
201,204,16781,6,0,L|273:131,1,100,6|0,0:0|0:0,0:0:0:0:
392,28,17438,2,2,B|356:60|296:48|296:48|352:72|356:120,1,189.2,0|2,0:0|0:0,0:0:0:0:
480,216,18358,5,0,0:0:0:0:
424,268,18517,1,0,0:0:0:0:
356,296,18675,2,2,P|324:300|284:292,2,66.6666666666667,0|0|0,0:0|0:0|0:0,0:0:0:0:
324,228,19310,2,2,B|269:178|251:209|197:150,1,150.000005722046,6|0,0:0|0:0,0:0:0:0:
224,28,20263,1,0,0:0:0:0:
332,96,20589,5,2,0:0:0:0:
268,196,20916,1,0,0:0:0:0:
140,232,21278,2,2,P|100:196|80:136,1,100,0|0,0:0|0:0,0:0:0:0:
236,220,21983,6,2,P|208:312|112:328,1,200,6|0,0:0|0:0,0:0:0:0:
208,148,22938,2,0,P|260:148|304:184,1,100,0|2,0:0|0:0,0:0:0:0:
160,208,23558,2,2,P|112:208|68:176,2,100,0|0|0,0:0|0:0|0:0,0:0:0:0:
132,132,24472,6,2,P|72:100|0:144,1,150.000005722046,6|0,2:0|0:0,0:0:0:0:
40,248,25387,1,0,0:0:0:0:
168,272,25728,2,0,P|216:264|260:240,1,100,2|0,0:0|0:0,0:0:0:0:
376,184,26412,2,0,P|339:230|324:292,1,100
320,344,26929,1,0,0:0:0:0:
388,308,27101,6,0,P|432:296|488:296,1,100,6|0,0:0|0:0,0:0:0:0:
256,300,27773,2,2,P|212:312|156:312,1,100,0|0,0:0|0:0,0:0:0:0:
40,260,28411,2,2,B|56:208|108:188|108:188|156:192,2,150,2|0|0,0:0|0:0|0:0,0:0:0:0:
158,312,29705,6,2,P|256:300|328:232,1,197.2,6|0,0:0|0:0,0:0:0:0:
248,144,30678,1,0,0:0:0:0:
168,232,31030,2,0,P|240:300|338:312,1,200,10|0,0:0|0:0,0:0:0:0:
408,348,31913,5,0,0:0:0:0:
408,348,32089,2,2,L|436:292,1,50,0|0,0:0|0:0,0:0:0:0:
500,263,32442,2,2,P|432:187|412:96,1,197.8,6|0,0:0|0:0,0:0:0:0:
412,96,33412,5,0,0:0:0:0:
392,168,33570,1,0,0:0:0:0:
344,224,33729,2,0,P|301:247|248:252,1,100,2|0,0:0|0:0,0:0:0:0:
136,348,34364,2,0,P|178:324|232:320,1,100
380,300,34999,6,2,P|440:224|400:138,1,200.5,6|0,0:0|0:0,0:0:0:0:
264,156,35957,1,0,0:0:0:0:
264,156,36118,1,0,0:0:0:0:
264,156,36278,2,0,P|298:191|349:208,1,100,2|0,0:0|0:0,0:0:0:0:
316,80,36956,2,0,P|268:66|215:77,1,100
264,156,37646,6,0,P|364:152|404:68,1,200,6|2,0:0|0:0,0:0:0:0:
176,200,38942,1,2,0:0:0:0:
176,200,39261,6,0,L|164:264,1,50,0|0,0:0|0:0,0:0:0:0:
96,224,39580,2,2,L|24:248,2,66.6666666666667,0|0|0,0:0|0:0|0:0,0:0:0:0:
120,152,40218,6,2,P|188:128|244:176,1,150.000005722046,6|0,0:0|0:0,0:0:0:0:
168,48,41176,1,0,0:0:0:0:
300,100,41502,2,0,P|324:196|264:268,1,200,10|2,0:0|0:1,0:0:0:0:
116,280,42556,1,8,0:0:0:0:
116,280,42915,6,2,B|96:264|96:264|112:256|112:256|84:256|84:256|112:240|112:240|48:188|92:116,1,223,6|2,0:0|0:0,0:0:0:0:
112,100,43995,1,0,0:1:0:0:
156,92,44101,1,0,0:0:0:0:
200,112,44208,6,2,P|240:84|260:32,1,100,6|0,0:0|0:0,0:0:0:0:
152,168,44829,2,2,P|200:184|248:168,1,100,0|2,0:0|0:1,0:0:0:0:
336,88,45451,6,0,L|384:40,2,66.6666666666667,6|0|0,0:0|0:0|0:0,0:0:0:0:
368,168,46116,2,0,L|416:120,2,66.6666666666667,8|0|0,0:3|0:0|0:0,0:0:0:0:
400,248,46782,6,2,P|256:284|112:248,1,300.000011444092,6|2,0:0|0:0,0:0:0:0:
52,132,48540,1,0,0:0:0:0:
162,66,48871,6,2,P|214:66|256:88,1,100,0|2,0:0|0:1,0:0:0:0:
184,192,49532,2,2,P|256:212|328:192,2,150,6|0|0,0:0|0:0|0:0,0:0:0:0:
256,128,50856,6,2,B|316:136|348:80|348:80|412:108|424:176,1,225.000008583069,2|0,0:0|0:0,0:0:0:0:
364,288,52205,2,0,P|346:235|352:173,1,100,2|0,0:0|0:0,2:0:0:0:
272,44,52915,2,0,P|220:52|184:80,1,100,2|0,0:0|0:0,0:0:0:0:
108,268,54025,6,0,P|208:264|284:228,1,176.8,6|0,0:0|0:0,0:0:0:0:
376,252,55066,1,0,0:0:0:0:
376,252,55224,1,0,0:0:0:0:
376,252,55382,2,0,P|304:228|248:156,1,150,2|0,0:0|0:0,0:0:0:0:
228,104,56003,1,0,0:0:0:0:
340,168,56314,2,0,P|320:216|280:248,1,100,0|2,0:0|0:0,0:0:0:0:
332,48,57252,5,0,0:0:0:0:
452,96,57564,2,0,L|496:116,3,25
448,124,57875,2,0,L|432:224,1,100,2|0,0:0|0:0,0:0:0:0:
372,352,58500,2,0,L|368:252,1,100
324,120,59194,6,0,B|285:94|246:88|246:88|240:72|240:72|200:92|152:80,1,187.9,6|0,0:0|0:0,0:0:0:0:
24,292,60465,1,2,0:0:0:0:
152,324,60781,6,0,L|212:324,1,50
276,308,61090,2,0,P|295:282|308:241,1,66.6666666666667,2|0,0:0|0:0,0:0:0:0:
220,248,61502,2,0,P|207:218|185:191,1,66.6666666666667,0|2,0:0|0:0,0:0:0:0:
248,52,62172,1,0,0:0:0:0:
260,128,62327,2,2,P|320:204|412:180,1,205.6,0|0,0:0|0:0,0:0:0:0:
368,56,63288,5,2,0:0:0:0:
368,56,63636,1,0,3:0:0:0:
368,56,63992,1,0,3:0:0:0:
304,148,64361,2,0,P|249:149|193:127,1,112.500004291535,14|0,0:0|0:0,0:0:0:0:
192,176,65001,2,0,P|153:165|100:168,1,75.0000028610231
28,256,65631,5,2,0:0:0:0:
104,361,65944,1,0,0:0:0:0:
228,321,66257,1,0,3:0:0:0:
228,191,66570,1,0,0:0:0:0:
336,260,66901,6,0,P|372:276|468:288,1,112.500004291535,6|8,0:0|0:0,0:0:0:0:
452,352,67511,2,0,P|476:304|520:260,1,100
424,148,68175,1,2,0:0:0:0:
296,136,68479,2,0,P|248:120|212:88,1,100
292,56,69165,5,0,0:0:0:0:
296,136,69346,1,0,0:0:0:0:
244,196,69526,2,0,P|196:187|140:160,1,100,6|0,0:0|0:0,0:0:0:0:
252,268,70162,2,0,P|299:276|356:304,1,100
204,348,70781,2,0,B|152:336|128:288|128:288|78:291,2,150,2|0|0,0:0|0:0|0:0,0:0:0:0:
364,356,72039,6,0,B|412:324|384:268|384:268|444:284|464:228,1,200,6|0,0:0|0:0,0:0:0:0:
480,100,72982,1,0,0:0:0:0:
428,48,73140,1,0,0:0:0:0:
356,44,73297,2,2,P|311:65|236:72,1,100,2|0,0:0|0:0,0:0:0:0:
172,152,73950,6,0,L|144:104,1,50,2|2,0:0|0:0,0:0:0:0:
236,192,74311,2,0,L|244:140,1,50,2|0,0:0|0:0,0:0:0:0:
300,232,74672,2,2,B|352:148|352:148|352:204|396:236,1,200,6|0,0:0|0:0,0:0:0:0:
264,316,75639,5,2,0:0:0:0:
264,316,75801,1,0,0:0:0:0:
264,316,75964,2,0,P|224:292|212:228,1,100,2|0,0:0|0:0,0:0:0:0:
136,252,76432,2,0,P|148:204|200:172,1,100,0|0,0:0|0:0,0:0:0:0:
156,108,76900,2,0,P|204:104|248:136,1,100,0|6,0:0|0:0,0:0:0:0:
316,264,77540,5,0,0:0:0:0:
176,312,77860,1,0,0:0:0:0:
76,208,78180,2,0,L|56:144,1,50,0|0,0:0|0:0,0:0:0:0:
12,104,78515,2,2,P|96:140|172:120,1,150,2|0,0:0|0:0,0:0:0:0:
272,76,79185,6,0,L|240:132,1,50,2|2,0:0|0:0,0:0:0:0:
180,208,79541,2,0,L|228:196,1,50,0|2,0:0|0:0,0:0:0:0:
368,176,79897,6,0,P|324:192|284:240,1,100,2|0,0:0|0:0,0:0:0:0:
396,248,80542,2,2,P|444:192|424:120,1,148.9,0|2,0:0|0:0,0:0:0:0:
288,80,81500,1,0,0:0:0:0:
212,88,81658,1,0,0:0:0:0:
136,100,81816,2,2,L|64:112,2,66.6666666666667,2|0|0,0:0|0:0|0:0,0:0:0:0:
100,192,82448,6,0,P|192:184|224:272,1,200,6|0,0:0|0:0,0:0:0:0:
152,248,83251,2,2,P|128:264|96:272,1,50,2|2,0:0|0:1,0:0:0:0:
108,270,83740,2,0,P|156:364|252:380,1,200,10|2,0:0|0:1,0:0:0:0:
320,244,84801,1,8,0:0:0:0:
352,88,85158,6,2,B|388:80|388:80|400:100|400:100|418:88|418:88|480:112|500:188,1,199,6|0,2:0|2:0,0:0:0:0:
468,304,86121,6,2,L|484:344,2,33.3333333333333,0|0|0,0:0|0:0|0:0,0:0:0:0:
432,280,86443,2,2,P|396:304|336:316,1,100,2|0,2:0|0:0,0:0:0:0:
212,332,87068,2,2,P|256:312|280:268,1,100,2|2,0:0|0:1,0:0:0:0:
260,144,87697,6,0,L|244:52,2,75,6|0|0,0:0|0:0|0:0,0:0:0:0:
184,144,88352,2,0,L|124:72,2,75,8|0|0,0:3|0:0|0:0,0:0:0:0:
132,192,89008,6,2,P|200:312|328:256,1,300.000011444092,2|2,0:0|0:0,0:0:0:0:
396,48,91107,6,2,L|476:72,1,75.0000028610231,0|2,2:0|0:1,0:0:0:0:
344,112,91765,2,0,L|236:116,1,100,2|0,0:0|0:0,0:0:0:0:
180,128,92255,2,0,L|240:128,1,50,0|0,0:0|0:0,0:0:0:0:
344,192,92757,1,0,0:0:0:0:
344,192,93092,6,2,B|288:224|288:224|231:210|231:210|172:224|140:300,1,245.4,6|0,0:0|0:0,0:0:0:0:
244,312,94440,2,0,L|324:332,1,75.0000028610231,2|0,0:0|0:0,0:0:0:0:
384,268,95169,2,0,L|464:288,1,75.0000028610231,0|8,0:0|0:3,0:0:0:0:
440,168,95846,1,0,0:0:0:0:
352,88,96156,6,0,L|324:136,1,50,6|0,0:0|0:0,0:0:0:0:
276,80,96492,2,0,L|275:135,1,50,0|2,0:0|0:0,0:0:0:0:
208,112,96800,2,0,L|235:160,1,50
168,168,97107,6,0,L|253:220,1,100,6|0,0:0|0:0,0:0:0:0:
84,204,97688,2,0,L|169:256,1,100
284,324,98273,6,2,L|328:288,1,50,2|0,0:0|0:0,0:0:0:0:
396,264,98562,2,0,L|352:300,1,50,8|0,0:3|0:0,0:0:0:0:
340,368,98843,2,0,L|384:332,1,50,2|0,0:0|0:0,0:0:0:0:
452,308,99132,2,0,L|408:344,1,50,0|10,0:0|0:0,0:0:0:0:
464,236,99420,2,0,L|502:204,1,50,0|2,0:0|0:0,0:0:0:0:
496,128,99708,6,0,L|488:60,2,50,6|0|0,0:0|0:0|0:0,0:0:0:0:
420,120,100141,2,0,L|379:65,2,50,2|0|8,0:0|0:0|0:0,0:0:0:0:
356,160,100574,2,2,L|296:196,1,50,0|2,0:0|0:0,0:0:0:0:
248,224,100862,6,0,L|228:288,2,50,6|0|0,0:0|0:0|0:0,0:0:0:0:
172,228,101295,2,0,L|122:273,2,50,2|0|0,0:0|0:0|0:0,0:0:0:0:
104,196,101728,6,0,L|38:210,1,50,2|0,0:0|0:0,0:0:0:0:
48,132,102016,2,0,L|-17:146,1,50,4|0,0:0|0:0,0:0:0:0:
128,120,102305,2,0,L|193:134,1,50,0|0,0:0|0:0,0:0:0:0:
184,56,102593,2,0,L|249:70,1,50,0|0,0:0|0:0,0:0:0:0:
308,80,102882,1,2,0:1:0:0:
380,56,103026,6,0,L|436:36,2,50,2|12|0,0:0|0:0|0:0,0:0:0:0:
352,140,103458,2,0,L|296:160,2,50,2|2|0,0:0|0:1|0:0,0:0:0:0:
440,156,103891,2,2,L|496:136,2,50,2|8|0,0:0|0:0|0:0,0:0:0:0:
400,232,104324,6,2,P|304:338|160:296,1,300,6|0,0:0|0:0,0:0:0:0:
72,208,105497,6,0,L|120:260,1,50,4|0,0:0|0:0,0:0:0:0:
120,156,105783,2,0,L|135:225,1,50
188,136,106070,2,0,P|180:185|152:244,1,100,2|0,0:0|0:0,0:0:0:0:
220,200,106500,2,0,P|240:244|276:284,1,100,0|0,0:0|0:0,0:0:0:0:
296,188,106930,6,2,P|305:140|300:87,1,100,0|2,0:0|0:0,0:0:0:0:
244,40,107360,2,0,L|192:28,2,50,0|2|0,0:0|0:0|0:0,0:0:0:0:
316,20,107790,2,0,L|412:46,1,100,12|2,0:0|0:0,0:0:0:0:
484,72,108223,1,2,0:0:0:0:
484,72,108369,2,2,P|452:112|392:124,1,100,0|0,0:0|0:0,0:0:0:0:
332,112,108805,1,0,0:0:0:0:
356,184,108951,6,2,P|364:236|348:288,1,100,0|0,0:0|0:0,0:0:0:0:
280,172,109534,2,2,P|260:221|221:258,1,100,0|0,0:0|0:0,3:0:0:0:
224,124,110111,1,6,0:0:0:0:
224,124,110397,5,0,0:0:0:0:
156,96,110540,1,0,0:0:0:0:
84,72,110684,2,0,P|40:92|12:136,1,100
68,244,111263,2,0,P|92:200|88:152,1,100
160,256,111844,6,0,L|204:296,1,50
236,232,112169,2,0,L|280:272,1,50
328,308,112489,2,0,L|392:224,1,100,6|0,0:0|0:0,0:0:0:0:
456,192,112935,2,0,L|448:132,1,50,0|2,0:0|0:0,0:0:0:0:
408,80,113232,5,2,0:0:0:0:
408,80,113381,2,0,B|315:63|316:111|200:80,1,200,6|10,0:0|0:0,0:0:0:0:
36,80,114351,2,0,P|82:88|140:116,1,100
180,164,114838,1,0,0:0:0:0:
228,220,114998,6,0,L|284:208,1,50,4|0,0:0|0:0,0:0:0:0:
304,272,115285,2,0,L|360:260,1,50,0|2,0:0|0:0,0:0:0:0:
380,324,115569,2,0,L|436:312,1,50
312,344,115853,6,2,B|212:356|212:356|184:312|116:304,1,200,6|2,0:0|0:0,0:0:0:0:
0,332,116706,2,0,P|44:308|72:264,1,100,2|2,0:0|0:0,0:0:0:0:
84,192,117133,1,0,0:0:0:0:
96,120,117275,2,0,L|72:56,1,50,8|0,0:3|0:0,0:0:0:0:
152,72,117559,2,0,L|163:4,1,50,2|0,0:0|0:0,0:0:0:0:
224,64,117844,5,0,0:0:0:0:
224,64,117986,2,0,P|276:64|324:76,1,100,10|0,0:0|0:0,0:0:0:0:
332,148,118412,2,0,P|376:116|436:112,1,100,2|0,0:0|0:0,0:0:0:0:
476,60,118839,2,0,P|490:87|496:108,1,50,2|0,0:0|0:0,0:0:0:0:
472,256,119266,5,0,0:0:0:0:
408,296,119408,1,0,0:0:0:0:
344,336,119550,2,0,L|296:368,2,50,6|0|0,0:0|0:0|0:0,0:0:0:0:
292,284,119976,2,0,L|266:335,2,50,2|0|0,0:0|0:0|0:0,0:0:0:0:
224,260,120403,6,0,L|220:192,1,50,2|0,0:0|0:0,0:0:0:0:
160,116,120700,2,2,L|164:184,1,50,4|0,0:0|0:0,0:0:0:0:
144,240,120997,2,0,P|104:264|52:272,1,100,0|2,0:0|0:0,0:0:0:0:
12,208,121452,1,0,0:0:0:0:
12,208,121609,2,2,L|32:152,1,50
72,48,121933,6,0,L|55:95,1,50,6|0,0:0|0:0,0:0:0:0:
120,68,122232,2,0,L|120:117,1,50,2|0,0:0|0:0,0:0:0:0:
172,64,122556,2,0,L|189:110,1,50,0|0,0:0|0:0,0:0:0:0:
216,36,122874,2,0,L|248:74,1,50,0|0,0:0|0:0,0:0:0:0:
324,60,123173,6,0,L|372:72,2,50,2|0|0,0:0|0:0|0:0,0:0:0:0:
332,136,123618,2,0,L|380:148,1,50,2|0,0:0|0:0,0:0:0:0:
452,168,123908,1,0,0:0:0:0:
340,212,124050,2,0,L|448:240,1,100,0|6,0:0|0:0,0:0:0:0:
512,264,124472,6,0,L|512:324,2,50,0|0|2,0:0|0:0|0:0,0:0:0:0:
504,188,124889,2,2,L|490:88,1,100,0|2,0:0|0:0,0:0:0:0:
336,56,125458,2,0,L|315:101,1,50,0|2,0:0|0:0,0:0:0:0:
244,128,125738,2,2,P|268:172|273:223,2,100,0|2|0,0:0|0:0|0:0,0:0:0:0:
180,88,126439,5,2,0:0:0:0:
104,84,126579,2,0,P|64:116|56:164,1,100,4|2,0:0|0:0,0:0:0:0:
132,156,126995,1,0,0:0:0:0:
100,224,127134,2,2,P|131:230|160:228,1,50,0|2,0:0|0:0,0:0:0:0:
208,180,127422,6,0,P|224:228|208:276,1,100,0|2,0:0|0:0,0:0:0:0:
164,332,127863,1,0,0:0:0:0:
236,340,128014,2,0,L|292:348,1,50,0|2,0:0|0:0,0:0:0:0:
300,272,128333,2,2,L|396:328,1,100,0|2,0:0|0:0,0:0:0:0:
476,188,128976,6,0,L|468:84,1,100,12|0,0:0|0:0,0:0:0:0:
400,60,129422,1,2,0:0:0:0:
400,60,129566,2,0,L|336:48,1,50
348,120,129837,2,0,L|240:104,1,100,2|0,0:0|0:0,0:0:0:0:
208,168,130268,5,0,0:0:0:0:
280,180,130411,2,0,L|332:188,1,50
312,256,130703,2,0,L|364:264,1,50,2|0,0:0|0:0,0:0:0:0:
336,332,131010,2,0,L|388:340,1,50,2|0,0:0|0:0,0:0:0:0:
252,320,131343,6,0,L|152:330,1,100,6|0,0:0|0:0,0:0:0:0:
76,316,131826,1,10,0:0:0:0:
48,244,131983,2,0,L|60:192,2,50,0|0|2,0:0|0:0|0:0,0:0:0:0:
200,224,132562,6,0,L|220:178,1,50
280,136,132847,2,0,L|259:181,1,50
288,252,133133,2,0,L|308:206,1,50
368,168,133419,2,0,L|347:213,1,50,0|2,0:0|0:0,0:0:0:0:
376,280,133742,6,0,P|256:356|136:280,1,300,14|2,0:0|0:0,0:0:0:0:
120,240,134767,1,0,0:0:0:0:
116,196,134870,1,0,0:0:0:0:
120,152,134972,6,0,P|256:30|392:152,1,400,2|4,0:0|3:2,0:0:0:0:
224,128,137664,6,0,P|252:116|272:100,1,50,2|0,0:0|0:0,0:0:0:0:
100,152,137971,2,0,P|72:164|52:180,1,50,2|0,0:0|0:0,0:0:0:0:
168,184,138269,5,0,0:0:0:0:
240,204,138426,1,0,0:0:0:0:
312,208,138584,2,2,B|352:176|360:124|360:124|404:96|468:144,1,200,6|0,0:0|0:0,0:0:0:0:
440,288,139566,5,2,0:0:0:0:
384,240,139724,1,0,0:0:0:0:
322,279,139882,2,2,P|270:263|244:228,1,100,0|2,0:0|0:0,0:0:0:0:
244,228,140501,5,0,0:0:0:0:
216,300,140654,1,0,0:0:0:0:
156,344,140807,2,0,P|131:351|88:352,1,50
36,344,141136,2,0,P|24:308|24:264,1,75.0000028610231,8|0,0:3|0:0,0:0:0:0:
40,112,141698,1,2,0:0:0:0:
108,224,141984,5,0,0:0:0:0:
172,228,142127,1,0,0:0:0:0:
236,208,142270,2,2,P|268:176|280:112,1,100,0|4,0:0|0:0,0:0:0:0:
228,284,142865,6,0,L|264:344,1,50
300,252,143190,2,0,L|369:250,1,50
308,168,143533,6,2,P|358:112|386:40,1,150,8|0,0:3|0:0,0:0:0:0:
414,104,144199,2,2,P|426:160|462:204,1,100,2|0,0:0|0:0,0:0:0:0:
388,308,144825,1,0,0:0:0:0:
272,364,145121,1,2,0:0:0:0:
196,360,145269,1,0,0:0:0:0:
124,348,145417,2,2,P|93:332|64:296,2,75,10|0|0,2:0|0:0|0:0,0:0:0:0:
148,264,146011,6,2,P|232:219|280:128,1,194,8|2,0:3|0:0,0:0:0:0:
316,264,146888,2,2,P|298:213|284:156,1,100,0|2,0:0|0:0,0:0:0:0:
300,32,147494,1,4,0:0:0:0:
412,120,147776,2,2,L|404:188,1,50,2|0,0:0|0:0,0:0:0:0:
440,236,148071,2,2,L|445:186,1,50,0|0,0:0|0:0,0:0:0:0:
504,316,148414,6,2,L|354:312,1,150,8|0,0:3|0:0,0:0:0:0:
268,328,149014,2,0,L|280:272,1,50,2|0,0:0|0:0,0:0:0:0:
184,344,149314,2,0,L|196:288,1,50
100,360,149614,6,0,L|120:260,1,100,8|2,0:3|0:0,0:0:0:0:
136,192,150056,1,0,0:0:0:0:
136,192,150199,2,2,L|148:140,1,50,4|0,0:0|0:0,0:0:0:0:
88,92,150503,2,2,P|123:131|172:144,1,100,2|8,0:0|0:3,0:0:0:0:
240,136,150938,5,0,0:0:0:0:
276,200,151072,2,0,P|296:184|308:163,1,50,2|0,0:0|0:0,0:0:0:0:
204,220,151359,2,2,P|232:260|279:274,1,100,4|0,0:0|0:0,0:0:0:0:
432,240,151973,1,8,0:3:0:0:
456,104,152240,5,0,0:0:0:0:
396,60,152387,1,0,0:0:0:0:
324,44,152535,2,0,P|288:72|236:76,1,100,4|0,0:0|0:0,0:0:0:0:
164,52,152990,1,0,0:0:0:0:
92,68,153141,2,2,P|84:120|100:168,1,100,0|0,0:0|0:0,0:0:0:0:
256,192,153759,12,8,155654,0:3:0:0:
256,192,156291,12,4,158256,0:0:0:0:
196,260,158593,6,0,L|248:248,1,50,0|0,0:0|0:0,0:0:0:0:
332,204,158897,2,0,L|279:191,1,50,0|0,0:0|0:0,0:0:0:0:
208,176,159202,2,0,L|244:120,1,50,8|0,0:0|0:0,0:0:0:0:
304,100,159507,2,0,P|240:55|176:80,2,150,2|0|0,0:0|0:0|0:0,0:0:0:0:
420,176,160726,6,0,P|388:216|335:230,1,100,4|0,0:0|0:0,0:0:0:0:
192,224,161370,2,0,L|264:272,1,50
204,320,161680,2,0,L|281:281,1,50
292,360,161991,2,0,L|300:240,1,100,2|0,0:0|0:0,0:0:0:0:
312,132,162607,6,0,L|316:80,2,50
252,180,163065,1,0,0:0:0:0:
180,160,163217,2,0,P|152:200|104:224,1,100,12|0,0:0|0:0,0:0:0:0:
44,268,163673,2,0,L|124:264,1,50
196,376,164129,6,0,L|224:264,1,100,0|2,0:0|0:0,0:0:0:0:
252,152,164736,1,0,0:0:0:0:
296,208,164888,1,0,0:0:0:0:
356,248,165040,2,0,P|389:254|422:251,2,66.6666666666667,2|0|0,0:0|0:0|0:0,0:0:0:0:
260,288,165720,6,0,P|200:312|112:328,1,145,4|4,0:0|0:0,0:0:0:0:
76,280,166345,2,2,P|132:292|184:288,1,100,2|0,0:0|0:0,0:0:0:0:
256,192,167012,12,4,168399,2:0:0:0:
132,104,168886,5,2,0:0:0:0:
132,104,169041,2,0,P|180:120|240:132,1,100
268,196,169522,2,0,P|296:156|344:124,1,99.6,2|0,0:0|0:0,0:0:0:0:
372,60,169992,2,2,P|416:100|472:120,1,100,0|2,0:0|0:1,0:0:0:0:
424,260,170618,1,2,0:1:0:0:
288,324,170940,6,0,L|180:336,1,100,4|0,0:0|0:0,0:0:0:0:
20,276,171608,2,0,L|119:264,1,100,8|0,0:3|0:0,0:0:0:0:
260,172,172316,2,0,L|160:183,1,100,2|0,0:0|0:0,0:0:0:0:
88,192,172905,1,0,0:0:0:0:
88,192,173108,1,0,0:0:0:0:
256,192,173328,12,2,174874,0:0:0:0:
412,64,175811,6,0,P|412:116|404:168,1,100,0|2,0:0|0:1,0:0:0:0:
340,309,176706,2,2,P|272:320|260:252,2,150,4|0|2,0:0|0:0|0:0,0:0:0:0:
264,184,178609,6,0,P|238:180|190:168,1,75.0000028610231,2|0,0:0|0:0,0:0:0:0:
96,208,179263,2,0,P|48:196|16:192,1,75.0000028610231,0|0,0:0|0:0,0:0:0:0:
28,288,179909,1,4,0:0:0:0:
124,312,180221,1,0,0:0:0:0:
196,244,180533,2,0,L|228:176,1,75.0000028610231
196,56,181168,6,0,L|260:104,1,75.0000028610231,6|0,0:0|0:0,0:0:0:0:
344,144,181729,1,0,0:0:0:0:
300,220,182025,2,0,P|301:263|291:296,1,75.0000028610231,0|2,0:0|0:0,0:0:0:0:
208,248,182671,1,0,0:0:0:0:
120,248,182995,2,0,P|76:228|52:204,1,75.0000028610231
24,88,183744,6,0,P|68:108|92:132,1,75.0000028610231,6|0,0:0|0:0,0:0:0:0:
164,184,184381,2,0,P|196:172|227:146,1,75.0000028610231
272,60,184993,1,2,0:0:0:0:
336,136,185287,1,0,0:0:0:0:
420,84,185581,1,0,0:0:0:0:
460,180,185875,1,0,0:0:0:0:
368,244,186186,6,0,P|326:267|296:280,1,75.0000028610231,6|0,0:0|0:0,0:0:0:0:
296,188,186744,1,0,0:0:0:0:
200,216,187065,2,0,P|166:213|126:204,1,75.0000028610231,0|2,0:0|0:0,0:0:0:0:
176,128,187698,1,0,0:0:0:0:
260,116,188037,2,0,P|290:105|325:81,1,75.0000028610231
256,192,188689,12,0,190458,0:0:0:0:
