osu file format v13

[General]
AudioFilename: NON.mp3
AudioLeadIn: 1000
PreviewTime: 61608
Countdown: 0
SampleSet: Soft
StackLeniency: 0.8
Mode: 0
LetterboxInBreaks: 0
WidescreenStoryboard: 1

[Editor]
Bookmarks: 1063,9608,20336,21790,33427,45063,56699,59245,73790,76699,79608,81063,82517,87790,88335,98517,99972,108699,110154,111608,113063,114517,114881
DistanceSpacing: 1.3
BeatDivisor: 4
GridSize: 4
TimelineZoom: 2.6

[Metadata]
Title:Piano Concerto No.1 "Scream"
TitleUnicode:ピアノ協奏曲第1番"悲鳴"
Artist:MiddleIsland
ArtistUnicode:中島岬
Creator:apaffy
Version:Hard
Source:
Tags:GoldenWolf RLC Natsu captin1 Nakajima Misaki Himei
BeatmapID:363206
BeatmapSetID:110126

[Difficulty]
HPDrainRate:5
CircleSize:4
OverallDifficulty:6
ApproachRate:8
SliderMultiplier:1.4
SliderTickRate:2

[Events]
//Background and Video events
0,0,"bg-flowers.jpg",0,0
//Break Periods
//Storyboard Layer 0 (Background)
//Storyboard Layer 1 (Fail)
//Storyboard Layer 2 (Pass)
//Storyboard Layer 3 (Foreground)
//Storyboard Sound Samples
//Background Colour Transformations
3,100,0,0,0

[TimingPoints]
1427,363.636363636364,4,2,3,90,1,0
6881,-100,4,2,3,60,0,0
7245,-100,4,2,3,80,0,0
7336,-100,4,2,3,5,0,0
9336,-100,4,2,3,5,0,0
9517,-100,4,2,3,10,0,0
9608,-100,4,2,3,10,0,0
10154,-100,4,2,3,30,0,0
20336,-100,4,2,3,50,0,0
21790,-100,4,2,3,50,0,0
22881,-100,4,2,3,20,0,0
23002,-100,4,2,3,30,0,0
23123,-100,4,2,3,40,0,0
23245,-100,4,2,3,50,0,0
24699,-100,4,2,3,50,0,0
25427,-100,4,2,3,40,0,0
25548,-100,4,2,3,60,0,0
25669,-100,4,2,3,40,0,0
25790,-100,4,2,3,30,0,0
25972,-100,4,2,3,50,0,0
31972,-100,4,2,3,40,0,0
32336,-100,4,2,3,50,0,0
32699,-100,4,2,3,60,0,0
33063,-100,4,2,3,70,0,0
33154,-100,4,2,3,50,0,0
33427,-100,4,2,3,90,0,0
33517,-100,4,2,3,60,0,0
33608,-100,4,2,3,60,0,0
37063,-100,4,2,3,40,0,0
37790,-100,4,2,3,60,0,0
39245,-100,4,2,3,90,0,0
39336,-100,4,2,3,60,0,0
40699,-100,4,2,3,60,0,0
42154,-100,4,2,3,75,0,0
42245,-100,4,2,3,60,0,0
42517,-100,4,2,3,60,0,0
42881,-100,4,2,3,60,0,0
43245,-100,4,2,3,50,0,0
43427,-100,4,2,3,70,0,0
43608,-100,4,2,3,90,0,0
43699,-100,4,2,3,50,0,0
44154,-100,4,2,3,15,0,0
44245,-100,4,2,3,50,0,0
44336,-100,4,2,3,80,0,0
45063,-100,4,2,3,80,0,0
45154,-100,4,2,3,50,0,0
45427,-100,4,2,3,50,0,0
45517,-100,4,2,3,50,0,0
45608,-100,4,2,3,50,0,0
45699,-100,4,2,3,50,0,0
45790,-100,4,2,3,50,0,0
45881,-100,4,2,3,50,0,0
45972,-100,4,2,3,50,0,0
46063,-100,4,2,3,50,0,0
46154,-100,4,2,3,50,0,0
46336,-100,4,2,3,50,0,0
47245,-100,4,2,3,50,0,0
47790,-100,4,2,3,50,0,0
48517,-100,4,2,3,50,0,0
48881,-100,4,2,3,50,0,0
49245,-100,4,2,3,50,0,0
49427,-100,4,2,3,60,0,0
49972,-100,4,2,3,60,0,0
50154,-100,4,2,3,60,0,0
50790,-100,4,2,3,75,0,0
50881,-100,4,2,3,90,0,0
51063,-100,4,2,3,60,0,0
51245,-100,4,2,3,60,0,0
52336,-100,4,2,3,60,0,0
53245,-100,4,2,3,60,0,0
53790,-100,4,2,3,80,0,0
53972,-100,4,2,3,60,0,0
54063,-100,4,2,3,60,0,0
54336,-100,4,2,3,60,0,0
54517,-100,4,2,3,40,0,0
54699,-100,4,2,3,40,0,0
54881,-100,4,2,3,60,0,0
55245,-100,4,2,3,80,0,0
55427,-100,4,2,3,60,0,0
55517,-100,4,2,3,60,0,0
55972,-100,4,2,3,30,0,0
56154,-100,4,2,3,40,0,0
56336,-100,4,2,3,50,0,0
56517,-100,4,2,3,60,0,0
56699,-100,4,2,3,90,0,0
56820,-100,4,2,3,60,0,0
56942,-100,4,2,3,100,0,0
57063,-100,4,2,3,60,0,0
57305,-100,4,2,3,100,0,0
57427,-100,4,2,3,60,0,0
57669,-100,4,2,3,100,0,0
57790,-100,4,2,3,60,0,0
58033,-100,4,2,3,100,0,0
58154,-100,4,2,3,60,0,0
58396,-100,4,2,3,100,0,0
58517,-100,4,2,3,60,0,0
58760,-100,4,2,3,100,0,0
58881,-100,4,2,3,60,0,0
59123,-100,4,2,3,100,0,0
59245,-100,4,2,3,20,0,0
59972,-100,4,2,3,40,0,0
60336,-100,4,2,3,50,0,0
60699,-100,4,2,3,60,0,0
61063,363.636363636364,3,2,3,60,1,0
61608,-100,3,2,3,30,0,0
61790,-100,3,2,3,40,0,0
61972,-100,3,2,3,50,0,0
62154,363.636363636364,4,2,3,90,1,1
65790,-100,4,2,3,50,0,1
66154,-100,4,2,3,50,0,1
66517,-100,4,2,3,50,0,1
66699,-100,4,2,3,50,0,1
67063,-100,4,2,3,50,0,1
67426,-100,4,2,3,50,0,1
67608,-100,4,2,3,50,0,1
67790,-100,4,2,3,50,0,1
67972,-100,4,2,3,70,0,1
68063,-100,4,2,3,50,0,1
71608,-100,4,2,3,50,0,1
71790,-100,4,2,3,50,0,1
71972,-100,4,2,3,50,0,1
72154,-100,4,2,3,50,0,1
72335,-100,4,2,3,50,0,1
72699,-100,4,2,3,50,0,1
73063,-100,4,2,3,50,0,1
73426,-100,4,2,3,50,0,1
73790,-100,4,2,3,70,0,1
73881,-100,4,2,3,50,0,1
76699,-100,4,2,3,70,0,1
76790,-100,4,2,3,50,0,1
77063,-100,4,2,3,80,0,1
77244,-100,4,2,3,50,0,1
77426,-100,4,2,3,50,0,1
77790,-100,4,2,3,50,0,1
78154,-100,4,2,3,50,0,1
78335,-100,4,2,3,50,0,1
78396,-100,4,2,3,50,0,1
78699,-100,4,2,3,50,0,1
78881,-100,4,2,3,80,0,1
78972,-100,4,2,3,50,0,1
79063,-100,4,2,3,50,0,1
79244,-100,4,2,3,50,0,1
79426,-100,4,2,3,50,0,1
79608,-100,4,2,3,70,0,1
79699,-100,4,2,3,50,0,1
81063,-100,4,2,3,70,0,1
81154,-100,4,2,3,50,0,1
81426,-100,4,2,3,70,0,1
81517,-100,4,2,3,50,0,1
81790,-100,4,2,3,70,0,1
81881,-100,4,2,3,50,0,1
82154,-100,4,2,3,70,0,1
82244,-100,4,2,3,50,0,1
82517,-100,4,2,3,70,0,1
82608,-100,4,2,3,50,0,1
82881,-100,4,2,3,50,0,1
83244,-100,4,2,3,50,0,1
83608,-100,4,2,3,50,0,1
83972,-100,4,2,3,80,0,1
84335,-100,4,2,3,80,0,0
84426,-100,4,2,3,5,0,0
84517,-100,4,2,3,5,0,0
84699,-100,4,2,3,5,0,0
87790,-100,4,2,3,5,0,0
88335,-100,4,2,3,20,0,0
91063,-100,4,2,3,20,0,0
92699,-100,4,2,3,20,0,0
93063,-100,4,2,3,20,0,0
93426,-100,4,2,3,20,0,0
93790,-100,4,2,3,20,0,0
94154,-100,4,2,3,20,0,0
96154,-100,4,2,3,40,0,0
96335,-100,4,2,3,20,0,0
97063,-100,4,2,3,30,0,0
97426,-100,4,2,3,40,0,0
97790,-100,4,2,3,50,0,0
98154,-100,4,2,3,60,0,0
98517,-100,4,2,3,40,0,0
99063,-100,4,2,3,40,0,0
99244,-100,4,2,3,50,0,0
99972,-100,4,2,3,50,0,0
100063,-100,4,2,3,30,0,0
100699,-100,4,2,3,45,0,0
100790,-100,4,2,3,30,0,0
101063,-100,4,2,3,45,0,0
101154,-100,4,2,3,30,0,0
101426,-100,4,2,3,45,0,0
101517,-100,4,2,3,30,0,0
102881,-100,4,2,3,60,0,0
103063,-100,4,2,3,30,0,0
103426,-100,4,2,3,45,0,0
103608,-100,4,2,3,60,0,0
104335,-100,4,2,3,50,0,0
104699,-100,4,2,3,40,0,0
105063,-100,4,2,3,60,0,0
105790,-100,4,2,3,80,0,0
105881,-100,4,2,3,45,0,0
106517,-100,4,2,3,45,0,0
107244,-100,4,2,3,60,0,0
107426,-100,4,2,3,30,0,0
107790,-100,4,2,3,40,0,0
107972,-100,4,2,3,50,0,0
108699,-100,4,2,3,70,0,1
108790,-100,4,2,3,50,0,1
110154,-100,4,2,3,70,0,1
110244,-100,4,2,3,50,0,1
111608,-100,4,2,3,70,0,1
111699,-100,4,2,3,50,0,1
113063,-100,4,2,3,70,0,1
113154,-100,4,2,3,50,0,1
113790,-100,4,2,3,70,0,0
114517,-100,4,2,3,70,0,0

[Colours]
Combo1 : 255,151,255
Combo2 : 191,191,255

[HitObjects]
100,124,1063,5,2,0:3:0:0:
164,280,1427,6,0,P|240:244|360:300,1,210,4|0,0:3|0:0,0:0:0:0:
400,356,2154,1,2,0:0:0:0:
476,208,2517,2,0,P|426:207|386:188,1,70,0|0,0:0|0:0,0:0:0:0:
328,172,2881,1,0,0:0:0:0:
244,160,3062,1,0,0:0:0:0:
168,192,3244,5,2,0:0:0:0:
76,280,3517,2,0,L|68:336,1,35,2|2,0:0|0:0,0:0:0:0:
112,152,3972,1,2,0:0:0:0:
116,68,4154,1,2,0:0:0:0:
36,40,4336,6,0,L|28:192,1,140,4|2,0:0|0:0,0:0:0:0:
120,268,4972,2,0,L|100:328,1,35,2|2,0:0|0:0,0:0:0:0:
268,356,5427,1,2,0:0:0:0:
264,272,5608,1,2,0:0:0:0:
340,240,5790,6,0,P|432:272|496:184,1,210,2|0,0:0|0:0,0:0:0:0:
395,123,6517,2,0,L|415:211,1,70,2|0,0:0|0:0,0:0:0:0:
447,347,6881,5,2,0:3:0:0:
447,347,7063,1,0,0:0:0:0:
447,347,7245,1,4,0:1:0:0:
256,192,7336,12,0,9427,0:0:0:0:
204,292,9608,5,2,0:0:0:0:
132,332,9790,1,2,0:0:0:0:
48,324,9972,1,2,0:0:0:0:
24,244,10154,6,0,L|44:160,1,70,4|0,0:0|0:0,0:0:0:0:
120,144,10517,1,0,0:0:0:0:
196,172,10699,1,0,0:0:0:0:
272,132,10881,2,0,P|312:88|324:48,1,70,2|0,0:0|0:0,0:0:0:0:
400,60,11245,1,0,0:0:0:0:
444,132,11427,1,0,0:0:0:0:
396,200,11608,6,0,P|392:252|412:292,1,70,4|0,0:0|0:0,0:0:0:0:
316,296,11972,2,0,P|296:344|268:368,1,70,0|0,0:0|0:0,0:0:0:0:
200,364,12336,1,2,0:0:0:0:
116,316,12517,1,0,0:0:0:0:
68,224,12699,1,2,0:0:0:0:
104,112,12881,1,2,0:0:0:0:
168,164,13063,6,0,P|252:172|308:116,1,140,4|2,0:0|0:0,0:0:0:0:
340,72,13608,1,2,0:0:0:0:
420,52,13790,1,2,0:0:0:0:
392,132,13972,1,0,0:0:0:0:
468,164,14154,1,2,0:0:0:0:
416,228,14336,1,2,0:0:0:0:
476,284,14517,6,0,L|496:364,1,70,4|0,0:0|0:0,0:0:0:0:
288,292,15063,1,2,0:0:0:0:
232,356,15245,1,0,0:0:0:0:
88,204,15608,1,2,0:0:0:0:
120,128,15790,1,2,0:0:0:0:
192,84,15972,6,0,L|352:68,1,140,4|0,0:0|0:0,0:0:0:0:
320,152,16517,1,0,0:0:0:0:
268,216,16699,1,2,0:0:0:0:
328,272,16881,1,0,0:0:0:0:
412,264,17063,2,0,L|468:200,2,70,0|0|4,0:0|0:0|0:0,0:0:0:0:
420,348,17608,5,0,0:0:0:0:
335,351,17790,1,2,0:0:0:0:
251,354,17972,1,0,0:0:0:0:
132,112,18517,5,0,0:0:0:0:
176,184,18699,1,0,0:0:0:0:
164,268,18881,2,0,P|220:300|296:248,1,140,2|0,0:0|0:0,0:0:0:0:
316,192,19427,1,0,0:0:0:0:
132,112,19790,5,2,0:0:0:0:
84,180,19972,1,2,0:0:0:0:
96,264,20154,1,2,0:0:0:0:
144,332,20336,6,0,L|228:324,1,70,4|0,0:3|0:0,0:0:0:0:
296,220,20699,2,0,L|226:226,1,70,2|0,0:0|0:0,0:0:0:0:
124,360,21063,2,0,L|208:352,1,70,2|0,0:0|0:0,0:0:0:0:
312,188,21427,2,0,L|242:194,1,70,2|0,0:0|0:0,0:0:0:0:
301,262,21790,5,4,0:3:0:0:
311,278,22154,2,0,P|391:302|455:270,1,140,2|2,0:0|0:0,0:0:0:0:
472,204,22699,1,0,0:0:0:0:
436,128,22881,2,0,L|472:76,2,46.6666666666667,2|2|2,0:0|0:0|0:0,0:0:0:0:
376,184,23245,6,0,P|296:176|232:128,1,140,4|4,0:3|0:0,0:0:0:0:
192,84,23790,1,0,0:0:0:0:
108,80,23972,2,0,L|24:128,1,70,2|0,0:0|0:0,0:0:0:0:
108,172,24336,2,0,L|64:248,1,70,2|2,0:3|0:0,0:0:0:0:
96,312,24699,5,4,0:3:0:0:
96,312,25063,2,0,P|148:316|184:348,1,70,2|0,0:0|0:0,0:0:0:0:
244,296,25427,2,0,L|264:216,2,46.6666666666667,2|2|2,0:0|0:0|0:0,0:0:0:0:
292,360,25790,1,2,0:0:0:0:
372,332,25972,1,2,0:3:0:0:
424,264,26154,5,4,0:3:0:0:
356,212,26336,2,0,L|360:168,3,23.3333333333333,2|2|2|4,0:0|0:0|0:0|0:0,0:0:0:0:
274,245,26699,1,0,0:0:0:0:
204,200,26881,1,2,0:0:0:0:
120,200,27063,1,0,0:0:0:0:
80,272,27245,1,2,0:0:0:0:
116,348,27427,1,2,0:0:0:0:
200,360,27608,6,0,P|264:324|288:240,1,140,4|0,0:3|0:0,0:0:0:0:
252,188,28154,1,0,0:0:0:0:
276,108,28336,2,0,L|280:24,1,70,2|2,0:0|0:0,0:0:0:0:
352,80,28699,1,2,0:0:0:0:
432,91,28880,1,2,0:0:0:0:
496,40,29062,1,4,0:3:0:0:
436,196,29427,6,0,L|440:232,3,23.3333333333333,2|2|2|4,0:0|0:0|0:0|0:0,0:0:0:0:
360,252,29790,1,0,0:0:0:0:
252,176,29972,1,0,0:0:0:0:
168,160,30154,1,0,0:0:0:0:
88,188,30336,1,0,0:0:0:0:
60,268,30517,6,0,P|156:284|204:264,1,140,4|0,0:3|0:0,0:0:0:0:
272,300,31063,2,0,L|344:292,1,70,0|0,0:0|0:0,0:0:0:0:
408,240,31427,1,0,0:0:0:0:
444,164,31608,1,2,0:0:0:0:
428,80,31790,1,2,0:0:0:0:
360,28,31972,6,0,L|312:104,1,70,4|0,0:3|0:0,0:0:0:0:
192,136,32336,2,0,L|229:76,1,70,4|0,0:3|0:0,0:0:0:0:
252,216,32699,2,0,L|214:275,1,70,4|0,0:3|0:0,0:0:0:0:
125,336,33063,1,4,0:3:0:0:
108,340,33153,1,2,0:0:0:0:
90,341,33244,1,2,0:0:0:0:
73,338,33335,1,2,0:0:0:0:
56,332,33427,6,0,L|56:288,3,35,4|0|0|0,0:1|0:0|0:0|0:0,0:0:0:0:
128,236,33790,2,0,L|128:271,3,35,2|0|0|0,0:0|0:0|0:0|0:0,0:0:0:0:
56,200,34154,2,0,L|56:156,3,35,2|0|0|0,0:0|0:0|0:0|0:0,0:0:0:0:
128,108,34517,2,0,L|128:143,3,35,2|0|0|0,0:0|0:0|0:0|0:0,0:0:0:0:
72,52,34881,1,2,0:3:0:0:
232,60,35245,5,2,0:0:0:0:
232,60,35336,1,0,0:0:0:0:
232,60,35427,1,2,0:0:0:0:
288,124,35608,2,0,L|260:152,2,35,2|0|2,0:0|0:0|0:0,0:0:0:0:
352,184,35972,1,2,0:0:0:0:
352,184,36063,1,0,0:0:0:0:
352,184,36154,1,2,0:0:0:0:
308,264,36336,6,0,L|336:312,2,35,4|0|0,0:3|0:0|0:0,0:0:0:0:
248,336,36699,1,2,0:0:0:0:
248,336,36790,1,0,0:0:0:0:
248,336,36881,1,0,0:0:0:0:
152,316,37063,6,0,L|167:357,1,35,2|2,0:0|0:0,0:0:0:0:
188,246,37245,2,0,L|220:233,1,35,2|2,0:0|0:0,0:0:0:0:
115,216,37427,2,0,L|102:183,1,35,2|2,0:0|0:0,0:0:0:0:
80,286,37608,2,0,L|38:301,1,35,2|2,0:0|0:0,0:0:0:0:
8,228,37790,1,0,0:0:0:0:
120,80,38154,5,2,0:0:0:0:
120,80,38336,1,0,0:0:0:0:
208,60,38517,5,2,0:0:0:0:
208,60,38699,1,0,0:0:0:0:
296,40,38881,5,2,0:3:0:0:
296,40,39063,1,0,0:0:0:0:
384,20,39245,5,4,0:1:0:0:
388,108,39427,2,0,L|408:136,2,35,0|0|2,0:0|0:0|0:0,0:0:0:0:
461,193,39790,1,0,0:0:0:0:
436,272,39972,6,0,P|380:276|344:256,1,70,2|0,0:0|0:0,0:0:0:0:
304,184,40336,2,0,P|296:228|268:256,1,70,2|2,0:0|0:0,0:0:0:0:
200,344,40699,6,0,P|192:296|212:252,1,70,2|0,0:0|0:0,0:0:0:0:
132,192,41063,2,0,P|128:240|104:276,1,70,2|2,0:0|0:0,0:0:0:0:
36,356,41427,6,0,P|28:312|44:260,1,70,0|2,0:0|0:0,0:0:0:0:
48,208,41790,2,0,P|56:164|40:112,1,70,2|2,0:3|0:0,0:0:0:0:
36,60,42154,5,4,0:3:0:0:
36,60,42336,1,0,0:0:0:0:
120,36,42517,2,0,L|158:25,2,35,2|0|0,0:0|0:0|0:0,0:0:0:0:
144,128,42881,2,0,P|172:168|208:188,1,70,2|0,0:0|0:0,0:0:0:0:
272,224,43245,2,0,L|368:216,1,70,2|2,0:0|0:0,0:0:0:0:
444,240,43608,6,0,L|460:300,3,35,2|2|4|0,0:0|0:0|0:3|0:0,0:0:0:0:
380,300,43972,2,0,L|396:360,3,35,2|0|4|0,0:0|0:0|0:3|0:0,0:0:0:0:
300,320,44336,2,0,P|212:312|184:324,2,93.3333333333333,2|2|2,0:0|0:0|0:0,0:0:0:0:
268,212,45063,6,0,P|280:148|224:76,2,140,4|2|2,0:1|0:0|0:0,0:0:0:0:
112,276,46154,1,2,0:0:0:0:
112,276,46336,1,2,0:0:0:0:
112,276,46517,2,0,P|184:320|268:308,1,140,4|4,0:3|0:0,0:0:0:0:
364,208,47245,2,0,P|436:192|476:144,2,105,4|2|2,0:3|0:0|0:3,0:0:0:0:
280,192,47972,6,0,P|216:188|164:212,1,105,4|0,0:3|0:0,0:0:0:0:
136,228,48336,1,2,0:0:0:0:
52,224,48517,1,0,0:0:0:0:
36,140,48699,2,0,P|48:84|36:48,1,70,0|2,0:0|0:0,0:0:0:0:
124,36,49063,1,0,0:0:0:0:
156,112,49245,1,2,0:0:0:0:
188,188,49427,1,4,0:3:0:0:
188,188,49790,6,0,L|160:276,2,70,2|2|2,0:0|0:0|0:0,0:0:0:0:
364,100,50517,2,0,P|372:156|360:200,1,70,2|0,0:3|0:0,0:0:0:0:
440,212,50790,2,0,L|488:224,1,35,2|4,0:0|0:1,0:0:0:0:
368,252,51063,1,0,0:0:0:0:
368,252,51245,6,0,P|384:308|416:328,1,70,2|0,0:0|0:0,0:0:0:0:
284,344,51608,1,2,0:3:0:0:
284,344,51699,1,0,0:0:0:0:
284,344,51790,1,2,0:0:0:0:
263,248,51972,2,0,L|279:200,2,35,2|0|2,0:0|0:0|0:0,0:0:0:0:
172,264,52336,6,0,P|76:264|32:228,1,140,8|2,0:3|0:0,0:0:0:0:
316,76,53245,1,2,0:0:0:0:
352,152,53427,1,2,0:0:0:0:
428,184,53608,1,2,0:0:0:0:
492,132,53790,5,4,0:1:0:0:
468,256,54063,2,0,L|480:320,1,35,2|2,0:0|0:0,0:0:0:0:
308,272,54517,2,0,L|296:316,3,35,2|2|2|2,0:0|0:0|0:0|0:0,0:0:0:0:
260,288,54881,2,0,P|204:296|172:288,1,70,2|2,0:0|0:0,0:0:0:0:
64,224,55245,5,4,0:1:0:0:
196,156,55517,2,0,L|249:175,1,35,2|2,0:0|0:0,0:0:0:0:
308,196,55790,1,4,0:3:0:0:
396,184,55972,1,2,0:0:0:0:
396,184,56063,1,2,0:0:0:0:
396,184,56154,1,2,0:0:0:0:
452,120,56336,1,2,0:0:0:0:
452,120,56427,1,2,0:0:0:0:
452,120,56517,1,2,0:0:0:0:
404,56,56699,6,0,P|344:44|316:52,2,46.6666666666667,4|2|2,0:1|0:0|0:0,0:0:0:0:
324,104,57063,6,0,P|272:104|240:112,2,46.6666666666667,0|2|2,0:0|0:0|0:0,0:0:0:0:
264,176,57427,6,0,P|208:200|200:212,2,46.6666666666667,0|2|2,0:0|0:0|0:0,0:0:0:0:
232,264,57790,6,0,P|192:304|192:316,2,46.6666666666667,0|2|2,0:0|0:0|0:0,0:0:0:0:
312,316,58154,6,0,P|376:320|392:316,2,46.6666666666667,0|2|2,0:0|0:0|0:0,0:0:0:0:
372,244,58517,6,0,P|424:228|436:220,2,46.6666666666667,0|2|2,0:0|0:0|0:0,0:0:0:0:
376,152,58881,6,0,P|412:120|420:96,2,46.6666666666667,0|2|2,0:0|0:0|0:0,0:0:0:0:
336,32,59245,6,0,L|329:66,3,35,2|2|2|2,0:0|0:0|0:0|0:0,0:0:0:0:
256,24,59608,2,0,L|216:56,3,35,2|2|2|2,0:0|0:0|0:0|0:0,0:0:0:0:
156,44,59972,2,0,L|128:92,3,35,2|2|2|2,0:0|0:0|0:0|0:0,0:0:0:0:
100,136,60336,2,0,L|112:196,3,35,2|2|2|2,0:0|0:0|0:0|0:0,0:0:0:0:
148,228,60699,1,4,0:3:0:0:
148,228,61063,6,0,P|168:280|112:352,1,140,4|0,0:1|0:0,0:0:0:0:
32,272,61608,1,2,0:0:0:0:
40,188,61790,1,2,0:0:0:0:
104,132,61972,1,2,0:0:0:0:
188,140,62153,6,0,P|244:152|328:112,1,140,4|4,0:1|0:3,0:0:0:0:
384,68,62699,1,0,0:0:0:0:
448,124,62881,1,2,0:0:0:0:
448,124,62972,1,0,0:0:0:0:
448,124,63063,1,0,0:0:0:0:
397,182,63244,2,0,L|416:212,2,35,2|0|0,0:0|0:0|0:0,0:0:0:0:
336,236,63608,6,0,P|344:292|440:320,1,140,4|4,0:3|0:3,0:0:0:0:
252,276,64335,2,0,L|244:324,3,35,2|0|0|0,0:0|0:0|0:0|0:0,0:0:0:0:
160,328,64699,2,0,L|152:372,1,35,2|2,0:0|0:0,0:0:0:0:
160,248,64881,2,0,L|166:213,1,35,2|2,0:0|0:0,0:0:0:0:
88,288,65063,6,0,L|68:136,1,140,2|2,0:3|0:3,0:0:0:0:
216,44,65790,2,0,P|256:72|264:72,2,46.6666666666667,2|2|2,0:3|0:3|0:3,0:0:0:0:
180,120,66154,5,2,0:0:0:0:
180,120,66244,1,2,0:0:0:0:
180,120,66335,1,2,0:0:0:0:
252,168,66517,5,4,0:3:0:0:
192,228,66699,2,2,L|188:260,3,23.3333333333333,2|2|2|2,0:0|0:0|0:0|0:0,0:0:0:0:
268,284,67063,1,2,0:0:0:0:
352,300,67244,2,0,P|404:304|440:284,1,70,2|2,0:0|0:0,0:0:0:0:
452,212,67608,1,2,0:3:0:0:
452,212,67699,1,0,0:0:0:0:
452,212,67790,1,0,0:0:0:0:
396,140,67972,6,0,L|386:173,3,35,4|0|0|0,0:1|0:0|0:0|0:0,0:0:0:0:
338,75,68335,2,0,L|350:31,3,35,2|0|0|0,0:0|0:0|0:0|0:0,0:0:0:0:
264,112,68699,2,0,L|254:145,3,35,2|0|0|0,0:0|0:0|0:0|0:0,0:0:0:0:
211,46,69063,2,0,L|223:2,3,35,2|0|0|0,0:0|0:0|0:0|0:0,0:0:0:0:
128,64,69426,2,0,P|86:64|54:45,1,70,4|0,0:3|0:0,0:0:0:0:
44,128,69790,2,0,P|64:172|40:276,1,140,2|2,0:0|0:0,0:0:0:0:
80,340,70335,1,0,0:0:0:0:
140,256,70517,2,0,L|160:200,1,35,2|0,0:3|0:0,0:0:0:0:
180,332,70699,2,0,L|168:364,1,35,2|2,0:0|0:0,0:0:0:0:
256,348,70881,6,0,L|300:340,3,35,8|2|2|2,0:3|0:0|0:0|0:0,0:0:0:0:
304,268,71244,2,0,L|348:260,3,35,2|2|2|2,0:0|0:0|0:0|0:0,0:0:0:0:
368,336,71608,2,0,P|416:340|456:368,1,70,0|0,0:0|0:0,0:0:0:0:
444,264,71972,1,2,0:0:0:0:
388,204,72154,1,2,0:0:0:0:
424,128,72335,2,0,P|384:72|288:72,1,140,2|2,0:0|0:0,0:0:0:0:
172,144,73063,2,0,P|96:132|48:72,1,140,2|2,0:0|0:0,0:0:0:0:
108,24,73608,1,2,0:0:0:0:
184,60,73790,6,0,L|340:72,1,140,4|4,0:1|0:3,0:0:0:0:
408,80,74335,1,2,0:3:0:0:
456,148,74517,1,2,0:0:0:0:
456,148,74608,1,2,0:3:0:0:
456,148,74699,1,2,0:3:0:0:
386,188,74881,2,0,L|398:240,2,35,2|2|2,0:0|0:3|0:3,0:0:0:0:
352,288,75244,6,0,P|264:308|196:280,1,140,4|4,0:3|0:3,0:0:0:0:
140,264,75790,1,2,0:3:0:0:
92,196,75972,2,0,L|56:152,2,35,2|2|2,0:0|0:3|0:3,0:0:0:0:
148,123,76335,1,2,0:0:0:0:
148,123,76426,1,2,0:3:0:0:
148,123,76517,1,2,0:3:0:0:
216,172,76699,6,0,P|272:176|340:116,1,140,4|2,0:1|0:0,0:0:0:0:
476,32,77426,2,0,L|468:96,2,46.6666666666667,2|2|2,0:0|0:0|0:0,0:0:0:0:
388,96,77790,1,2,0:0:0:0:
388,96,77881,1,2,0:0:0:0:
388,96,77972,2,0,L|372:192,1,70,2|6,0:3|0:3,0:0:0:0:
456,212,78335,2,0,L|452:252,3,23.3333333333333,2|2|2|2,0:0|0:0|0:0|0:0,0:0:0:0:
380,276,78699,2,0,L|300:288,1,70,2|2,0:0|0:0,0:0:0:0:
140,340,79244,1,2,0:0:0:0:
140,340,79335,1,2,0:0:0:0:
140,340,79426,1,2,0:0:0:0:
64,304,79608,6,0,L|52:264,2,35,4|0|0,0:1|0:0|0:0,0:0:0:0:
136,256,79972,2,0,L|124:216,2,35,2|0|0,0:0|0:0|0:0,0:0:0:0:
56,164,80335,6,0,L|48:124,1,35,2|2,0:0|0:0,0:0:0:0:
81,60,80517,2,0,L|73:20,1,35,2|2,0:0|0:0,0:0:0:0:
144,152,80699,2,0,L|136:112,1,35,2|2,0:0|0:0,0:0:0:0:
169,48,80881,2,0,L|161:8,1,35,2|2,0:0|0:0,0:0:0:0:
236,96,81063,2,0,P|288:116|322:206,1,140,4|4,0:1|0:1,0:0:0:0:
448,116,81790,2,0,P|380:60|376:0,1,140,4|4,0:1|0:1,0:0:0:0:
208,44,82517,6,0,L|192:96,3,35,4|0|0|0,0:1|0:0|0:0|0:0,0:0:0:0:
156,144,82881,2,0,L|168:184,3,35,2|2|2|2,0:0|0:3|0:3|0:3,0:0:0:0:
200,248,83244,2,0,L|244:268,3,35,2|2|2|2,0:0|0:3|0:3|0:3,0:0:0:0:
312,264,83608,2,0,L|348:244,3,35,2|2|2|2,0:0|0:3|0:3|0:3,0:0:0:0:
360,168,83972,2,0,P|396:132|488:144,1,140,4|4,0:1|0:3,0:0:0:0:
256,192,84517,12,0,87608,0:0:0:0:
320,144,87790,6,0,L|340:216,1,70,0|0,0:0|0:0,0:0:0:0:
368,292,88154,1,0,0:0:0:0:
444,328,88335,5,2,0:0:0:0:
256,232,88699,1,2,0:0:0:0:
68,328,89063,1,2,0:0:0:0:
120,264,89244,2,0,P|116:220|84:180,1,70,0|2,0:0|0:0,0:0:0:0:
42,138,89608,1,0,0:0:0:0:
68,56,89790,5,2,0:0:0:0:
256,152,90154,1,4,0:0:0:0:
444,56,90517,1,0,0:0:0:0:
256,28,90881,1,0,0:0:0:0:
200,88,91063,5,2,0:0:0:0:
256,152,91244,2,0,L|236:240,1,70,2|0,0:0|0:0,0:0:0:0:
324,208,91608,1,0,0:0:0:0:
240,220,91790,2,0,L|268:308,1,70,2|2,0:0|0:0,0:0:0:0:
180,304,92154,1,0,0:0:0:0:
261,287,92335,2,0,L|244:368,1,70,0|2,0:0|0:0,0:0:0:0:
328,336,92699,1,2,0:0:0:0:
212,216,93063,2,0,L|228:132,2,46.6666666666667,2|2|2,0:0|0:0|0:0,0:0:0:0:
296,180,93426,2,0,P|296:120|232:44,1,140,4|2,0:0|0:0,0:0:0:0:
168,44,93972,1,0,0:0:0:0:
132,120,94154,6,0,P|132:180|60:236,1,140,2|2,0:0|0:0,0:0:0:0:
256,332,94881,1,2,0:0:0:0:
328,292,95063,5,0,0:0:0:0:
408,320,95244,1,2,0:0:0:0:
476,272,95426,1,0,0:0:0:0:
488,188,95608,2,0,P|424:144|292:172,1,210,2|4,0:0|0:0,0:0:0:0:
196,296,96517,1,2,0:0:0:0:
116,328,96699,1,2,0:0:0:0:
40,292,96881,1,2,0:0:0:0:
40,208,97063,6,0,L|120:180,1,70,2|2,0:0|0:0,0:0:0:0:
124,88,97426,2,0,L|200:112,1,70,2|2,0:0|0:0,0:0:0:0:
272,52,97790,2,0,L|356:112,1,70,2|2,0:0|0:0,0:0:0:0:
428,84,98154,2,0,L|444:164,1,70,2|2,0:0|0:0,0:0:0:0:
420,248,98517,6,0,L|408:312,2,35,4|2|2,0:3|0:0|0:0,0:0:0:0:
336,268,98881,2,0,L|324:332,2,35,2|2|2,0:0|0:0|0:0,0:0:0:0:
254,286,99244,1,2,0:0:0:0:
254,286,99335,1,2,0:0:0:0:
254,286,99426,1,2,0:0:0:0:
172,300,99608,1,2,0:0:0:0:
172,300,99699,1,2,0:0:0:0:
172,300,99790,1,2,0:0:0:0:
92,276,99972,6,0,P|64:216|84:136,1,140,4|2,0:1|0:0,0:0:0:0:
112,68,100517,1,2,0:0:0:0:
184,108,100699,2,0,L|272:96,1,70,4|2,0:3|0:0,0:0:0:0:
236,180,101063,2,0,L|336:204,1,70,4|2,0:3|0:0,0:0:0:0:
280,276,101426,1,8,0:3:0:0:
280,276,101608,1,0,0:0:0:0:
352,324,101790,2,0,L|364:364,3,23.3333333333333,2|2|2|2,0:0|0:0|0:0|0:0,0:0:0:0:
372,180,102335,5,2,0:0:0:0:
396,100,102517,1,2,0:0:0:0:
476,72,102699,1,2,0:0:0:0:
396,100,102881,6,0,P|332:92|308:80,1,70,4|0,0:3|0:0,0:0:0:0:
248,60,103244,1,2,0:0:0:0:
164,64,103426,1,2,0:0:0:0:
100,116,103608,1,2,0:0:0:0:
176,152,103790,2,0,L|184:184,3,23.3333333333333,2|2|2|2,0:0|0:0|0:0|0:0,0:0:0:0:
264,152,104154,1,2,0:0:0:0:
336,196,104335,6,0,P|373:209|413:190,1,70,2|2,0:0|0:0,0:0:0:0:
339,300,104699,2,0,P|307:286|272:292,1,70,2|2,0:0|0:0,0:0:0:0:
192,316,105063,1,2,0:3:0:0:
192,316,105426,1,2,0:3:0:0:
40,244,105790,6,0,P|104:232|156:164,1,140,4|2,0:1|0:0,0:0:0:0:
176,96,106335,1,4,0:3:0:0:
312,92,106699,2,0,L|328:48,1,35,2|2,0:0|0:0,0:0:0:0:
384,120,106881,2,0,L|400:76,1,35,2|2,0:0|0:0,0:0:0:0:
456,148,107063,2,0,L|472:104,1,35,2|2,0:0|0:0,0:0:0:0:
472,228,107244,6,0,L|484:280,3,35,4|0|2|2,0:3|0:0|0:0|0:0,0:0:0:0:
403,276,107608,2,0,L|400:320,3,35,2|0|2|2,0:0|0:0|0:0|0:0,0:0:0:0:
324,296,107972,6,0,L|312:332,3,35,2|2|2|2,0:0|0:0|0:0|0:0,0:0:0:0:
236,315,108335,2,0,L|208:344,3,35,2|2|2|2,0:0|0:0|0:0|0:0,0:0:0:0:
164,264,108699,6,0,L|104:252,2,35,4|0|0,0:1|0:0|0:0,0:0:0:0:
228,216,109063,1,2,0:0:0:0:
228,216,109154,1,2,0:3:0:0:
228,216,109244,1,2,0:3:0:0:
186,150,109426,6,0,L|126:138,2,35,2|0|0,0:0|0:0|0:0,0:0:0:0:
253,113,109790,1,2,0:0:0:0:
253,113,109881,1,2,0:3:0:0:
253,113,109972,1,2,0:3:0:0:
203,55,110154,6,0,L|152:44,2,35,4|0|0,0:1|0:0|0:0,0:0:0:0:
104,120,110517,2,0,L|36:124,2,35,2|2|2,0:0|0:3|0:3,0:0:0:0:
100,221,110881,6,0,L|48:244,2,35,2|0|0,0:0|0:0|0:0,0:0:0:0:
147,304,111244,2,0,L|108:352,2,35,2|2|2,0:0|0:3|0:3,0:0:0:0:
248,304,111608,5,4,0:1:0:0:
248,304,111699,1,0,0:0:0:0:
248,304,111790,1,0,0:0:0:0:
328,328,111972,2,0,L|372:320,1,35,2|2,0:0|0:3,0:0:0:0:
376,244,112154,2,0,L|420:236,1,35,2|2,0:3|0:3,0:0:0:0:
421,163,112335,5,2,0:0:0:0:
421,163,112426,1,0,0:0:0:0:
421,163,112517,1,0,0:0:0:0:
455,88,112699,2,0,L|471:52,2,35,2|2|2,0:0|0:3|0:3,0:0:0:0:
380,28,113063,5,4,0:1:0:0:
380,28,113154,1,0,0:0:0:0:
380,28,113244,1,0,0:0:0:0:
296,52,113426,2,0,L|240:44,1,35,0|2,0:0|0:3,0:0:0:0:
180,80,113608,2,0,L|124:72,1,35,2|2,0:3|0:3,0:0:0:0:
228,160,113790,6,0,P|292:164|312:152,2,46.6666666666667,2|2|2,0:0|0:3|0:0,0:0:0:0:
148,204,114154,2,0,P|84:200|64:212,2,46.6666666666667,2|0|2,0:3|0:0|0:3,0:0:0:0:
216,268,114517,5,4,0:1:0:0:
216,268,114790,2,0,L|224:328,1,35,2|4,0:3|0:1,0:0:0:0:
