osu file format v12

[General]
AudioFilename: NON.mp3
AudioLeadIn: 1000
PreviewTime: 61617
Countdown: 0
SampleSet: Soft
StackLeniency: 0.7
Mode: 3
LetterboxInBreaks: 0
SpecialStyle: 0
WidescreenStoryboard: 0

[Editor]
DistanceSpacing: 0.9
BeatDivisor: 4
GridSize: 16

[Metadata]
Title:Piano Concerto No.1 "Scream"
TitleUnicode:ピアノ協奏曲第1番"悲鳴"
Artist:MiddleIsland
ArtistUnicode:MiddleIsland
Creator:Lieselotte
Version:LV.9
Source:
Tags:Nightmare of Nunnally Gen so sokkyokyoku
BeatmapID:246281
BeatmapSetID:90270

[Difficulty]
HPDrainRate:5
CircleSize:7
OverallDifficulty:6
ApproachRate:5
SliderMultiplier:2.1
SliderTickRate:1

[Events]
//Background and Video events
0,0,"BG.jpg",0,0
Video,0,"Nightmare of Nunnally.avi"
//Break Periods
//Storyboard Layer 0 (Background)
//Storyboard Layer 1 (Fail)
//Storyboard Layer 2 (Pass)
//Storyboard Layer 3 (Foreground)
//Storyboard Sound Samples
//Background Colour Transformations
3,100,0,0,0

[TimingPoints]
1436,363.636363636364,4,2,0,30,1,0
62163,363.636363636364,4,2,0,30,1,0

[Colours]
Combo1 : 255,151,255
Combo2 : 191,191,255

[HitObjects]
182,192,1072,1,0,0:0:0:0:
329,192,1072,1,0,0:0:0:0:
402,192,1436,128,0,2163:0:0:0:0:
256,192,1436,1,0,0:0:0:40:crash.wav
36,192,1436,1,0,0:0:0:0:
329,192,2163,1,0,0:0:0:0:
109,192,2163,1,0,0:0:0:0:
475,192,2163,128,0,2708:0:0:0:0:
402,192,3254,1,0,0:0:0:0:
182,192,3254,1,0,0:0:0:0:
36,192,3254,1,0,0:0:0:0:
109,192,3526,1,0,0:0:0:0:
256,192,3526,1,0,0:0:0:0:
329,192,3617,1,0,0:0:0:0:
182,192,3981,1,0,0:0:0:0:
402,192,3981,1,0,0:0:0:0:
329,192,4163,1,0,0:0:0:0:
36,192,4163,128,0,4708:0:0:0:0:
256,192,4708,1,0,0:0:0:0:
109,192,4708,1,0,0:0:0:0:
182,192,4981,1,0,0:0:0:0:
329,192,4981,1,0,0:0:0:0:
402,192,5072,1,0,0:0:0:0:
475,192,5436,1,0,0:0:0:0:
109,192,5436,1,0,0:0:0:0:
329,192,5617,1,0,0:0:0:0:
402,192,5799,1,0,0:0:0:0:
36,192,5799,128,0,6526:0:0:0:0:
182,192,6526,1,0,0:0:0:0:
402,192,6526,128,0,6890:0:0:0:0:
329,192,6890,1,0,0:0:0:0:
256,192,7254,1,0,0:0:0:40:crash.wav
475,192,7254,1,0,0:0:0:0:
36,192,7254,128,0,10163:0:0:0:0:
109,192,9617,1,0,0:0:0:0:
256,192,9799,1,0,0:0:0:0:
402,192,9981,1,0,0:0:0:0:
475,192,10163,1,0,0:0:0:0:
182,192,10345,1,0,0:0:0:0:
402,192,10526,1,0,0:0:0:0:
109,192,10708,1,0,0:0:0:0:
475,192,10890,1,0,0:0:0:0:
182,192,11072,1,0,0:0:0:0:
402,192,11254,1,0,0:0:0:0:
36,192,11436,1,0,0:0:0:0:
329,192,11617,1,0,0:0:0:0:
109,192,11799,1,0,0:0:0:0:
402,192,11981,1,0,0:0:0:0:
182,192,12163,1,0,0:0:0:0:
475,192,12345,1,0,0:0:0:0:
36,192,12526,1,0,0:0:0:0:
182,192,12708,1,0,0:0:0:0:
256,192,12890,1,0,0:0:0:0:
475,192,13072,1,0,0:0:0:0:
109,192,13254,1,0,0:0:0:0:
182,192,13436,1,0,0:0:0:0:
329,192,13617,1,0,0:0:0:0:
475,192,13799,1,0,0:0:0:0:
182,192,13981,1,0,0:0:0:0:
329,192,14163,1,0,0:0:0:0:
109,192,14345,1,0,0:0:0:0:
475,192,14526,1,0,0:0:0:0:
402,192,14708,1,0,0:0:0:0:
36,192,14890,1,0,0:0:0:0:
402,192,15072,1,0,0:0:0:0:
329,192,15254,1,0,0:0:0:0:
109,192,15436,1,0,0:0:0:0:
182,192,15617,1,0,0:0:0:0:
256,192,15799,1,0,0:0:0:0:
402,192,15981,1,0,0:0:0:0:
256,192,16163,1,0,0:0:0:0:
182,192,16345,1,0,0:0:0:0:
256,192,16526,1,0,0:0:0:0:
109,192,16708,1,0,0:0:0:0:
475,192,16890,1,0,0:0:0:0:
402,192,17072,1,0,0:0:0:0:
329,192,17254,1,0,0:0:0:0:
256,192,17436,1,0,0:0:0:0:
109,192,17617,1,0,0:0:0:0:
329,192,17799,1,0,0:0:0:0:
36,192,17981,128,0,18526:0:0:0:0:
256,192,18526,1,0,0:0:0:0:
329,192,18708,1,0,0:0:0:0:
256,192,18890,1,0,0:0:0:0:
182,192,18890,1,0,0:0:0:0:
36,192,19072,1,0,0:0:0:0:
109,192,19254,1,0,0:0:0:0:
36,192,19436,1,0,0:0:0:0:
109,192,19799,1,0,0:0:0:0:
182,192,19981,1,0,0:0:0:0:
256,192,20163,1,0,0:0:0:0:
475,192,20345,1,0,0:0:0:0:
182,192,20526,1,0,0:0:0:0:
402,192,20708,1,0,0:0:0:0:
36,192,20890,1,0,0:0:0:0:
475,192,21072,1,0,0:0:0:0:
109,192,21254,1,0,0:0:0:0:
329,192,21436,1,0,0:0:0:0:
36,192,21617,1,0,0:0:0:0:
182,192,21799,1,0,0:0:0:0:
402,192,21799,1,0,0:0:0:0:
109,192,22163,128,0,22526:0:0:0:0:
36,192,22163,1,0,0:0:0:0:
256,192,22345,1,0,0:0:0:0:
329,192,22526,1,0,0:0:0:0:
475,192,22526,1,0,0:0:0:0:
182,192,22890,128,0,23132:0:0:0:0:
329,192,23254,1,0,0:0:0:0:
402,192,23254,1,0,0:0:0:0:
402,192,23617,128,0,23981:0:0:0:0:
475,192,23617,1,0,0:0:0:0:
182,192,23799,1,0,0:0:0:0:
329,192,23981,1,0,0:0:0:0:
109,192,23981,1,0,0:0:0:0:
402,192,24526,1,0,0:0:0:0:
329,192,24708,1,0,0:0:0:0:
182,192,24708,1,0,0:0:0:0:
256,192,25072,1,0,0:0:0:0:
36,192,25072,128,0,25436:0:0:0:0:
329,192,25254,1,0,0:0:0:0:
402,192,25436,128,0,25678:0:0:0:0:
256,192,25799,1,0,0:0:0:0:
329,192,25981,1,0,0:0:0:0:
402,192,26163,1,0,0:0:0:0:
182,192,26345,128,0,26526:0:0:0:0:
329,192,26708,1,0,0:0:0:0:
182,192,26890,1,0,0:0:0:0:
109,192,27072,1,0,0:0:0:0:
256,192,27254,1,0,0:0:0:0:
329,192,27436,1,0,0:0:0:0:
402,192,27617,1,0,0:0:0:0:
475,192,27617,1,0,0:0:0:0:
256,192,27799,1,0,0:0:0:0:
182,192,27981,1,0,0:0:0:0:
256,192,28163,1,0,0:0:0:0:
109,192,28345,1,0,0:0:0:0:
36,192,28345,1,0,0:0:0:0:
475,192,28526,1,0,0:0:0:0:
402,192,28708,1,0,0:0:0:0:
329,192,28890,1,0,0:0:0:0:
402,192,29072,1,0,0:0:0:0:
182,192,29072,1,0,0:0:0:0:
256,192,29436,128,0,29617:0:0:0:0:
475,192,29799,1,0,0:0:0:0:
36,192,29981,1,0,0:0:0:0:
256,192,30163,1,0,0:0:0:0:
402,192,30345,1,0,0:0:0:0:
109,192,30526,1,0,0:0:0:0:
182,192,30526,128,0,31436:0:0:0:0:
475,192,30890,1,0,0:0:0:0:
402,192,31072,1,0,0:0:0:0:
475,192,31254,1,0,0:0:0:0:
256,192,31436,1,0,0:0:0:0:
329,192,31617,1,0,0:0:0:0:
402,192,31799,1,0,0:0:0:0:
475,192,31981,1,0,0:0:0:0:
182,192,31981,1,0,0:0:0:0:
109,192,32345,1,0,0:0:0:0:
402,192,32345,1,0,0:0:0:0:
182,192,32708,1,0,0:0:0:0:
329,192,32708,1,0,0:0:0:0:
475,192,32708,1,0,0:0:0:0:
36,192,33072,1,0,0:0:0:0:
402,192,33072,128,0,33436:0:0:0:0:
109,192,33436,128,0,34163:0:0:0:40:crash.wav
475,192,34163,128,0,34526:0:0:0:0:
329,192,34526,128,0,34890:0:0:0:0:
36,192,34890,128,0,35254:0:0:0:0:
256,192,35254,1,0,0:0:0:0:
475,192,35254,128,0,35345:0:0:0:0:
182,192,35436,1,0,0:0:0:0:
402,192,35436,128,0,35526:0:0:0:0:
109,192,35617,1,0,0:0:0:0:
329,192,35617,128,0,35708:0:0:0:0:
36,192,35799,1,0,0:0:0:0:
256,192,35799,128,0,35890:0:0:0:0:
182,192,35981,128,0,36072:0:0:0:0:
475,192,35981,1,0,0:0:0:0:
109,192,36163,128,0,36254:0:0:0:0:
402,192,36163,1,0,0:0:0:0:
182,192,36345,1,0,0:0:0:0:
256,192,36526,1,0,0:0:0:0:
329,192,36526,1,0,0:0:0:0:
256,192,36708,1,0,0:0:0:0:
329,192,36708,1,0,0:0:0:0:
256,192,36890,1,0,0:0:0:0:
329,192,36890,1,0,0:0:0:0:
402,192,37072,1,0,0:0:0:0:
182,192,37254,1,0,0:0:0:0:
109,192,37254,1,0,0:0:0:0:
109,192,37436,1,0,0:0:0:0:
182,192,37436,1,0,0:0:0:0:
109,192,37617,1,0,0:0:0:0:
182,192,37617,1,0,0:0:0:0:
36,192,37799,1,0,0:0:0:0:
256,192,37981,1,0,0:0:0:0:
329,192,37981,1,0,0:0:0:0:
402,192,38163,1,0,0:0:0:0:
475,192,38163,1,0,0:0:0:0:
329,192,38345,1,0,0:0:0:0:
256,192,38526,1,0,0:0:0:0:
182,192,38708,1,0,0:0:0:0:
109,192,38890,1,0,0:0:0:0:
256,192,39072,1,0,0:0:0:0:
402,192,39254,1,0,0:0:0:0:
475,192,39254,1,0,0:0:0:40:crash.wav
36,192,39254,128,0,39981:0:0:0:0:
256,192,39981,128,0,40254:0:0:0:0:
329,192,40254,128,0,40526:0:0:0:0:
402,192,40526,128,0,40708:0:0:0:0:
475,192,40708,128,0,40981:0:0:0:0:
402,192,40981,128,0,41254:0:0:0:0:
329,192,41254,128,0,41526:0:0:0:0:
256,192,41526,128,0,41799:0:0:0:0:
182,192,41799,128,0,41981:0:0:0:0:
256,192,41981,1,0,0:0:0:0:
329,192,42163,1,0,0:0:0:0:
182,192,42345,1,0,0:0:0:0:
329,192,42526,128,0,42890:0:0:0:0:
182,192,42890,1,0,0:0:0:0:
182,192,43072,1,0,0:0:0:0:
182,192,43254,1,0,0:0:0:0:
256,192,43436,1,0,0:0:0:0:
329,192,43617,1,0,0:0:0:0:
36,192,43708,1,0,0:0:0:0:
402,192,43799,1,0,0:0:0:0:
109,192,43890,1,0,0:0:0:0:
475,192,43981,1,0,0:0:0:0:
182,192,44072,1,0,0:0:0:0:
182,192,44345,128,0,44466:0:0:0:0:
402,192,44345,128,0,44466:0:0:0:0:
256,192,44587,128,0,44708:0:0:0:0:
109,192,44587,128,0,44708:0:0:0:0:
475,192,44829,128,0,44951:0:0:0:0:
402,192,44829,128,0,44951:0:0:0:0:
182,192,44829,128,0,44951:0:0:0:0:
256,192,45072,128,0,45799:0:0:0:0:
109,192,46163,1,0,0:0:0:0:
329,192,46163,1,0,0:0:0:0:
256,192,46345,1,0,0:0:0:0:
182,192,46526,1,0,0:0:0:0:
475,192,46526,1,0,0:0:0:0:
256,192,46890,1,0,0:0:0:0:
402,192,46890,1,0,0:0:0:0:
329,192,47254,1,0,0:0:0:0:
475,192,47254,1,0,0:0:0:0:
109,192,47254,1,0,0:0:0:0:
182,192,47526,1,0,0:0:0:0:
402,192,47526,1,0,0:0:0:0:
329,192,47799,1,0,0:0:0:0:
36,192,47799,1,0,0:0:0:0:
36,192,47981,1,0,0:0:0:0:
329,192,47981,1,0,0:0:0:0:
109,192,48254,1,0,0:0:0:0:
256,192,48254,1,0,0:0:0:0:
182,192,48345,1,0,0:0:0:0:
329,192,48345,1,0,0:0:0:0:
329,192,48890,1,0,0:0:0:0:
36,192,48890,1,0,0:0:0:0:
256,192,49072,1,0,0:0:0:0:
182,192,49254,1,0,0:0:0:0:
402,192,49254,1,0,0:0:0:0:
329,192,49436,1,0,0:0:0:0:
475,192,49436,1,0,0:0:0:0:
109,192,49436,1,0,0:0:0:0:
256,192,49799,1,0,0:0:0:0:
402,192,49799,1,0,0:0:0:0:
182,192,49981,1,0,0:0:0:0:
109,192,50163,1,0,0:0:0:0:
329,192,50163,1,0,0:0:0:0:
475,192,50163,1,0,0:0:0:0:
475,192,50799,1,0,0:0:0:0:
402,192,50845,1,0,0:0:0:0:
256,192,50890,128,0,51617:0:0:0:40:crash.wav
329,192,50890,1,0,0:0:0:0:
182,192,51799,1,0,0:0:0:0:
402,192,51799,1,0,0:0:0:0:
329,192,51981,1,0,0:0:0:0:
109,192,51981,1,0,0:0:0:0:
256,192,52163,1,0,0:0:0:0:
182,192,52345,1,0,0:0:0:0:
36,192,52345,1,0,0:0:0:0:
329,192,52708,1,0,0:0:0:0:
402,192,52708,1,0,0:0:0:0:
402,192,53254,1,0,0:0:0:0:
182,192,53254,1,0,0:0:0:0:
329,192,53436,1,0,0:0:0:0:
256,192,53617,1,0,0:0:0:0:
109,192,53799,1,0,0:0:0:0:
402,192,53799,1,0,0:0:0:0:
475,192,53799,1,0,0:0:0:40:crash.wav
182,192,54072,1,0,0:0:0:0:
182,192,54163,128,0,54799:0:0:0:0:
475,192,54890,1,0,0:0:0:0:
329,192,55072,1,0,0:0:0:0:
402,192,55254,1,0,0:0:0:0:
36,192,55254,1,0,0:0:0:40:crash.wav
256,192,55526,1,0,0:0:0:0:
256,192,55617,128,0,56617:0:0:0:0:
36,192,56708,128,0,56951:0:0:0:40:crash.wav
329,192,56708,128,0,56951:0:0:0:0:
109,192,57072,128,0,57314:0:0:0:0:
402,192,57072,128,0,57314:0:0:0:0:
182,192,57436,128,0,57678:0:0:0:0:
475,192,57436,128,0,57678:0:0:0:0:
256,192,57799,128,0,58042:0:0:0:0:
36,192,57799,128,0,58042:0:0:0:0:
109,192,58163,128,0,58405:0:0:0:0:
329,192,58163,128,0,58405:0:0:0:0:
402,192,58526,128,0,58769:0:0:0:0:
182,192,58526,128,0,58769:0:0:0:0:
256,192,58890,128,0,59132:0:0:0:0:
475,192,58890,128,0,59132:0:0:0:0:
402,192,59254,1,0,0:0:0:0:
182,192,59254,128,0,59981:0:0:0:0:
36,192,59981,128,0,60708:0:0:0:0:
402,192,60708,1,0,0:0:0:0:
475,192,61072,1,0,0:0:0:0:
329,192,61072,1,0,0:0:0:0:
109,192,61072,1,0,0:0:0:40:crash.wav
329,192,61617,1,0,0:0:0:0:
109,192,61617,1,0,0:0:0:0:
182,192,61799,1,0,0:0:0:0:
402,192,61799,1,0,0:0:0:0:
256,192,61981,1,0,0:0:0:0:
475,192,61981,1,0,0:0:0:0:
402,192,62163,1,0,0:0:0:0:
182,192,62163,1,0,0:0:0:40:crash.wav
329,192,62526,1,0,0:0:0:0:
109,192,62526,1,0,0:0:0:0:
475,192,62526,128,0,63617:0:0:0:0:
256,192,63617,1,0,0:0:0:0:
109,192,63617,1,0,0:0:0:0:
182,192,63981,1,0,0:0:0:0:
402,192,63981,1,0,0:0:0:0:
36,192,63981,128,0,65072:0:0:0:0:
182,192,65072,1,0,0:0:0:0:
256,192,65072,1,0,0:0:0:0:
109,192,65435,1,0,0:0:0:0:
329,192,65435,128,0,65799:0:0:0:0:
182,192,65799,128,0,66041:0:0:0:0:
329,192,66163,128,0,66526:0:0:0:0:
182,192,66526,128,0,67253:0:0:0:0:
109,192,66526,128,0,67253:0:0:0:0:
36,192,67253,1,0,0:0:0:0:
329,192,67253,128,0,67981:0:0:0:0:
475,192,67253,128,0,67981:0:0:0:0:
109,192,67981,1,0,0:0:0:0:
256,192,67981,1,0,0:0:0:40:crash.wav
182,192,68344,1,0,0:0:0:0:
402,192,68344,1,0,0:0:0:0:
329,192,68708,1,0,0:0:0:0:
475,192,68708,1,0,0:0:0:0:
36,192,68708,128,0,69435:0:0:0:0:
182,192,69435,128,0,69799:0:0:0:0:
402,192,69435,1,0,0:0:0:0:
475,192,69435,1,0,0:0:0:0:
329,192,69799,128,0,69981:0:0:0:0:
329,192,70163,1,0,0:0:0:0:
475,192,70163,128,0,70890:0:0:0:0:
182,192,70890,128,0,72163:0:0:0:0:
109,192,70890,128,0,72163:0:0:0:0:
36,192,70890,128,0,72163:0:0:0:0:
329,192,71253,1,0,0:0:0:0:
402,192,71435,1,0,0:0:0:0:
475,192,71617,1,0,0:0:0:0:
402,192,71799,1,0,0:0:0:0:
329,192,71981,1,0,0:0:0:0:
256,192,72163,1,0,0:0:0:0:
329,192,72344,1,0,0:0:0:0:
475,192,72344,1,0,0:0:0:0:
402,192,72708,1,0,0:0:0:0:
329,192,72708,1,0,0:0:0:0:
36,192,72708,1,0,0:0:0:0:
109,192,73072,1,0,0:0:0:0:
182,192,73072,1,0,0:0:0:0:
402,192,73072,1,0,0:0:0:0:
329,192,73435,1,0,0:0:0:0:
475,192,73435,1,0,0:0:0:0:
109,192,73435,1,0,0:0:0:0:
109,192,73799,1,0,0:0:0:0:
329,192,73799,1,0,0:0:0:40:crash.wav
402,192,73799,1,0,0:0:0:0:
256,192,74163,1,0,0:0:0:0:
475,192,74163,1,0,0:0:0:0:
36,192,74163,1,0,0:0:0:0:
182,192,74163,128,0,75253:0:0:0:0:
256,192,75253,1,0,0:0:0:0:
329,192,75253,1,0,0:0:0:0:
256,192,75617,1,0,0:0:0:0:
402,192,75617,1,0,0:0:0:0:
109,192,75617,1,0,0:0:0:0:
475,192,75617,128,0,76708:0:0:0:0:
329,192,76708,1,0,0:0:0:0:
182,192,76708,1,0,0:0:0:0:
36,192,76708,1,0,0:0:0:40:crash.wav
329,192,77072,1,0,0:0:0:0:
475,192,77072,1,0,0:0:0:0:
109,192,77072,1,0,0:0:0:0:
256,192,77072,128,0,77435:0:0:0:0:
475,192,77435,128,0,77678:0:0:0:0:
329,192,77799,128,0,78163:0:0:0:0:
109,192,78163,128,0,78890:0:0:0:0:
36,192,78163,128,0,78890:0:0:0:0:
256,192,78890,1,0,0:0:0:0:
329,192,78890,128,0,79617:0:0:0:0:
402,192,78890,128,0,79617:0:0:0:0:
475,192,78890,128,0,79617:0:0:0:0:
36,192,79617,128,0,79981:0:0:0:0:
402,192,79981,128,0,80344:0:0:0:0:
256,192,80344,128,0,81072:0:0:0:0:
402,192,81072,1,0,0:0:0:0:
475,192,81072,1,0,0:0:0:0:
182,192,81072,1,0,0:0:0:40:crash.wav
36,192,81072,1,0,0:0:0:0:
256,192,81435,1,0,0:0:0:40:crash.wav
109,192,81435,1,0,0:0:0:0:
329,192,81435,128,0,81617:0:0:0:0:
402,192,81799,1,0,0:0:0:40:crash.wav
182,192,81799,1,0,0:0:0:0:
36,192,81799,1,0,0:0:0:0:
329,192,82163,1,0,0:0:0:0:
475,192,82163,1,0,0:0:0:40:crash.wav
109,192,82163,1,0,0:0:0:0:
182,192,82526,1,0,0:0:0:40:crash.wav
36,192,82526,1,0,0:0:0:0:
402,192,82526,1,0,0:0:0:0:
475,192,82526,1,0,0:0:0:0:
256,192,82526,128,0,83981:0:0:0:0:
182,192,83981,1,0,0:0:0:0:
36,192,83981,1,0,0:0:0:0:
475,192,83981,1,0,0:0:0:40:crash.wav
402,192,84344,1,0,0:0:0:0:
329,192,84344,1,0,0:0:0:40:crash.wav
109,192,84344,1,0,0:0:0:0:
475,192,84344,128,0,87799:0:0:0:0:
256,192,87799,1,0,0:0:0:0:
182,192,87981,1,0,0:0:0:0:
256,192,88163,1,0,0:0:0:0:
402,192,88344,128,0,89253:0:0:0:0:
475,192,89253,1,0,0:0:0:0:
329,192,89435,1,0,0:0:0:0:
256,192,89617,1,0,0:0:0:0:
182,192,89799,1,0,0:0:0:0:
109,192,89799,1,0,0:0:0:0:
256,192,90163,128,0,91072:0:0:0:0:
329,192,91072,1,0,0:0:0:0:
256,192,91253,128,0,91799:0:0:0:0:
329,192,91799,1,0,0:0:0:0:
256,192,91981,128,0,92526:0:0:0:0:
329,192,92526,1,0,0:0:0:0:
256,192,92708,128,0,93072:0:0:0:0:
402,192,93072,128,0,93314:0:0:0:0:
109,192,93435,128,0,93799:0:0:0:0:
182,192,93799,1,0,0:0:0:0:
36,192,93981,1,0,0:0:0:0:
402,192,94163,1,0,0:0:0:0:
182,192,94344,1,0,0:0:0:0:
329,192,94526,1,0,0:0:0:0:
109,192,94708,1,0,0:0:0:0:
256,192,94890,1,0,0:0:0:0:
402,192,95072,1,0,0:0:0:0:
182,192,95253,1,0,0:0:0:0:
329,192,95435,1,0,0:0:0:0:
109,192,95617,1,0,0:0:0:0:
36,192,95617,1,0,0:0:0:0:
402,192,95799,1,0,0:0:0:0:
182,192,95981,1,0,0:0:0:0:
329,192,96163,1,0,0:0:0:0:
402,192,96163,1,0,0:0:0:0:
475,192,96163,1,0,0:0:0:0:
36,192,96344,1,0,0:0:0:0:
402,192,96526,1,0,0:0:0:0:
475,192,96526,1,0,0:0:0:0:
256,192,96708,1,0,0:0:0:0:
402,192,96890,1,0,0:0:0:0:
475,192,96890,1,0,0:0:0:0:
109,192,97072,1,0,0:0:0:0:
182,192,97072,1,0,0:0:0:0:
256,192,97253,1,0,0:0:0:0:
329,192,97435,1,0,0:0:0:0:
109,192,97617,1,0,0:0:0:0:
475,192,97799,1,0,0:0:0:0:
36,192,97981,1,0,0:0:0:0:
329,192,98163,1,0,0:0:0:0:
182,192,98344,1,0,0:0:0:0:
329,192,98526,128,0,99435:0:0:0:0:
402,192,98526,128,0,99435:0:0:0:0:
475,192,98526,128,0,99435:0:0:0:0:
36,192,99435,1,0,0:0:0:0:
109,192,99617,1,0,0:0:0:0:
182,192,99799,1,0,0:0:0:0:
256,192,99981,1,0,0:0:0:40:crash.wav
475,192,99981,1,0,0:0:0:0:
109,192,99981,128,0,100708:0:0:0:0:
182,192,100708,1,0,0:0:0:0:
402,192,100708,1,0,0:0:0:0:
256,192,101072,1,0,0:0:0:0:
475,192,101072,1,0,0:0:0:0:
36,192,101072,1,0,0:0:0:0:
402,192,101435,1,0,0:0:0:0:
256,192,101435,1,0,0:0:0:0:
36,192,101435,1,0,0:0:0:0:
329,192,101799,128,0,101981:0:0:0:0:
402,192,102344,1,0,0:0:0:0:
329,192,102526,1,0,0:0:0:0:
402,192,102708,1,0,0:0:0:0:
475,192,102890,1,0,0:0:0:0:
256,192,102890,1,0,0:0:0:0:
36,192,102890,1,0,0:0:0:0:
109,192,103072,1,0,0:0:0:0:
182,192,103253,1,0,0:0:0:0:
256,192,103435,1,0,0:0:0:0:
475,192,103617,1,0,0:0:0:0:
329,192,103799,128,0,103981:0:0:0:0:
402,192,104163,1,0,0:0:0:0:
329,192,104344,1,0,0:0:0:0:
256,192,104526,1,0,0:0:0:0:
182,192,104708,1,0,0:0:0:0:
256,192,104890,1,0,0:0:0:0:
329,192,105072,1,0,0:0:0:0:
475,192,105072,1,0,0:0:0:0:
109,192,105072,1,0,0:0:0:0:
182,192,105435,1,0,0:0:0:0:
256,192,105435,1,0,0:0:0:0:
36,192,105435,1,0,0:0:0:0:
402,192,105435,1,0,0:0:0:0:
475,192,105799,1,0,0:0:0:0:
329,192,105799,1,0,0:0:0:0:
109,192,105799,1,0,0:0:0:40:crash.wav
256,192,106163,1,0,0:0:0:0:
36,192,106163,1,0,0:0:0:0:
109,192,106344,1,0,0:0:0:0:
329,192,106344,1,0,0:0:0:0:
475,192,106344,1,0,0:0:0:0:
256,192,106708,128,0,107253:0:0:0:0:
36,192,107253,1,0,0:0:0:0:
475,192,107253,1,0,0:0:0:0:
109,192,107617,1,0,0:0:0:0:
329,192,107617,1,0,0:0:0:0:
182,192,107981,1,0,0:0:0:0:
36,192,107981,1,0,0:0:0:0:
256,192,108344,1,0,0:0:0:0:
109,192,108344,1,0,0:0:0:0:
402,192,108708,128,0,108890:0:0:0:0:
256,192,108708,128,0,108890:0:0:0:40:crash.wav
36,192,108708,128,0,108890:0:0:0:0:
109,192,109072,128,0,109253:0:0:0:0:
329,192,109072,128,0,109253:0:0:0:0:
475,192,109435,128,0,109617:0:0:0:0:
182,192,109435,128,0,109617:0:0:0:0:
36,192,109435,128,0,109617:0:0:0:0:
256,192,109799,128,0,109981:0:0:0:0:
329,192,109799,128,0,109981:0:0:0:0:
402,192,110163,128,0,110344:0:0:0:0:
182,192,110163,128,0,110344:0:0:0:40:crash.wav
109,192,110163,128,0,110344:0:0:0:0:
256,192,110526,128,0,110708:0:0:0:0:
36,192,110526,128,0,110708:0:0:0:0:
109,192,110890,128,0,111072:0:0:0:0:
329,192,110890,128,0,111072:0:0:0:0:
475,192,110890,128,0,111072:0:0:0:0:
256,192,111253,128,0,111435:0:0:0:0:
182,192,111253,128,0,111435:0:0:0:0:
256,192,111617,128,0,111799:0:0:0:40:crash.wav
402,192,111617,128,0,111799:0:0:0:0:
36,192,111617,128,0,111799:0:0:0:0:
182,192,111981,128,0,112163:0:0:0:0:
402,192,111981,128,0,112163:0:0:0:0:
329,192,112344,128,0,112526:0:0:0:0:
475,192,112344,128,0,112526:0:0:0:0:
109,192,112344,128,0,112526:0:0:0:0:
329,192,112708,128,0,112890:0:0:0:0:
256,192,112708,128,0,112890:0:0:0:0:
256,192,113072,128,0,113253:0:0:0:40:crash.wav
475,192,113072,128,0,113253:0:0:0:0:
36,192,113072,128,0,113253:0:0:0:0:
109,192,113435,128,0,113617:0:0:0:0:
256,192,113435,128,0,113617:0:0:0:0:
182,192,113799,1,0,0:0:0:0:
182,192,113920,1,0,0:0:0:0:
329,192,114041,1,0,0:0:0:0:
329,192,114163,1,0,0:0:0:0:
256,192,114284,1,0,0:0:0:0:
256,192,114405,1,0,0:0:0:0:
402,192,114526,1,0,0:0:0:0:
475,192,114526,1,0,0:0:0:40:crash.wav
256,192,114799,1,0,0:0:0:0:
256,192,114890,128,0,121799:0:0:0:40:crash.wav
