osu file format v12

[General]
AudioFilename: NON.mp3
AudioLeadIn: 1000
PreviewTime: 61617
Countdown: 0
SampleSet: Soft
StackLeniency: 0.7
Mode: 3
LetterboxInBreaks: 0
SpecialStyle: 0
WidescreenStoryboard: 0

[Editor]
DistanceSpacing: 0.9
BeatDivisor: 4
GridSize: 16

[Metadata]
Title:Piano Concerto No.1 "Scream"
TitleUnicode:ピアノ協奏曲第1番"悲鳴"
Artist:MiddleIsland
ArtistUnicode:MiddleIsland
Creator:Lieselotte
Version:LV.31
Source:
Tags:Nightmare of Nunnally Gen so sokkyokyoku
BeatmapID:245086
BeatmapSetID:90270

[Difficulty]
HPDrainRate:7
CircleSize:7
OverallDifficulty:8
ApproachRate:5
SliderMultiplier:2.1
SliderTickRate:1

[Events]
//Background and Video events
0,0,"BG.jpg",0,0
Video,0,"Nightmare of Nunnally.avi"
//Break Periods
//Storyboard Layer 0 (Background)
//Storyboard Layer 1 (Fail)
//Storyboard Layer 2 (Pass)
//Storyboard Layer 3 (Foreground)
//Storyboard Sound Samples
//Background Colour Transformations
3,100,0,0,0

[TimingPoints]
1436,363.636363636364,4,2,0,30,1,0
62163,363.636363636364,4,2,0,30,1,0

[Colours]
Combo1 : 255,151,255
Combo2 : 191,191,255

[HitObjects]
475,192,1072,1,0,0:0:0:0:
329,192,1072,1,0,0:0:0:0:
256,192,1072,1,0,0:0:0:0:
109,192,1072,1,0,0:0:0:0:
182,192,1436,1,0,0:0:0:0:
402,192,1436,1,0,0:0:0:0:
475,192,1436,1,0,0:0:0:40:crash.wav
36,192,1436,128,0,2890:0:0:0:0:
256,192,1526,1,0,0:0:0:0:
182,192,1617,1,0,0:0:0:0:
109,192,1708,1,0,0:0:0:0:
182,192,1799,1,0,0:0:0:0:
256,192,1890,1,0,0:0:0:0:
329,192,1981,1,0,0:0:0:0:
402,192,2072,1,0,0:0:0:0:
109,192,2163,1,0,0:0:0:0:
475,192,2163,1,0,0:0:0:0:
329,192,2163,1,0,0:0:0:0:
256,192,2163,1,0,0:0:0:0:
402,192,2254,1,0,0:0:0:0:
329,192,2345,1,0,0:0:0:0:
256,192,2436,1,0,0:0:0:0:
182,192,2526,1,0,0:0:0:0:
109,192,2617,1,0,0:0:0:0:
182,192,2708,1,0,0:0:0:0:
256,192,2799,1,0,0:0:0:0:
475,192,2890,1,0,0:0:0:0:
402,192,2981,1,0,0:0:0:0:
329,192,3072,1,0,0:0:0:0:
256,192,3163,1,0,0:0:0:0:
182,192,3254,1,0,0:0:0:0:
329,192,3254,1,0,0:0:0:0:
475,192,3254,1,0,0:0:0:0:
36,192,3254,1,0,0:0:0:0:
109,192,3345,1,0,0:0:0:0:
36,192,3436,1,0,0:0:0:0:
109,192,3526,1,0,0:0:0:0:
182,192,3526,1,0,0:0:0:0:
329,192,3526,1,0,0:0:0:0:
256,192,3617,1,0,0:0:0:0:
402,192,3617,1,0,0:0:0:0:
475,192,3617,1,0,0:0:0:0:
36,192,3617,1,0,0:0:0:0:
329,192,3708,1,0,0:0:0:0:
256,192,3799,1,0,0:0:0:0:
182,192,3890,1,0,0:0:0:0:
109,192,3981,1,0,0:0:0:0:
256,192,3981,1,0,0:0:0:0:
329,192,3981,1,0,0:0:0:0:
475,192,3981,1,0,0:0:0:0:
109,192,4163,1,0,0:0:0:0:
256,192,4163,1,0,0:0:0:0:
402,192,4163,1,0,0:0:0:0:
36,192,4345,1,0,0:0:0:0:
109,192,4436,1,0,0:0:0:0:
182,192,4526,1,0,0:0:0:0:
256,192,4617,1,0,0:0:0:0:
182,192,4708,1,0,0:0:0:0:
109,192,4708,1,0,0:0:0:0:
329,192,4708,1,0,0:0:0:0:
475,192,4708,1,0,0:0:0:0:
402,192,4799,1,0,0:0:0:0:
475,192,4890,1,0,0:0:0:0:
402,192,4981,1,0,0:0:0:0:
256,192,4981,1,0,0:0:0:0:
109,192,4981,1,0,0:0:0:0:
36,192,5072,1,0,0:0:0:0:
182,192,5072,1,0,0:0:0:0:
329,192,5072,1,0,0:0:0:0:
402,192,5163,1,0,0:0:0:0:
475,192,5254,1,0,0:0:0:0:
402,192,5345,1,0,0:0:0:0:
329,192,5436,1,0,0:0:0:0:
256,192,5436,1,0,0:0:0:0:
109,192,5436,1,0,0:0:0:0:
329,192,5617,1,0,0:0:0:0:
475,192,5617,1,0,0:0:0:0:
109,192,5617,1,0,0:0:0:0:
402,192,5799,1,0,0:0:0:0:
475,192,5799,1,0,0:0:0:0:
256,192,5799,1,0,0:0:0:0:
182,192,5799,1,0,0:0:0:0:
36,192,5799,1,0,0:0:0:0:
109,192,5890,1,0,0:0:0:0:
36,192,5981,1,0,0:0:0:0:
109,192,6072,1,0,0:0:0:0:
182,192,6163,1,0,0:0:0:0:
256,192,6254,1,0,0:0:0:0:
329,192,6345,1,0,0:0:0:0:
402,192,6436,1,0,0:0:0:0:
475,192,6526,1,0,0:0:0:0:
256,192,6526,1,0,0:0:0:0:
109,192,6526,1,0,0:0:0:0:
36,192,6526,1,0,0:0:0:0:
329,192,6617,1,0,0:0:0:0:
256,192,6708,1,0,0:0:0:0:
182,192,6799,1,0,0:0:0:0:
109,192,6890,1,0,0:0:0:0:
402,192,6890,1,0,0:0:0:0:
182,192,6981,1,0,0:0:0:0:
329,192,6981,1,0,0:0:0:0:
109,192,7072,1,0,0:0:0:0:
402,192,7072,1,0,0:0:0:0:
36,192,7163,1,0,0:0:0:0:
256,192,7163,1,0,0:0:0:0:
109,192,7254,1,0,0:0:0:0:
182,192,7254,1,0,0:0:0:0:
475,192,7254,1,0,0:0:0:40:crash.wav
329,192,7254,128,0,10163:0:0:0:0:
109,192,9617,1,0,0:0:0:0:
256,192,9799,1,0,0:0:0:0:
402,192,9981,1,0,0:0:0:0:
475,192,10163,1,0,0:0:0:0:
182,192,10163,1,0,0:0:0:0:
36,192,10163,1,0,0:0:0:0:
256,192,10345,1,0,0:0:0:0:
402,192,10526,1,0,0:0:0:0:
256,192,10708,1,0,0:0:0:0:
109,192,10890,1,0,0:0:0:0:
475,192,10890,1,0,0:0:0:0:
256,192,11072,1,0,0:0:0:0:
402,192,11254,1,0,0:0:0:0:
329,192,11436,1,0,0:0:0:0:
402,192,11617,1,0,0:0:0:0:
256,192,11617,1,0,0:0:0:0:
182,192,11617,1,0,0:0:0:0:
109,192,11799,1,0,0:0:0:0:
256,192,11981,1,0,0:0:0:0:
182,192,12163,1,0,0:0:0:0:
475,192,12345,1,0,0:0:0:0:
36,192,12526,1,0,0:0:0:0:
109,192,12708,1,0,0:0:0:0:
256,192,12890,1,0,0:0:0:0:
182,192,13072,1,0,0:0:0:0:
36,192,13072,1,0,0:0:0:0:
475,192,13072,1,0,0:0:0:0:
256,192,13254,1,0,0:0:0:0:
329,192,13436,1,0,0:0:0:0:
109,192,13617,1,0,0:0:0:0:
182,192,13799,1,0,0:0:0:0:
402,192,13799,1,0,0:0:0:0:
36,192,13981,1,0,0:0:0:0:
329,192,14163,1,0,0:0:0:0:
182,192,14345,1,0,0:0:0:0:
109,192,14526,1,0,0:0:0:0:
256,192,14526,1,0,0:0:0:0:
475,192,14526,1,0,0:0:0:0:
402,192,14708,1,0,0:0:0:0:
182,192,14890,1,0,0:0:0:0:
402,192,15072,1,0,0:0:0:0:
329,192,15254,1,0,0:0:0:0:
36,192,15436,1,0,0:0:0:0:
182,192,15617,1,0,0:0:0:0:
256,192,15799,1,0,0:0:0:0:
402,192,15981,1,0,0:0:0:0:
109,192,15981,1,0,0:0:0:0:
36,192,15981,1,0,0:0:0:0:
256,192,16163,1,0,0:0:0:0:
182,192,16345,1,0,0:0:0:0:
256,192,16526,1,0,0:0:0:0:
329,192,16708,1,0,0:0:0:0:
109,192,16708,1,0,0:0:0:0:
475,192,16890,1,0,0:0:0:0:
329,192,17072,1,0,0:0:0:0:
256,192,17254,1,0,0:0:0:0:
182,192,17436,1,0,0:0:0:0:
109,192,17436,1,0,0:0:0:0:
402,192,17436,1,0,0:0:0:0:
36,192,17617,1,0,0:0:0:0:
329,192,17799,1,0,0:0:0:0:
109,192,17981,128,0,18526:0:0:0:0:
256,192,18526,1,0,0:0:0:0:
329,192,18708,1,0,0:0:0:0:
256,192,18890,1,0,0:0:0:0:
475,192,18890,1,0,0:0:0:0:
109,192,18890,1,0,0:0:0:0:
36,192,18890,1,0,0:0:0:0:
182,192,19072,1,0,0:0:0:0:
256,192,19254,1,0,0:0:0:0:
182,192,19436,128,0,19799:0:0:0:0:
36,192,19617,128,0,19678:0:0:0:0:
256,192,19799,1,0,0:0:0:0:
329,192,19981,1,0,0:0:0:0:
256,192,20163,1,0,0:0:0:0:
182,192,20345,1,0,0:0:0:0:
109,192,20345,1,0,0:0:0:0:
402,192,20345,128,0,20405:0:0:0:0:
475,192,20345,128,0,20405:0:0:0:0:
256,192,20526,1,0,0:0:0:0:
329,192,20708,128,0,20769:0:0:0:0:
402,192,20708,128,0,20769:0:0:0:0:
36,192,20708,128,0,21436:0:0:0:0:
109,192,20890,1,0,0:0:0:0:
402,192,21072,128,0,21132:0:0:0:0:
475,192,21072,128,0,21132:0:0:0:0:
182,192,21254,1,0,0:0:0:0:
256,192,21436,128,0,21496:0:0:0:0:
329,192,21436,128,0,21496:0:0:0:0:
109,192,21617,1,0,0:0:0:0:
182,192,21799,1,0,0:0:0:0:
402,192,21799,1,0,0:0:0:0:
475,192,21799,1,0,0:0:0:0:
329,192,22163,1,0,0:0:0:0:
256,192,22163,1,0,0:0:0:0:
36,192,22163,1,0,0:0:0:0:
402,192,22163,128,0,22526:0:0:0:0:
109,192,22345,1,0,0:0:0:0:
182,192,22345,1,0,0:0:0:0:
182,192,22526,1,0,0:0:0:0:
329,192,22526,1,0,0:0:0:0:
475,192,22526,1,0,0:0:0:0:
256,192,22890,1,0,0:0:0:0:
329,192,23011,1,0,0:0:0:0:
402,192,23132,1,0,0:0:0:0:
475,192,23254,1,0,0:0:0:0:
329,192,23254,1,0,0:0:0:0:
182,192,23254,1,0,0:0:0:0:
256,192,23617,1,0,0:0:0:0:
402,192,23617,1,0,0:0:0:0:
36,192,23617,1,0,0:0:0:0:
109,192,23617,128,0,23981:0:0:0:0:
402,192,23799,1,0,0:0:0:0:
329,192,23799,1,0,0:0:0:0:
256,192,23981,1,0,0:0:0:0:
182,192,23981,1,0,0:0:0:0:
475,192,23981,1,0,0:0:0:0:
402,192,24526,1,0,0:0:0:0:
329,192,24526,1,0,0:0:0:0:
182,192,24526,1,0,0:0:0:0:
256,192,24708,1,0,0:0:0:0:
475,192,24708,1,0,0:0:0:0:
109,192,24708,1,0,0:0:0:0:
182,192,25072,1,0,0:0:0:0:
402,192,25072,1,0,0:0:0:0:
475,192,25072,1,0,0:0:0:0:
36,192,25072,128,0,25436:0:0:0:0:
256,192,25254,1,0,0:0:0:0:
109,192,25254,1,0,0:0:0:0:
182,192,25436,1,0,0:0:0:0:
329,192,25436,1,0,0:0:0:0:
402,192,25436,1,0,0:0:0:0:
475,192,25557,1,0,0:0:0:0:
402,192,25678,1,0,0:0:0:0:
256,192,25799,1,0,0:0:0:0:
329,192,25981,1,0,0:0:0:0:
402,192,26163,1,0,0:0:0:0:
182,192,26163,1,0,0:0:0:0:
36,192,26163,1,0,0:0:0:0:
329,192,26345,1,0,0:0:0:0:
402,192,26405,1,0,0:0:0:0:
329,192,26466,1,0,0:0:0:0:
256,192,26526,1,0,0:0:0:0:
475,192,26526,128,0,27254:0:0:0:0:
402,192,26708,1,0,0:0:0:0:
182,192,26708,1,0,0:0:0:0:
329,192,26890,1,0,0:0:0:0:
256,192,26890,1,0,0:0:0:0:
109,192,26890,1,0,0:0:0:0:
36,192,27072,1,0,0:0:0:0:
256,192,27254,1,0,0:0:0:0:
402,192,27436,1,0,0:0:0:0:
475,192,27617,1,0,0:0:0:0:
329,192,27617,1,0,0:0:0:0:
256,192,27617,1,0,0:0:0:0:
182,192,27799,1,0,0:0:0:0:
109,192,27981,1,0,0:0:0:0:
329,192,27981,128,0,28526:0:0:0:0:
182,192,28163,1,0,0:0:0:0:
109,192,28345,1,0,0:0:0:0:
36,192,28345,1,0,0:0:0:0:
256,192,28345,1,0,0:0:0:0:
475,192,28526,1,0,0:0:0:0:
402,192,28708,1,0,0:0:0:0:
329,192,28890,1,0,0:0:0:0:
402,192,29072,1,0,0:0:0:0:
182,192,29072,1,0,0:0:0:0:
36,192,29072,1,0,0:0:0:0:
329,192,29436,1,0,0:0:0:0:
182,192,29436,1,0,0:0:0:0:
475,192,29436,128,0,30163:0:0:0:0:
402,192,29496,1,0,0:0:0:0:
256,192,29496,1,0,0:0:0:0:
182,192,29557,1,0,0:0:0:0:
329,192,29557,1,0,0:0:0:0:
256,192,29617,1,0,0:0:0:0:
36,192,29617,1,0,0:0:0:0:
109,192,29799,1,0,0:0:0:0:
182,192,29799,1,0,0:0:0:0:
329,192,29799,1,0,0:0:0:0:
36,192,29981,1,0,0:0:0:0:
182,192,30163,1,0,0:0:0:0:
402,192,30345,1,0,0:0:0:0:
475,192,30526,1,0,0:0:0:0:
256,192,30526,1,0,0:0:0:0:
109,192,30526,1,0,0:0:0:0:
36,192,30526,1,0,0:0:0:0:
329,192,30890,1,0,0:0:0:0:
402,192,30890,1,0,0:0:0:0:
109,192,30890,128,0,31436:0:0:0:0:
182,192,31072,1,0,0:0:0:0:
36,192,31072,1,0,0:0:0:0:
256,192,31254,1,0,0:0:0:0:
329,192,31254,1,0,0:0:0:0:
402,192,31254,1,0,0:0:0:0:
182,192,31436,1,0,0:0:0:0:
329,192,31617,1,0,0:0:0:0:
402,192,31799,1,0,0:0:0:0:
475,192,31981,1,0,0:0:0:0:
329,192,31981,1,0,0:0:0:0:
36,192,31981,1,0,0:0:0:0:
109,192,32345,1,0,0:0:0:0:
256,192,32345,1,0,0:0:0:0:
329,192,32345,128,0,33436:0:0:0:0:
402,192,32708,1,0,0:0:0:0:
256,192,32708,1,0,0:0:0:0:
182,192,32708,1,0,0:0:0:0:
36,192,32708,1,0,0:0:0:0:
109,192,33072,1,0,0:0:0:0:
182,192,33072,1,0,0:0:0:0:
402,192,33072,1,0,0:0:0:0:
475,192,33163,1,0,0:0:0:0:
402,192,33254,1,0,0:0:0:0:
256,192,33345,1,0,0:0:0:0:
182,192,33436,128,0,34436:0:0:0:40:crash.wav
36,192,33526,1,0,0:0:0:0:
109,192,33617,1,0,0:0:0:0:
256,192,33708,1,0,0:0:0:0:
402,192,33799,1,0,0:0:0:0:
329,192,33890,1,0,0:0:0:0:
256,192,33981,1,0,0:0:0:0:
329,192,34072,1,0,0:0:0:0:
402,192,34163,1,0,0:0:0:0:
475,192,34254,1,0,0:0:0:0:
402,192,34345,1,0,0:0:0:0:
256,192,34436,128,0,34890:0:0:0:0:
329,192,34436,1,0,0:0:0:0:
182,192,34526,1,0,0:0:0:0:
329,192,34617,1,0,0:0:0:0:
182,192,34708,1,0,0:0:0:0:
109,192,34799,1,0,0:0:0:0:
36,192,34890,128,0,35254:0:0:0:0:
402,192,34890,128,0,36163:0:0:0:0:
475,192,35254,1,0,0:0:0:0:
182,192,35345,1,0,0:0:0:0:
329,192,35436,1,0,0:0:0:0:
109,192,35526,1,0,0:0:0:0:
256,192,35617,1,0,0:0:0:0:
36,192,35708,1,0,0:0:0:0:
475,192,35799,1,0,0:0:0:0:
109,192,35890,1,0,0:0:0:0:
329,192,35981,1,0,0:0:0:0:
36,192,36072,1,0,0:0:0:0:
256,192,36163,1,0,0:0:0:0:
475,192,36163,128,0,36345:0:0:0:0:
36,192,36254,1,0,0:0:0:0:
109,192,36345,1,0,0:0:0:0:
182,192,36345,1,0,0:0:0:0:
329,192,36345,128,0,36890:0:0:0:0:
256,192,36436,1,0,0:0:0:0:
402,192,36526,1,0,0:0:0:0:
36,192,36526,1,0,0:0:0:0:
256,192,36617,1,0,0:0:0:0:
109,192,36708,1,0,0:0:0:0:
475,192,36708,1,0,0:0:0:0:
402,192,36799,1,0,0:0:0:0:
182,192,36890,128,0,37072:0:0:0:0:
256,192,36890,1,0,0:0:0:0:
36,192,36890,1,0,0:0:0:0:
402,192,36981,1,0,0:0:0:0:
475,192,37072,1,0,0:0:0:0:
109,192,37072,1,0,0:0:0:0:
256,192,37072,128,0,37617:0:0:0:0:
402,192,37163,1,0,0:0:0:0:
475,192,37254,1,0,0:0:0:0:
36,192,37254,1,0,0:0:0:0:
402,192,37345,1,0,0:0:0:0:
475,192,37436,1,0,0:0:0:0:
109,192,37436,1,0,0:0:0:0:
402,192,37526,1,0,0:0:0:0:
36,192,37617,1,0,0:0:0:0:
475,192,37617,1,0,0:0:0:0:
182,192,37617,128,0,37799:0:0:0:0:
402,192,37708,1,0,0:0:0:0:
109,192,37799,1,0,0:0:0:0:
36,192,37799,128,0,38163:0:0:0:0:
475,192,37799,1,0,0:0:0:0:
182,192,37981,1,0,0:0:0:0:
109,192,38163,1,0,0:0:0:0:
402,192,38163,1,0,0:0:0:0:
256,192,38163,128,0,38526:0:0:0:0:
475,192,38254,1,0,0:0:0:0:
402,192,38345,1,0,0:0:0:0:
182,192,38345,1,0,0:0:0:0:
329,192,38526,1,0,0:0:0:0:
109,192,38526,1,0,0:0:0:0:
182,192,38526,128,0,38890:0:0:0:0:
36,192,38708,1,0,0:0:0:0:
402,192,38708,1,0,0:0:0:0:
256,192,38890,1,0,0:0:0:0:
109,192,38890,1,0,0:0:0:0:
329,192,38890,128,0,39799:0:0:0:0:
475,192,39072,1,0,0:0:0:0:
36,192,39072,1,0,0:0:0:0:
182,192,39254,1,0,0:0:0:0:
256,192,39254,1,0,0:0:0:40:crash.wav
402,192,39254,1,0,0:0:0:0:
36,192,39345,1,0,0:0:0:0:
109,192,39436,1,0,0:0:0:0:
182,192,39526,1,0,0:0:0:0:
256,192,39617,1,0,0:0:0:0:
109,192,39708,1,0,0:0:0:0:
256,192,39799,1,0,0:0:0:0:
182,192,39799,128,0,40345:0:0:0:0:
402,192,39890,1,0,0:0:0:0:
475,192,39981,1,0,0:0:0:0:
329,192,40072,1,0,0:0:0:0:
256,192,40163,1,0,0:0:0:0:
402,192,40254,1,0,0:0:0:0:
329,192,40345,1,0,0:0:0:0:
256,192,40345,128,0,40708:0:0:0:0:
109,192,40436,1,0,0:0:0:0:
402,192,40526,1,0,0:0:0:0:
36,192,40617,1,0,0:0:0:0:
329,192,40708,1,0,0:0:0:0:
475,192,40708,128,0,41799:0:0:0:0:
182,192,40799,1,0,0:0:0:0:
36,192,40890,1,0,0:0:0:0:
402,192,40981,1,0,0:0:0:0:
182,192,41072,1,0,0:0:0:0:
36,192,41163,1,0,0:0:0:0:
329,192,41254,1,0,0:0:0:0:
182,192,41345,1,0,0:0:0:0:
36,192,41436,1,0,0:0:0:0:
256,192,41526,1,0,0:0:0:0:
182,192,41617,1,0,0:0:0:0:
36,192,41708,1,0,0:0:0:0:
256,192,41799,1,0,0:0:0:0:
182,192,41799,128,0,42163:0:0:0:0:
109,192,41890,1,0,0:0:0:0:
402,192,41981,1,0,0:0:0:0:
36,192,42072,1,0,0:0:0:0:
329,192,42163,1,0,0:0:0:0:
256,192,42163,128,0,43617:0:0:0:0:
36,192,42345,1,0,0:0:0:0:
36,192,42526,1,0,0:0:0:0:
182,192,42617,1,0,0:0:0:0:
109,192,42708,1,0,0:0:0:0:
36,192,42799,1,0,0:0:0:0:
329,192,42890,1,0,0:0:0:0:
402,192,43072,1,0,0:0:0:0:
402,192,43254,1,0,0:0:0:0:
182,192,43254,1,0,0:0:0:0:
36,192,43254,1,0,0:0:0:0:
109,192,43436,1,0,0:0:0:0:
182,192,43436,1,0,0:0:0:0:
402,192,43436,1,0,0:0:0:0:
475,192,43617,1,0,0:0:0:0:
329,192,43617,128,0,45072:0:0:0:0:
182,192,43708,1,0,0:0:0:0:
256,192,43799,1,0,0:0:0:0:
36,192,43890,1,0,0:0:0:0:
109,192,43981,1,0,0:0:0:0:
36,192,44072,1,0,0:0:0:0:
109,192,44163,1,0,0:0:0:0:
36,192,44254,1,0,0:0:0:0:
109,192,44345,128,0,44466:0:0:0:0:
182,192,44345,128,0,44466:0:0:0:0:
402,192,44345,128,0,44466:0:0:0:0:
475,192,44345,128,0,44466:0:0:0:0:
109,192,44587,128,0,44708:0:0:0:0:
256,192,44587,128,0,44708:0:0:0:0:
402,192,44587,128,0,44708:0:0:0:0:
402,192,44829,128,0,44951:0:0:0:0:
36,192,44829,128,0,44951:0:0:0:0:
182,192,44829,128,0,44951:0:0:0:0:
256,192,44829,128,0,44951:0:0:0:0:
109,192,45072,1,0,0:0:0:0:
256,192,45072,1,0,0:0:0:40:crash.wav
475,192,45072,1,0,0:0:0:0:
36,192,45072,128,0,46163:0:0:0:0:
182,192,45163,1,0,0:0:0:0:
256,192,45254,1,0,0:0:0:0:
329,192,45345,1,0,0:0:0:0:
402,192,45436,1,0,0:0:0:0:
475,192,45526,1,0,0:0:0:0:
109,192,45617,1,0,0:0:0:0:
182,192,45708,1,0,0:0:0:0:
256,192,45799,1,0,0:0:0:0:
109,192,46163,1,0,0:0:0:0:
329,192,46163,1,0,0:0:0:0:
109,192,46345,1,0,0:0:0:0:
256,192,46345,1,0,0:0:0:0:
402,192,46345,1,0,0:0:0:0:
109,192,46526,1,0,0:0:0:0:
256,192,46526,1,0,0:0:0:0:
329,192,46526,1,0,0:0:0:0:
256,192,46890,1,0,0:0:0:0:
402,192,46890,1,0,0:0:0:0:
182,192,46890,1,0,0:0:0:0:
36,192,46890,1,0,0:0:0:0:
109,192,47254,1,0,0:0:0:0:
256,192,47254,1,0,0:0:0:0:
475,192,47254,1,0,0:0:0:0:
402,192,47526,1,0,0:0:0:0:
182,192,47526,1,0,0:0:0:0:
109,192,47526,1,0,0:0:0:0:
109,192,47799,1,0,0:0:0:0:
182,192,47799,1,0,0:0:0:0:
329,192,47799,1,0,0:0:0:0:
329,192,47981,1,0,0:0:0:0:
182,192,47981,1,0,0:0:0:0:
109,192,47981,1,0,0:0:0:0:
475,192,47981,128,0,48708:0:0:0:0:
256,192,48254,1,0,0:0:0:0:
182,192,48254,1,0,0:0:0:0:
36,192,48254,1,0,0:0:0:0:
109,192,48345,1,0,0:0:0:0:
329,192,48345,1,0,0:0:0:0:
402,192,48708,128,0,49436:0:0:0:0:
329,192,48708,1,0,0:0:0:0:
182,192,48708,1,0,0:0:0:0:
256,192,48890,1,0,0:0:0:0:
329,192,48890,1,0,0:0:0:0:
109,192,48890,1,0,0:0:0:0:
182,192,49072,1,0,0:0:0:0:
36,192,49072,1,0,0:0:0:0:
109,192,49254,1,0,0:0:0:0:
256,192,49254,1,0,0:0:0:0:
475,192,49254,1,0,0:0:0:0:
256,192,49436,1,0,0:0:0:0:
182,192,49436,1,0,0:0:0:0:
329,192,49436,128,0,50163:0:0:0:0:
256,192,49799,1,0,0:0:0:0:
402,192,49799,1,0,0:0:0:0:
36,192,49799,1,0,0:0:0:0:
109,192,49981,1,0,0:0:0:0:
182,192,49981,1,0,0:0:0:0:
475,192,49981,1,0,0:0:0:0:
402,192,50163,1,0,0:0:0:0:
182,192,50163,1,0,0:0:0:0:
36,192,50163,1,0,0:0:0:0:
256,192,50163,128,0,50890:0:0:0:0:
475,192,50799,1,0,0:0:0:0:
402,192,50845,1,0,0:0:0:0:
329,192,50890,1,0,0:0:0:40:crash.wav
109,192,50890,1,0,0:0:0:0:
182,192,50890,128,0,52345:0:0:0:0:
36,192,50981,1,0,0:0:0:0:
109,192,51072,1,0,0:0:0:0:
256,192,51163,1,0,0:0:0:0:
329,192,51254,1,0,0:0:0:0:
402,192,51345,1,0,0:0:0:0:
475,192,51436,1,0,0:0:0:0:
402,192,51526,1,0,0:0:0:0:
329,192,51617,1,0,0:0:0:0:
256,192,51617,1,0,0:0:0:0:
109,192,51617,1,0,0:0:0:0:
256,192,51799,1,0,0:0:0:0:
402,192,51799,1,0,0:0:0:0:
36,192,51799,1,0,0:0:0:0:
109,192,51981,1,0,0:0:0:0:
329,192,51981,1,0,0:0:0:0:
402,192,51981,1,0,0:0:0:0:
475,192,52163,1,0,0:0:0:0:
256,192,52163,1,0,0:0:0:0:
109,192,52163,1,0,0:0:0:0:
36,192,52345,1,0,0:0:0:0:
329,192,52345,1,0,0:0:0:0:
402,192,52345,1,0,0:0:0:0:
475,192,52436,1,0,0:0:0:0:
402,192,52526,1,0,0:0:0:0:
329,192,52617,1,0,0:0:0:0:
402,192,52708,1,0,0:0:0:0:
475,192,52708,1,0,0:0:0:0:
256,192,52708,1,0,0:0:0:0:
109,192,52708,1,0,0:0:0:0:
182,192,52799,1,0,0:0:0:0:
109,192,52890,1,0,0:0:0:0:
36,192,52981,1,0,0:0:0:0:
109,192,53072,1,0,0:0:0:0:
36,192,53254,1,0,0:0:0:0:
182,192,53254,1,0,0:0:0:0:
402,192,53254,1,0,0:0:0:0:
109,192,53436,1,0,0:0:0:0:
329,192,53436,1,0,0:0:0:0:
475,192,53436,1,0,0:0:0:0:
182,192,53617,1,0,0:0:0:0:
256,192,53617,1,0,0:0:0:0:
402,192,53617,1,0,0:0:0:0:
329,192,53799,1,0,0:0:0:40:crash.wav
475,192,53799,1,0,0:0:0:0:
109,192,53799,1,0,0:0:0:0:
402,192,53890,1,0,0:0:0:0:
329,192,53981,1,0,0:0:0:0:
256,192,54072,1,0,0:0:0:0:
182,192,54072,1,0,0:0:0:0:
36,192,54072,1,0,0:0:0:0:
109,192,54163,1,0,0:0:0:0:
402,192,54163,128,0,54526:0:0:0:0:
475,192,54163,128,0,54526:0:0:0:0:
36,192,54254,1,0,0:0:0:0:
109,192,54345,1,0,0:0:0:0:
182,192,54436,1,0,0:0:0:0:
256,192,54526,1,0,0:0:0:0:
329,192,54617,1,0,0:0:0:0:
402,192,54708,1,0,0:0:0:0:
475,192,54799,1,0,0:0:0:0:
109,192,54890,1,0,0:0:0:0:
256,192,54890,1,0,0:0:0:0:
402,192,54890,1,0,0:0:0:0:
329,192,54981,1,0,0:0:0:0:
36,192,55072,1,0,0:0:0:0:
402,192,55072,1,0,0:0:0:0:
256,192,55072,1,0,0:0:0:0:
182,192,55163,1,0,0:0:0:0:
256,192,55254,1,0,0:0:0:0:
109,192,55254,1,0,0:0:0:0:
36,192,55254,1,0,0:0:0:0:
475,192,55254,1,0,0:0:0:40:crash.wav
329,192,55345,1,0,0:0:0:0:
402,192,55436,1,0,0:0:0:0:
329,192,55526,1,0,0:0:0:0:
109,192,55526,1,0,0:0:0:0:
182,192,55617,1,0,0:0:0:0:
402,192,55617,1,0,0:0:0:0:
36,192,55617,128,0,56708:0:0:0:0:
475,192,55617,128,0,56708:0:0:0:0:
256,192,55708,1,0,0:0:0:0:
182,192,55799,1,0,0:0:0:0:
109,192,55890,1,0,0:0:0:0:
182,192,55981,1,0,0:0:0:0:
256,192,56072,1,0,0:0:0:0:
329,192,56163,1,0,0:0:0:0:
402,192,56254,1,0,0:0:0:0:
109,192,56345,1,0,0:0:0:0:
182,192,56436,1,0,0:0:0:0:
256,192,56526,1,0,0:0:0:0:
329,192,56617,1,0,0:0:0:0:
402,192,56708,1,0,0:0:0:0:
109,192,56708,128,0,56829:0:0:0:0:
182,192,56708,128,0,56829:0:0:0:40:crash.wav
256,192,56829,1,0,0:0:0:0:
329,192,56829,1,0,0:0:0:0:
402,192,56951,1,0,0:0:0:0:
475,192,56951,1,0,0:0:0:0:
329,192,57072,1,0,0:0:0:0:
36,192,57072,128,0,57193:0:0:0:0:
109,192,57072,128,0,57193:0:0:0:0:
182,192,57193,1,0,0:0:0:0:
256,192,57193,1,0,0:0:0:0:
329,192,57314,1,0,0:0:0:0:
402,192,57314,1,0,0:0:0:0:
256,192,57436,1,0,0:0:0:0:
475,192,57436,128,0,57557:0:0:0:0:
36,192,57436,128,0,57557:0:0:0:0:
109,192,57557,1,0,0:0:0:0:
182,192,57557,1,0,0:0:0:0:
256,192,57678,1,0,0:0:0:0:
329,192,57678,1,0,0:0:0:0:
109,192,57799,1,0,0:0:0:0:
402,192,57799,128,0,57920:0:0:0:0:
475,192,57799,128,0,57920:0:0:0:0:
182,192,57920,1,0,0:0:0:0:
256,192,57920,1,0,0:0:0:0:
109,192,58042,1,0,0:0:0:0:
36,192,58042,1,0,0:0:0:0:
182,192,58163,128,0,58284:0:0:0:0:
402,192,58163,128,0,58284:0:0:0:0:
475,192,58163,1,0,0:0:0:0:
256,192,58284,1,0,0:0:0:0:
329,192,58284,1,0,0:0:0:0:
182,192,58405,1,0,0:0:0:0:
109,192,58405,1,0,0:0:0:0:
36,192,58526,128,0,58648:0:0:0:0:
256,192,58526,128,0,58648:0:0:0:0:
475,192,58526,1,0,0:0:0:0:
402,192,58648,1,0,0:0:0:0:
329,192,58648,1,0,0:0:0:0:
256,192,58769,1,0,0:0:0:0:
182,192,58769,1,0,0:0:0:0:
109,192,58890,128,0,59011:0:0:0:0:
329,192,58890,128,0,59011:0:0:0:0:
36,192,58890,1,0,0:0:0:0:
475,192,59011,1,0,0:0:0:0:
402,192,59011,1,0,0:0:0:0:
256,192,59132,1,0,0:0:0:0:
329,192,59132,1,0,0:0:0:0:
182,192,59254,1,0,0:0:0:0:
109,192,59254,1,0,0:0:0:0:
402,192,59254,128,0,61072:0:0:0:0:
475,192,59254,128,0,61072:0:0:0:0:
36,192,59345,1,0,0:0:0:0:
109,192,59436,1,0,0:0:0:0:
182,192,59526,1,0,0:0:0:0:
256,192,59617,1,0,0:0:0:0:
329,192,59708,1,0,0:0:0:0:
256,192,59799,1,0,0:0:0:0:
182,192,59890,1,0,0:0:0:0:
109,192,59981,1,0,0:0:0:0:
182,192,60072,1,0,0:0:0:0:
109,192,60163,1,0,0:0:0:0:
36,192,60254,1,0,0:0:0:0:
109,192,60345,1,0,0:0:0:0:
182,192,60436,1,0,0:0:0:0:
256,192,60526,1,0,0:0:0:0:
329,192,60617,1,0,0:0:0:0:
256,192,60708,1,0,0:0:0:0:
182,192,60708,1,0,0:0:0:0:
36,192,60708,1,0,0:0:0:0:
329,192,61072,1,0,0:0:0:0:
182,192,61072,1,0,0:0:0:40:crash.wav
109,192,61072,1,0,0:0:0:0:
36,192,61072,128,0,62163:0:0:0:0:
109,192,61617,1,0,0:0:0:0:
182,192,61617,1,0,0:0:0:0:
329,192,61617,1,0,0:0:0:0:
182,192,61799,1,0,0:0:0:0:
256,192,61799,1,0,0:0:0:0:
402,192,61799,1,0,0:0:0:0:
109,192,61981,1,0,0:0:0:0:
329,192,61981,1,0,0:0:0:0:
475,192,61981,1,0,0:0:0:0:
475,192,62163,1,0,0:0:0:0:
402,192,62163,1,0,0:0:0:0:
256,192,62163,1,0,0:0:0:40:crash.wav
109,192,62163,1,0,0:0:0:0:
182,192,62253,1,0,0:0:0:0:
256,192,62344,1,0,0:0:0:0:
329,192,62435,1,0,0:0:0:0:
475,192,62526,1,0,0:0:0:0:
256,192,62526,1,0,0:0:0:0:
402,192,62526,128,0,63617:0:0:0:0:
182,192,62617,1,0,0:0:0:0:
109,192,62708,1,0,0:0:0:0:
36,192,62799,1,0,0:0:0:0:
109,192,62890,1,0,0:0:0:0:
182,192,62981,1,0,0:0:0:0:
256,192,63072,1,0,0:0:0:0:
182,192,63163,1,0,0:0:0:0:
109,192,63253,1,0,0:0:0:0:
182,192,63344,1,0,0:0:0:0:
256,192,63435,1,0,0:0:0:0:
329,192,63526,1,0,0:0:0:0:
256,192,63617,1,0,0:0:0:0:
475,192,63617,1,0,0:0:0:0:
182,192,63617,1,0,0:0:0:0:
36,192,63617,1,0,0:0:0:0:
329,192,63708,1,0,0:0:0:0:
402,192,63799,1,0,0:0:0:0:
475,192,63890,1,0,0:0:0:0:
402,192,63981,1,0,0:0:0:0:
256,192,63981,1,0,0:0:0:0:
182,192,63981,1,0,0:0:0:0:
36,192,63981,128,0,65072:0:0:0:0:
329,192,64072,1,0,0:0:0:0:
256,192,64163,1,0,0:0:0:0:
182,192,64253,1,0,0:0:0:0:
256,192,64344,1,0,0:0:0:0:
329,192,64435,1,0,0:0:0:0:
256,192,64526,1,0,0:0:0:0:
182,192,64617,1,0,0:0:0:0:
109,192,64708,1,0,0:0:0:0:
182,192,64799,1,0,0:0:0:0:
256,192,64890,1,0,0:0:0:0:
329,192,64981,1,0,0:0:0:0:
475,192,65072,1,0,0:0:0:0:
402,192,65072,1,0,0:0:0:0:
256,192,65072,1,0,0:0:0:0:
109,192,65072,1,0,0:0:0:0:
182,192,65163,1,0,0:0:0:0:
256,192,65253,1,0,0:0:0:0:
329,192,65344,1,0,0:0:0:0:
402,192,65435,1,0,0:0:0:0:
475,192,65435,1,0,0:0:0:0:
256,192,65435,1,0,0:0:0:0:
36,192,65435,1,0,0:0:0:0:
182,192,65435,128,0,65799:0:0:0:0:
329,192,65526,1,0,0:0:0:0:
402,192,65617,1,0,0:0:0:0:
475,192,65708,1,0,0:0:0:0:
329,192,65799,1,0,0:0:0:0:
109,192,65799,1,0,0:0:0:0:
36,192,65920,1,0,0:0:0:0:
402,192,65920,1,0,0:0:0:0:
109,192,66041,1,0,0:0:0:0:
329,192,66041,1,0,0:0:0:0:
256,192,66163,1,0,0:0:0:0:
182,192,66253,1,0,0:0:0:0:
256,192,66344,1,0,0:0:0:0:
329,192,66435,1,0,0:0:0:0:
402,192,66526,1,0,0:0:0:0:
256,192,66526,1,0,0:0:0:0:
109,192,66526,128,0,66708:0:0:0:0:
475,192,66526,128,0,67253:0:0:0:0:
182,192,66708,1,0,0:0:0:0:
329,192,66769,1,0,0:0:0:0:
256,192,66829,1,0,0:0:0:0:
182,192,66890,1,0,0:0:0:0:
36,192,66890,1,0,0:0:0:0:
402,192,67072,1,0,0:0:0:0:
329,192,67072,1,0,0:0:0:0:
109,192,67072,1,0,0:0:0:0:
256,192,67253,1,0,0:0:0:0:
182,192,67253,1,0,0:0:0:0:
109,192,67344,1,0,0:0:0:0:
36,192,67435,1,0,0:0:0:0:
109,192,67526,1,0,0:0:0:0:
182,192,67617,1,0,0:0:0:0:
36,192,67617,1,0,0:0:0:0:
109,192,67708,1,0,0:0:0:0:
256,192,67708,1,0,0:0:0:0:
182,192,67799,1,0,0:0:0:0:
329,192,67799,1,0,0:0:0:0:
256,192,67890,1,0,0:0:0:0:
402,192,67890,1,0,0:0:0:0:
329,192,67981,1,0,0:0:0:40:crash.wav
475,192,67981,1,0,0:0:0:0:
36,192,67981,1,0,0:0:0:0:
109,192,68072,1,0,0:0:0:0:
182,192,68163,1,0,0:0:0:0:
109,192,68253,1,0,0:0:0:0:
36,192,68344,1,0,0:0:0:0:
256,192,68344,1,0,0:0:0:0:
402,192,68344,1,0,0:0:0:0:
109,192,68435,1,0,0:0:0:0:
182,192,68526,1,0,0:0:0:0:
109,192,68617,1,0,0:0:0:0:
36,192,68708,1,0,0:0:0:0:
256,192,68708,1,0,0:0:0:0:
329,192,68708,1,0,0:0:0:0:
475,192,68708,1,0,0:0:0:0:
402,192,68799,1,0,0:0:0:0:
329,192,68890,1,0,0:0:0:0:
256,192,68981,1,0,0:0:0:0:
182,192,69072,1,0,0:0:0:0:
329,192,69072,1,0,0:0:0:0:
402,192,69163,1,0,0:0:0:0:
109,192,69163,1,0,0:0:0:0:
36,192,69253,1,0,0:0:0:0:
329,192,69253,1,0,0:0:0:0:
256,192,69344,1,0,0:0:0:0:
109,192,69344,1,0,0:0:0:0:
182,192,69435,1,0,0:0:0:0:
329,192,69435,1,0,0:0:0:0:
402,192,69435,1,0,0:0:0:0:
109,192,69526,1,0,0:0:0:0:
36,192,69617,1,0,0:0:0:0:
109,192,69708,1,0,0:0:0:0:
182,192,69799,1,0,0:0:0:0:
402,192,69799,1,0,0:0:0:0:
475,192,69859,1,0,0:0:0:0:
256,192,69859,1,0,0:0:0:0:
182,192,69920,1,0,0:0:0:0:
402,192,69920,1,0,0:0:0:0:
329,192,69981,1,0,0:0:0:0:
109,192,69981,1,0,0:0:0:0:
36,192,69981,1,0,0:0:0:0:
329,192,70163,1,0,0:0:0:0:
256,192,70163,1,0,0:0:0:0:
109,192,70163,1,0,0:0:0:0:
475,192,70163,128,0,70890:0:0:0:0:
182,192,70253,1,0,0:0:0:0:
256,192,70344,1,0,0:0:0:0:
182,192,70435,1,0,0:0:0:0:
109,192,70526,1,0,0:0:0:0:
36,192,70617,1,0,0:0:0:0:
109,192,70708,1,0,0:0:0:0:
182,192,70799,1,0,0:0:0:0:
256,192,70890,1,0,0:0:0:0:
402,192,70890,1,0,0:0:0:0:
36,192,70890,1,0,0:0:0:0:
329,192,70981,1,0,0:0:0:0:
109,192,71072,1,0,0:0:0:0:
402,192,71163,1,0,0:0:0:0:
182,192,71253,1,0,0:0:0:0:
329,192,71344,1,0,0:0:0:0:
36,192,71435,1,0,0:0:0:0:
256,192,71526,1,0,0:0:0:0:
182,192,71617,1,0,0:0:0:0:
329,192,71617,1,0,0:0:0:0:
402,192,71617,1,0,0:0:0:0:
36,192,71708,1,0,0:0:0:0:
109,192,71799,1,0,0:0:0:0:
256,192,71799,1,0,0:0:0:0:
329,192,71799,1,0,0:0:0:0:
36,192,71890,1,0,0:0:0:0:
182,192,71981,1,0,0:0:0:0:
329,192,71981,1,0,0:0:0:0:
402,192,71981,1,0,0:0:0:0:
36,192,72072,1,0,0:0:0:0:
256,192,72163,1,0,0:0:0:0:
402,192,72163,1,0,0:0:0:0:
475,192,72163,1,0,0:0:0:0:
36,192,72253,1,0,0:0:0:0:
109,192,72344,1,0,0:0:0:0:
182,192,72344,1,0,0:0:0:0:
329,192,72344,1,0,0:0:0:0:
475,192,72344,1,0,0:0:0:0:
256,192,72435,1,0,0:0:0:0:
182,192,72526,1,0,0:0:0:0:
256,192,72617,1,0,0:0:0:0:
329,192,72708,1,0,0:0:0:0:
402,192,72708,1,0,0:0:0:0:
182,192,72708,1,0,0:0:0:0:
36,192,72708,1,0,0:0:0:0:
475,192,72799,1,0,0:0:0:0:
402,192,72890,1,0,0:0:0:0:
329,192,72981,1,0,0:0:0:0:
402,192,73072,1,0,0:0:0:0:
475,192,73072,1,0,0:0:0:0:
256,192,73072,1,0,0:0:0:0:
182,192,73072,1,0,0:0:0:0:
109,192,73163,1,0,0:0:0:0:
36,192,73253,1,0,0:0:0:0:
109,192,73344,1,0,0:0:0:0:
36,192,73435,1,0,0:0:0:0:
182,192,73435,1,0,0:0:0:0:
329,192,73435,1,0,0:0:0:0:
402,192,73435,1,0,0:0:0:0:
256,192,73526,1,0,0:0:0:0:
329,192,73617,1,0,0:0:0:0:
109,192,73617,1,0,0:0:0:0:
182,192,73708,1,0,0:0:0:0:
402,192,73708,1,0,0:0:0:0:
475,192,73799,1,0,0:0:0:0:
329,192,73799,1,0,0:0:0:0:
256,192,73799,1,0,0:0:0:40:crash.wav
109,192,73799,1,0,0:0:0:0:
182,192,73890,1,0,0:0:0:0:
109,192,73981,1,0,0:0:0:0:
36,192,74072,1,0,0:0:0:0:
109,192,74163,1,0,0:0:0:0:
475,192,74163,1,0,0:0:0:0:
402,192,74163,128,0,75253:0:0:0:0:
182,192,74253,1,0,0:0:0:0:
256,192,74344,1,0,0:0:0:0:
329,192,74435,1,0,0:0:0:0:
475,192,74526,1,0,0:0:0:0:
329,192,74617,1,0,0:0:0:0:
256,192,74708,1,0,0:0:0:0:
182,192,74799,1,0,0:0:0:0:
109,192,74890,1,0,0:0:0:0:
182,192,74981,1,0,0:0:0:0:
256,192,75072,1,0,0:0:0:0:
329,192,75163,1,0,0:0:0:0:
475,192,75253,1,0,0:0:0:0:
256,192,75253,1,0,0:0:0:0:
182,192,75253,1,0,0:0:0:0:
36,192,75253,1,0,0:0:0:0:
329,192,75344,1,0,0:0:0:0:
402,192,75435,1,0,0:0:0:0:
475,192,75526,1,0,0:0:0:0:
402,192,75617,1,0,0:0:0:0:
256,192,75617,1,0,0:0:0:0:
182,192,75617,1,0,0:0:0:0:
36,192,75617,128,0,76708:0:0:0:0:
329,192,75708,1,0,0:0:0:0:
256,192,75799,1,0,0:0:0:0:
182,192,75890,1,0,0:0:0:0:
109,192,75981,1,0,0:0:0:0:
475,192,76072,1,0,0:0:0:0:
402,192,76163,1,0,0:0:0:0:
475,192,76253,1,0,0:0:0:0:
109,192,76344,1,0,0:0:0:0:
182,192,76435,1,0,0:0:0:0:
256,192,76526,1,0,0:0:0:0:
329,192,76617,1,0,0:0:0:0:
402,192,76708,1,0,0:0:0:0:
475,192,76708,1,0,0:0:0:0:
256,192,76708,1,0,0:0:0:40:crash.wav
109,192,76708,1,0,0:0:0:0:
182,192,76799,1,0,0:0:0:0:
256,192,76890,1,0,0:0:0:0:
329,192,76981,1,0,0:0:0:0:
402,192,77072,1,0,0:0:0:0:
475,192,77072,1,0,0:0:0:0:
256,192,77072,1,0,0:0:0:0:
36,192,77072,1,0,0:0:0:0:
182,192,77072,128,0,77435:0:0:0:0:
329,192,77163,1,0,0:0:0:0:
402,192,77253,1,0,0:0:0:0:
475,192,77344,1,0,0:0:0:0:
109,192,77435,1,0,0:0:0:0:
329,192,77435,1,0,0:0:0:0:
36,192,77556,1,0,0:0:0:0:
475,192,77556,1,0,0:0:0:0:
182,192,77678,1,0,0:0:0:0:
402,192,77678,1,0,0:0:0:0:
256,192,77799,1,0,0:0:0:0:
109,192,77799,1,0,0:0:0:0:
36,192,77890,1,0,0:0:0:0:
182,192,77890,1,0,0:0:0:0:
109,192,77981,1,0,0:0:0:0:
256,192,77981,1,0,0:0:0:0:
182,192,78072,1,0,0:0:0:0:
329,192,78072,1,0,0:0:0:0:
402,192,78163,1,0,0:0:0:0:
256,192,78163,1,0,0:0:0:0:
36,192,78163,128,0,78344:0:0:0:0:
475,192,78163,128,0,78890:0:0:0:0:
109,192,78344,1,0,0:0:0:0:
329,192,78344,1,0,0:0:0:0:
402,192,78405,1,0,0:0:0:0:
182,192,78405,1,0,0:0:0:0:
109,192,78466,1,0,0:0:0:0:
329,192,78466,1,0,0:0:0:0:
256,192,78526,1,0,0:0:0:0:
36,192,78526,1,0,0:0:0:0:
182,192,78708,1,0,0:0:0:0:
329,192,78708,1,0,0:0:0:0:
256,192,78890,1,0,0:0:0:0:
109,192,78890,1,0,0:0:0:0:
329,192,78981,1,0,0:0:0:0:
36,192,78981,1,0,0:0:0:0:
109,192,79072,1,0,0:0:0:0:
402,192,79072,1,0,0:0:0:0:
475,192,79163,1,0,0:0:0:0:
182,192,79163,1,0,0:0:0:0:
256,192,79253,1,0,0:0:0:0:
36,192,79253,1,0,0:0:0:0:
109,192,79344,1,0,0:0:0:0:
329,192,79344,1,0,0:0:0:0:
182,192,79435,1,0,0:0:0:0:
402,192,79435,1,0,0:0:0:0:
256,192,79526,1,0,0:0:0:0:
475,192,79526,1,0,0:0:0:0:
329,192,79617,1,0,0:0:0:40:crash.wav
402,192,79617,1,0,0:0:0:0:
36,192,79617,128,0,80344:0:0:0:0:
182,192,79708,1,0,0:0:0:0:
256,192,79799,1,0,0:0:0:0:
182,192,79890,1,0,0:0:0:0:
109,192,79981,1,0,0:0:0:0:
402,192,79981,1,0,0:0:0:0:
475,192,79981,1,0,0:0:0:0:
182,192,80072,1,0,0:0:0:0:
256,192,80163,1,0,0:0:0:0:
182,192,80253,1,0,0:0:0:0:
109,192,80344,1,0,0:0:0:0:
256,192,80344,1,0,0:0:0:0:
329,192,80344,1,0,0:0:0:0:
475,192,80344,1,0,0:0:0:0:
402,192,80435,1,0,0:0:0:0:
329,192,80526,1,0,0:0:0:0:
256,192,80617,1,0,0:0:0:0:
329,192,80708,1,0,0:0:0:0:
182,192,80708,1,0,0:0:0:0:
109,192,80799,1,0,0:0:0:0:
402,192,80799,1,0,0:0:0:0:
329,192,80890,1,0,0:0:0:0:
36,192,80890,1,0,0:0:0:0:
109,192,80981,1,0,0:0:0:0:
256,192,80981,1,0,0:0:0:0:
182,192,81072,1,0,0:0:0:0:
329,192,81072,1,0,0:0:0:40:crash.wav
402,192,81072,1,0,0:0:0:0:
475,192,81072,128,0,81435:0:0:0:0:
256,192,81163,1,0,0:0:0:0:
182,192,81253,1,0,0:0:0:0:
109,192,81344,1,0,0:0:0:0:
182,192,81435,1,0,0:0:0:0:
36,192,81435,1,0,0:0:0:40:crash.wav
402,192,81435,128,0,81799:0:0:0:0:
256,192,81496,1,0,0:0:0:0:
182,192,81556,1,0,0:0:0:0:
109,192,81617,1,0,0:0:0:0:
329,192,81799,128,0,82163:0:0:0:0:
256,192,81799,1,0,0:0:0:40:crash.wav
475,192,81799,1,0,0:0:0:0:
182,192,81799,1,0,0:0:0:0:
109,192,81890,1,0,0:0:0:0:
36,192,81981,1,0,0:0:0:0:
109,192,82072,1,0,0:0:0:0:
256,192,82163,128,0,82526:0:0:0:0:
182,192,82163,1,0,0:0:0:40:crash.wav
402,192,82163,1,0,0:0:0:0:
475,192,82253,1,0,0:0:0:0:
402,192,82344,1,0,0:0:0:0:
329,192,82435,1,0,0:0:0:0:
182,192,82526,128,0,83253:0:0:0:0:
402,192,82526,1,0,0:0:0:0:
475,192,82526,1,0,0:0:0:0:
36,192,82526,1,0,0:0:0:40:crash.wav
329,192,82617,1,0,0:0:0:0:
402,192,82708,1,0,0:0:0:0:
475,192,82799,1,0,0:0:0:0:
402,192,82890,1,0,0:0:0:0:
329,192,82981,1,0,0:0:0:0:
256,192,83072,1,0,0:0:0:0:
329,192,83163,1,0,0:0:0:0:
36,192,83253,128,0,83981:0:0:0:0:
402,192,83253,1,0,0:0:0:0:
475,192,83344,1,0,0:0:0:0:
109,192,83435,1,0,0:0:0:0:
182,192,83526,1,0,0:0:0:0:
256,192,83617,1,0,0:0:0:0:
329,192,83708,1,0,0:0:0:0:
402,192,83799,1,0,0:0:0:0:
475,192,83890,1,0,0:0:0:0:
402,192,83981,1,0,0:0:0:0:
329,192,83981,1,0,0:0:0:0:
182,192,83981,1,0,0:0:0:40:crash.wav
109,192,83981,1,0,0:0:0:0:
256,192,84344,1,0,0:0:0:40:crash.wav
402,192,84344,1,0,0:0:0:0:
182,192,84344,1,0,0:0:0:0:
36,192,84344,1,0,0:0:0:0:
475,192,84344,128,0,88344:0:0:0:0:
256,192,87799,1,0,0:0:0:0:
182,192,87981,1,0,0:0:0:0:
256,192,88163,1,0,0:0:0:0:
402,192,88344,1,0,0:0:0:0:
36,192,88344,1,0,0:0:0:0:
182,192,88526,1,0,0:0:0:0:
329,192,88708,1,0,0:0:0:0:
109,192,88890,1,0,0:0:0:0:
256,192,89072,1,0,0:0:0:0:
475,192,89253,1,0,0:0:0:0:
36,192,89253,1,0,0:0:0:0:
182,192,89435,1,0,0:0:0:0:
402,192,89435,1,0,0:0:0:0:
329,192,89617,1,0,0:0:0:0:
109,192,89617,1,0,0:0:0:0:
182,192,89799,1,0,0:0:0:0:
256,192,89799,1,0,0:0:0:0:
475,192,89799,1,0,0:0:0:0:
36,192,89981,1,0,0:0:0:0:
256,192,90163,1,0,0:0:0:0:
402,192,90163,1,0,0:0:0:0:
109,192,90344,1,0,0:0:0:0:
329,192,90526,1,0,0:0:0:0:
36,192,90708,1,0,0:0:0:0:
256,192,90890,1,0,0:0:0:0:
182,192,91072,1,0,0:0:0:0:
475,192,91072,1,0,0:0:0:0:
109,192,91253,1,0,0:0:0:0:
402,192,91253,128,0,91799:0:0:0:0:
182,192,91435,1,0,0:0:0:0:
256,192,91617,1,0,0:0:0:0:
475,192,91799,1,0,0:0:0:0:
182,192,91799,1,0,0:0:0:0:
402,192,91981,128,0,92526:0:0:0:0:
36,192,91981,1,0,0:0:0:0:
182,192,92163,1,0,0:0:0:0:
256,192,92344,1,0,0:0:0:0:
182,192,92526,1,0,0:0:0:0:
475,192,92526,1,0,0:0:0:0:
402,192,92708,1,0,0:0:0:0:
109,192,92708,128,0,93072:0:0:0:0:
329,192,92890,1,0,0:0:0:0:
182,192,93072,1,0,0:0:0:0:
256,192,93072,1,0,0:0:0:0:
329,192,93193,1,0,0:0:0:0:
256,192,93314,1,0,0:0:0:0:
475,192,93435,1,0,0:0:0:0:
36,192,93435,128,0,93799:0:0:0:0:
329,192,93617,1,0,0:0:0:0:
109,192,93617,1,0,0:0:0:0:
182,192,93799,1,0,0:0:0:0:
256,192,93799,1,0,0:0:0:0:
402,192,93799,1,0,0:0:0:0:
109,192,93981,1,0,0:0:0:0:
182,192,94163,1,0,0:0:0:0:
36,192,94163,1,0,0:0:0:0:
109,192,94344,1,0,0:0:0:0:
329,192,94526,1,0,0:0:0:0:
109,192,94708,1,0,0:0:0:0:
256,192,94890,1,0,0:0:0:0:
402,192,95072,1,0,0:0:0:0:
109,192,95072,1,0,0:0:0:0:
182,192,95253,1,0,0:0:0:0:
329,192,95253,1,0,0:0:0:0:
402,192,95435,1,0,0:0:0:0:
109,192,95435,1,0,0:0:0:0:
182,192,95617,1,0,0:0:0:0:
256,192,95617,1,0,0:0:0:0:
475,192,95617,1,0,0:0:0:0:
402,192,95799,1,0,0:0:0:0:
256,192,95981,1,0,0:0:0:0:
402,192,96163,1,0,0:0:0:0:
475,192,96163,1,0,0:0:0:0:
109,192,96163,1,0,0:0:0:0:
36,192,96163,1,0,0:0:0:0:
329,192,96344,1,0,0:0:0:0:
475,192,96526,1,0,0:0:0:0:
109,192,96526,1,0,0:0:0:0:
182,192,96708,1,0,0:0:0:0:
402,192,96708,1,0,0:0:0:0:
475,192,96890,1,0,0:0:0:0:
109,192,96890,1,0,0:0:0:0:
402,192,97072,1,0,0:0:0:0:
36,192,97072,1,0,0:0:0:0:
182,192,97253,1,0,0:0:0:0:
329,192,97435,1,0,0:0:0:0:
109,192,97617,1,0,0:0:0:0:
475,192,97799,1,0,0:0:0:0:
36,192,97981,1,0,0:0:0:0:
329,192,98163,1,0,0:0:0:0:
402,192,98163,128,0,98526:0:0:0:0:
109,192,98344,1,0,0:0:0:0:
475,192,98526,128,0,99981:0:0:0:0:
256,192,98526,1,0,0:0:0:0:
36,192,98526,1,0,0:0:0:0:
109,192,98617,1,0,0:0:0:0:
182,192,98708,1,0,0:0:0:0:
109,192,98799,1,0,0:0:0:0:
36,192,98890,1,0,0:0:0:0:
109,192,98981,1,0,0:0:0:0:
182,192,99072,1,0,0:0:0:0:
256,192,99163,1,0,0:0:0:0:
329,192,99253,1,0,0:0:0:0:
402,192,99253,1,0,0:0:0:0:
329,192,99435,1,0,0:0:0:0:
182,192,99435,1,0,0:0:0:0:
256,192,99617,1,0,0:0:0:0:
109,192,99617,1,0,0:0:0:0:
182,192,99799,1,0,0:0:0:0:
329,192,99799,1,0,0:0:0:0:
402,192,99981,1,0,0:0:0:0:
256,192,99981,1,0,0:0:0:40:crash.wav
36,192,99981,1,0,0:0:0:0:
182,192,100072,1,0,0:0:0:0:
109,192,100163,1,0,0:0:0:0:
36,192,100253,1,0,0:0:0:0:
109,192,100344,1,0,0:0:0:0:
182,192,100435,1,0,0:0:0:0:
256,192,100526,1,0,0:0:0:0:
329,192,100617,1,0,0:0:0:0:
402,192,100708,1,0,0:0:0:0:
256,192,100708,1,0,0:0:0:0:
182,192,100708,1,0,0:0:0:0:
36,192,100708,1,0,0:0:0:0:
475,192,100799,1,0,0:0:0:0:
402,192,100890,1,0,0:0:0:0:
329,192,100981,1,0,0:0:0:0:
402,192,101072,1,0,0:0:0:0:
475,192,101072,1,0,0:0:0:0:
256,192,101072,1,0,0:0:0:0:
109,192,101072,1,0,0:0:0:0:
329,192,101163,1,0,0:0:0:0:
256,192,101253,1,0,0:0:0:0:
182,192,101344,1,0,0:0:0:0:
256,192,101435,1,0,0:0:0:0:
475,192,101435,1,0,0:0:0:0:
329,192,101435,1,0,0:0:0:0:
36,192,101435,1,0,0:0:0:0:
109,192,101526,1,0,0:0:0:0:
182,192,101617,1,0,0:0:0:0:
256,192,101708,1,0,0:0:0:0:
329,192,101799,1,0,0:0:0:0:
182,192,101799,1,0,0:0:0:0:
109,192,101799,1,0,0:0:0:0:
402,192,101859,1,0,0:0:0:0:
329,192,101920,1,0,0:0:0:0:
256,192,101981,1,0,0:0:0:0:
182,192,101981,1,0,0:0:0:0:
36,192,101981,1,0,0:0:0:0:
329,192,102072,1,0,0:0:0:0:
475,192,102163,1,0,0:0:0:0:
402,192,102163,128,0,102890:0:0:0:0:
329,192,102344,1,0,0:0:0:0:
182,192,102344,1,0,0:0:0:0:
109,192,102344,1,0,0:0:0:0:
256,192,102526,1,0,0:0:0:0:
182,192,102526,1,0,0:0:0:0:
36,192,102526,1,0,0:0:0:0:
109,192,102708,1,0,0:0:0:0:
182,192,102708,1,0,0:0:0:0:
329,192,102708,1,0,0:0:0:0:
256,192,102890,1,0,0:0:0:0:
475,192,102890,1,0,0:0:0:0:
36,192,102890,1,0,0:0:0:0:
329,192,102981,1,0,0:0:0:0:
402,192,103072,1,0,0:0:0:0:
109,192,103072,1,0,0:0:0:0:
475,192,103163,1,0,0:0:0:0:
402,192,103253,1,0,0:0:0:0:
182,192,103253,1,0,0:0:0:0:
329,192,103344,1,0,0:0:0:0:
402,192,103435,1,0,0:0:0:0:
256,192,103435,1,0,0:0:0:0:
182,192,103526,1,0,0:0:0:0:
109,192,103617,1,0,0:0:0:0:
36,192,103617,1,0,0:0:0:0:
256,192,103617,1,0,0:0:0:0:
475,192,103617,1,0,0:0:0:0:
109,192,103799,1,0,0:0:0:0:
329,192,103799,1,0,0:0:0:0:
402,192,103859,1,0,0:0:0:0:
182,192,103859,1,0,0:0:0:0:
109,192,103920,1,0,0:0:0:0:
329,192,103920,1,0,0:0:0:0:
36,192,103981,1,0,0:0:0:0:
256,192,103981,1,0,0:0:0:0:
475,192,103981,1,0,0:0:0:0:
402,192,104163,1,0,0:0:0:0:
475,192,104163,1,0,0:0:0:0:
109,192,104163,1,0,0:0:0:0:
402,192,104344,1,0,0:0:0:0:
182,192,104344,1,0,0:0:0:0:
256,192,104435,1,0,0:0:0:0:
329,192,104526,1,0,0:0:0:0:
109,192,104526,1,0,0:0:0:0:
402,192,104617,1,0,0:0:0:0:
475,192,104708,1,0,0:0:0:0:
256,192,104708,1,0,0:0:0:0:
402,192,104799,1,0,0:0:0:0:
329,192,104890,1,0,0:0:0:0:
402,192,104981,1,0,0:0:0:0:
475,192,105072,1,0,0:0:0:0:
256,192,105072,1,0,0:0:0:0:
182,192,105072,1,0,0:0:0:0:
109,192,105072,1,0,0:0:0:0:
36,192,105072,1,0,0:0:0:0:
402,192,105163,1,0,0:0:0:0:
329,192,105253,1,0,0:0:0:0:
256,192,105344,1,0,0:0:0:0:
182,192,105435,1,0,0:0:0:0:
109,192,105435,1,0,0:0:0:0:
36,192,105435,1,0,0:0:0:0:
475,192,105526,1,0,0:0:0:0:
402,192,105617,1,0,0:0:0:0:
329,192,105708,1,0,0:0:0:0:
402,192,105799,1,0,0:0:0:0:
475,192,105799,1,0,0:0:0:0:
256,192,105799,1,0,0:0:0:40:crash.wav
36,192,105890,1,0,0:0:0:0:
109,192,105981,1,0,0:0:0:0:
182,192,106072,1,0,0:0:0:0:
256,192,106163,1,0,0:0:0:0:
109,192,106163,1,0,0:0:0:0:
36,192,106163,1,0,0:0:0:0:
329,192,106253,1,0,0:0:0:0:
402,192,106344,1,0,0:0:0:0:
475,192,106344,1,0,0:0:0:0:
256,192,106344,1,0,0:0:0:0:
182,192,106435,1,0,0:0:0:0:
109,192,106526,1,0,0:0:0:0:
182,192,106617,1,0,0:0:0:0:
256,192,106708,1,0,0:0:0:0:
329,192,106708,1,0,0:0:0:0:
402,192,106799,1,0,0:0:0:0:
329,192,106890,1,0,0:0:0:0:
256,192,106981,1,0,0:0:0:0:
182,192,107072,1,0,0:0:0:0:
109,192,107163,1,0,0:0:0:0:
182,192,107253,1,0,0:0:0:0:
256,192,107253,1,0,0:0:0:0:
36,192,107344,1,0,0:0:0:0:
109,192,107435,1,0,0:0:0:0:
182,192,107526,1,0,0:0:0:0:
256,192,107617,1,0,0:0:0:0:
329,192,107617,1,0,0:0:0:0:
109,192,107708,1,0,0:0:0:0:
182,192,107799,1,0,0:0:0:0:
256,192,107890,1,0,0:0:0:0:
329,192,107981,1,0,0:0:0:0:
402,192,107981,1,0,0:0:0:0:
256,192,108072,1,0,0:0:0:0:
182,192,108163,1,0,0:0:0:0:
109,192,108253,1,0,0:0:0:0:
36,192,108344,1,0,0:0:0:0:
109,192,108435,1,0,0:0:0:0:
182,192,108526,1,0,0:0:0:0:
329,192,108617,1,0,0:0:0:0:
256,192,108708,128,0,108799:0:0:0:40:crash.wav
402,192,108708,128,0,108799:0:0:0:0:
475,192,108708,128,0,108799:0:0:0:0:
109,192,108799,1,0,0:0:0:0:
36,192,108890,1,0,0:0:0:0:
109,192,108981,1,0,0:0:0:0:
256,192,109072,128,0,109163:0:0:0:0:
329,192,109072,128,0,109163:0:0:0:0:
402,192,109072,128,0,109163:0:0:0:0:
109,192,109163,1,0,0:0:0:0:
36,192,109253,1,0,0:0:0:0:
109,192,109344,1,0,0:0:0:0:
182,192,109435,128,0,109526:0:0:0:0:
329,192,109435,128,0,109526:0:0:0:0:
475,192,109435,128,0,109526:0:0:0:0:
109,192,109526,1,0,0:0:0:0:
36,192,109617,1,0,0:0:0:0:
109,192,109708,1,0,0:0:0:0:
182,192,109799,128,0,109890:0:0:0:0:
256,192,109799,128,0,109890:0:0:0:0:
402,192,109799,128,0,109890:0:0:0:0:
109,192,109890,1,0,0:0:0:0:
36,192,109981,1,0,0:0:0:0:
109,192,110072,1,0,0:0:0:0:
36,192,110163,128,0,110253:0:0:0:40:crash.wav
402,192,110163,128,0,110253:0:0:0:0:
475,192,110163,128,0,110253:0:0:0:0:
256,192,110253,1,0,0:0:0:0:
329,192,110344,1,0,0:0:0:0:
256,192,110435,1,0,0:0:0:0:
182,192,110526,128,0,110617:0:0:0:0:
109,192,110526,128,0,110617:0:0:0:0:
475,192,110526,128,0,110617:0:0:0:0:
256,192,110617,1,0,0:0:0:0:
329,192,110708,1,0,0:0:0:0:
256,192,110799,1,0,0:0:0:0:
402,192,110890,128,0,110981:0:0:0:0:
36,192,110890,128,0,110981:0:0:0:0:
109,192,110890,128,0,110981:0:0:0:0:
256,192,110981,1,0,0:0:0:0:
329,192,111072,1,0,0:0:0:0:
256,192,111163,1,0,0:0:0:0:
36,192,111253,128,0,111344:0:0:0:0:
182,192,111253,128,0,111344:0:0:0:0:
475,192,111253,128,0,111344:0:0:0:0:
256,192,111344,1,0,0:0:0:0:
329,192,111435,1,0,0:0:0:0:
256,192,111526,1,0,0:0:0:0:
36,192,111617,128,0,111708:0:0:0:40:crash.wav
329,192,111617,128,0,111708:0:0:0:0:
402,192,111617,128,0,111708:0:0:0:0:
182,192,111708,1,0,0:0:0:0:
109,192,111799,1,0,0:0:0:0:
182,192,111890,1,0,0:0:0:0:
256,192,111981,128,0,112072:0:0:0:0:
402,192,111981,128,0,112072:0:0:0:0:
475,192,111981,128,0,112072:0:0:0:0:
182,192,112072,1,0,0:0:0:0:
109,192,112163,1,0,0:0:0:0:
182,192,112253,1,0,0:0:0:0:
256,192,112344,128,0,112435:0:0:0:0:
402,192,112344,128,0,112435:0:0:0:0:
36,192,112344,128,0,112435:0:0:0:0:
182,192,112435,1,0,0:0:0:0:
109,192,112526,1,0,0:0:0:0:
182,192,112617,1,0,0:0:0:0:
256,192,112708,128,0,112799:0:0:0:0:
329,192,112708,128,0,112799:0:0:0:0:
475,192,112708,128,0,112799:0:0:0:0:
182,192,112799,1,0,0:0:0:0:
109,192,112890,1,0,0:0:0:0:
182,192,112981,1,0,0:0:0:0:
256,192,113072,128,0,113163:0:0:0:40:crash.wav
329,192,113072,128,0,113163:0:0:0:0:
36,192,113072,128,0,113163:0:0:0:0:
402,192,113163,1,0,0:0:0:0:
475,192,113253,1,0,0:0:0:0:
402,192,113344,1,0,0:0:0:0:
256,192,113435,128,0,113526:0:0:0:0:
182,192,113435,128,0,113526:0:0:0:0:
109,192,113435,128,0,113526:0:0:0:0:
402,192,113526,1,0,0:0:0:0:
475,192,113617,1,0,0:0:0:0:
402,192,113708,1,0,0:0:0:0:
329,192,113799,1,0,0:0:0:0:
182,192,113799,1,0,0:0:0:0:
109,192,113799,1,0,0:0:0:0:
256,192,113920,1,0,0:0:0:0:
402,192,113920,1,0,0:0:0:0:
329,192,113920,1,0,0:0:0:0:
256,192,114041,1,0,0:0:0:0:
329,192,114041,1,0,0:0:0:0:
402,192,114041,1,0,0:0:0:0:
329,192,114163,1,0,0:0:0:0:
182,192,114163,1,0,0:0:0:0:
109,192,114163,1,0,0:0:0:0:
109,192,114284,1,0,0:0:0:0:
182,192,114284,1,0,0:0:0:0:
329,192,114284,1,0,0:0:0:0:
256,192,114405,1,0,0:0:0:0:
402,192,114405,1,0,0:0:0:0:
109,192,114405,1,0,0:0:0:0:
36,192,114405,1,0,0:0:0:0:
256,192,114526,1,0,0:0:0:40:crash.wav
329,192,114526,1,0,0:0:0:0:
402,192,114526,1,0,0:0:0:0:
475,192,114526,1,0,0:0:0:0:
182,192,114526,1,0,0:0:0:0:
36,192,114526,1,0,0:0:0:0:
475,192,114799,1,0,0:0:0:0:
329,192,114799,1,0,0:0:0:0:
182,192,114799,1,0,0:0:0:40:crash.wav
109,192,114799,1,0,0:0:0:0:
109,192,114890,1,0,0:0:0:0:
182,192,114890,1,0,0:0:0:40:crash.wav
329,192,114890,1,0,0:0:0:0:
475,192,114890,128,0,121799:0:0:0:0:
