osu file format v14

[General]
AudioFilename: MiddleIsland - Delrio.mp3
AudioLeadIn: 0
PreviewTime: 68018
Countdown: 0
SampleSet: None
StackLeniency: 0.7
Mode: 3
LetterboxInBreaks: 0
SpecialStyle: 0
WidescreenStoryboard: 1

[Editor]
DistanceSpacing: 1.5
BeatDivisor: 8
GridSize: 8
TimelineZoom: 1.5

[Metadata]
Title:Delrio
TitleUnicode:Delrio
Artist:MiddleIsland
ArtistUnicode:MiddleIsland
Creator:_Hibiki_
Version:MX
Source:
Tags:
BeatmapID:720596
BeatmapSetID:324307

[Difficulty]
HPDrainRate:8
CircleSize:4
OverallDifficulty:8
ApproachRate:5
SliderMultiplier:1.4
SliderTickRate:1

[Events]
//Background and Video events
0,0,"04 - AbadonBane NA.jpg",0,0
//Break Periods
//Storyboard Layer 0 (Background)
//Storyboard Layer 1 (Fail)
//Storyboard Layer 2 (Pass)
//Storyboard Layer 3 (Foreground)
//Storyboard Sound Samples

[TimingPoints]
516,500,4,2,0,35,1,0
516,-109.89010989011,4,2,0,35,0,0
23574,444.444444444444,4,3,0,70,1,0
49462,-100,4,2,0,70,0,0
50129,-100,4,3,0,70,0,0
104462,-103.092783505155,4,2,0,70,0,0
104685,-106.382978723404,4,2,0,70,0,0
104907,-109.89010989011,4,2,0,70,0,0
105129,-114.942528735632,4,2,0,70,0,0
105296,-117.647058823529,4,2,0,70,0,0
114240,-100,4,3,0,70,0,0
118907,-100,4,2,0,70,0,0
119518,-100,4,3,0,70,0,0

[HitObjects]
320,192,516,128,0,2182:0:0:0:0:
192,192,2182,1,0,0:0:0:0:
64,192,2182,1,0,0:0:0:0:
192,192,2453,1,0,0:0:0:0:
320,192,2516,1,0,0:0:0:0:
448,192,2578,1,0,0:0:0:0:
192,192,3016,1,0,0:0:0:0:
448,192,3307,1,0,0:0:0:0:
64,192,3307,1,0,0:0:0:0:
448,192,3859,1,0,0:0:0:0:
192,192,4432,1,0,0:0:0:0:
448,192,4703,1,0,0:0:0:0:
320,192,4766,1,0,0:0:0:0:
64,192,4828,1,0,0:0:0:0:
192,192,5266,1,0,0:0:0:0:
64,192,5557,1,0,0:0:0:0:
192,192,5557,1,0,0:0:0:0:
192,192,6766,1,0,0:0:0:0:
64,192,7078,1,0,0:0:0:0:
192,192,7141,1,0,0:0:0:0:
320,192,7203,1,0,0:0:0:0:
192,192,7578,1,0,0:0:0:0:
320,192,7891,1,0,0:0:0:0:
64,192,7891,1,0,0:0:0:0:
448,192,8453,1,0,0:0:0:0:
192,192,8766,1,0,0:0:0:0:
320,192,8922,1,0,0:0:0:0:
64,192,9078,1,0,0:0:0:0:
192,192,9578,1,0,0:0:0:0:
320,192,9703,1,0,0:0:0:0:
192,192,9828,1,0,0:0:0:0:
320,192,9953,1,0,0:0:0:0:
192,192,10057,1,0,0:0:0:0:
320,192,10141,1,0,0:0:0:0:
192,192,10203,1,0,0:0:0:0:
64,192,10266,1,0,0:0:0:0:
448,192,10266,1,0,0:0:0:0:
320,192,10328,1,0,0:0:0:0:
192,192,10391,1,0,0:0:0:0:
448,192,10516,1,0,0:0:0:0:
320,192,10578,1,0,0:0:0:0:
192,192,11141,1,0,0:0:0:0:
448,192,11422,1,0,0:0:0:0:
64,192,11422,1,0,0:0:0:0:
192,192,11891,1,0,0:0:0:0:
320,192,12172,1,0,0:0:0:0:
192,192,12609,1,0,0:0:0:0:
64,192,12609,1,0,0:0:0:0:
448,192,13203,1,0,0:0:0:0:
320,192,13297,1,0,0:0:0:0:
192,192,13391,1,0,0:0:0:0:
64,192,13484,1,0,0:0:0:0:
192,192,13807,1,0,0:0:0:0:
448,192,13807,1,0,0:0:0:0:
192,192,14391,1,0,0:0:0:0:
320,192,14682,1,0,0:0:0:0:
64,192,15016,1,0,0:0:0:0:
192,192,15953,1,0,0:0:0:0:
320,192,16141,1,0,0:0:0:0:
192,192,16328,1,0,0:0:0:0:
64,192,16328,1,0,0:0:0:0:
192,192,16766,1,0,0:0:0:0:
320,192,17224,1,0,0:0:0:0:
320,192,17547,1,0,0:0:0:0:
64,192,17547,1,0,0:0:0:0:
448,192,17974,1,0,0:0:0:0:
320,192,18432,1,0,0:0:0:0:
192,192,18724,1,0,0:0:0:0:
64,192,18724,1,0,0:0:0:0:
192,192,20984,1,0,0:0:0:0:
320,192,21047,1,0,0:0:0:0:
64,192,21099,1,0,0:0:0:0:
448,192,21099,1,0,0:0:0:0:
320,192,21578,1,0,0:0:0:0:
192,192,21578,1,0,0:0:0:0:
320,192,22057,1,0,0:0:0:0:
64,192,22057,1,0,0:0:0:0:
320,192,22391,1,0,0:0:0:0:
192,192,22391,1,0,0:0:0:0:
64,192,22391,1,0,0:0:0:0:
320,192,23099,1,0,0:0:0:0:
448,192,23182,1,0,0:0:0:0:
320,192,23266,1,0,0:0:0:0:
192,192,23349,1,0,0:0:0:0:
448,192,23349,1,0,0:0:0:0:
64,192,23453,1,0,0:0:0:0:
320,192,23574,1,0,0:0:0:0:
448,192,23574,1,0,0:0:0:0:
192,192,23574,1,0,0:0:0:0:
64,192,23685,1,0,0:0:0:0:
320,192,23796,1,0,0:0:0:0:
192,192,23907,1,0,0:0:0:0:
320,192,24018,1,0,0:0:0:0:
448,192,24129,1,0,0:0:0:0:
192,192,24240,1,0,0:0:0:0:
320,192,24296,1,0,0:0:0:0:
448,192,24351,1,0,0:0:0:0:
320,192,24462,1,0,0:0:0:0:
64,192,24462,1,0,0:0:0:0:
192,192,24574,1,0,0:0:0:0:
448,192,24685,1,0,0:0:0:0:
320,192,24796,1,0,0:0:0:0:
192,192,24907,1,0,0:0:0:0:
64,192,24907,1,0,0:0:0:0:
320,192,25018,1,0,0:0:0:0:
192,192,25129,1,0,0:0:0:0:
448,192,25240,1,0,0:0:0:0:
64,192,25351,1,0,0:0:0:0:
192,192,25379,1,0,0:0:0:0:
320,192,25407,1,0,0:0:0:0:
448,192,25435,1,0,0:0:0:0:
64,192,25573,1,0,0:0:0:0:
320,192,25685,1,0,0:0:0:0:
64,192,25796,1,0,0:0:0:0:
448,192,25907,1,0,0:0:0:0:
192,192,25907,1,0,0:0:0:0:
320,192,26018,1,0,0:0:0:0:
192,192,26073,1,0,0:0:0:0:
64,192,26129,1,0,0:0:0:0:
448,192,26240,1,0,0:0:0:0:
64,192,26240,1,0,0:0:0:0:
320,192,26351,1,0,0:0:0:0:
64,192,26462,1,0,0:0:0:0:
192,192,26573,1,0,0:0:0:0:
64,192,26685,1,0,0:0:0:0:
448,192,26685,1,0,0:0:0:0:
320,192,26796,1,0,0:0:0:0:
192,192,26907,1,0,0:0:0:0:
448,192,27018,1,0,0:0:0:0:
64,192,27129,1,0,0:0:0:0:
192,192,27185,1,0,0:0:0:0:
320,192,27240,1,0,0:0:0:0:
192,192,27351,1,0,0:0:0:0:
320,192,27462,1,0,0:0:0:0:
64,192,27573,1,0,0:0:0:0:
448,192,27573,1,0,0:0:0:0:
320,192,27685,1,0,0:0:0:0:
192,192,27796,1,0,0:0:0:0:
320,192,27851,1,0,0:0:0:0:
448,192,27907,1,0,0:0:0:0:
192,192,28018,1,0,0:0:0:0:
320,192,28018,1,0,0:0:0:0:
64,192,28129,1,0,0:0:0:0:
192,192,28240,1,0,0:0:0:0:
320,192,28351,1,0,0:0:0:0:
192,192,28462,1,0,0:0:0:0:
448,192,28462,1,0,0:0:0:0:
320,192,28573,1,0,0:0:0:0:
64,192,28685,1,0,0:0:0:0:
192,192,28796,1,0,0:0:0:0:
448,192,28907,1,0,0:0:0:0:
320,192,28907,1,0,0:0:0:0:
64,192,28907,1,0,0:0:0:0:
192,192,29018,1,0,0:0:0:0:
320,192,29129,1,0,0:0:0:0:
64,192,29240,1,0,0:0:0:0:
192,192,29240,1,0,0:0:0:0:
448,192,29240,1,0,0:0:0:0:
320,192,29351,1,0,0:0:0:0:
192,192,29462,1,0,0:0:0:0:
64,192,29573,1,0,0:0:0:0:
448,192,29573,1,0,0:0:0:0:
320,192,29573,1,0,0:0:0:0:
448,192,29796,128,0,30240:0:0:0:0:
192,192,29796,1,0,0:0:0:0:
320,192,29796,1,0,0:0:0:0:
320,192,30240,128,0,30685:0:0:0:0:
192,192,30240,1,0,0:0:0:0:
64,192,30240,1,0,0:0:0:0:
64,192,30685,1,0,0:0:0:0:
448,192,30685,1,0,0:0:0:0:
192,192,30796,1,0,0:0:0:0:
64,192,30907,1,0,0:0:0:0:
320,192,31018,1,0,0:0:0:0:
448,192,31129,1,0,0:0:0:0:
192,192,31129,1,0,0:0:0:0:
320,192,31240,1,0,0:0:0:0:
192,192,31351,1,0,0:0:0:0:
320,192,31407,1,0,0:0:0:0:
448,192,31462,1,0,0:0:0:0:
320,192,31573,1,0,0:0:0:0:
64,192,31573,1,0,0:0:0:0:
192,192,31685,1,0,0:0:0:0:
64,192,31796,1,0,0:0:0:0:
320,192,31907,1,0,0:0:0:0:
192,192,32018,1,0,0:0:0:0:
448,192,32018,1,0,0:0:0:0:
320,192,32129,1,0,0:0:0:0:
192,192,32240,1,0,0:0:0:0:
320,192,32351,1,0,0:0:0:0:
64,192,32462,1,0,0:0:0:0:
192,192,32490,1,0,0:0:0:0:
320,192,32518,1,0,0:0:0:0:
448,192,32546,1,0,0:0:0:0:
192,192,32685,1,0,0:0:0:0:
64,192,32796,1,0,0:0:0:0:
192,192,32907,1,0,0:0:0:0:
448,192,32907,1,0,0:0:0:0:
320,192,33018,1,0,0:0:0:0:
448,192,33129,1,0,0:0:0:0:
320,192,33157,1,0,0:0:0:0:
192,192,33185,1,0,0:0:0:0:
64,192,33212,1,0,0:0:0:0:
448,192,33351,1,0,0:0:0:0:
320,192,33351,1,0,0:0:0:0:
192,192,33462,1,0,0:0:0:0:
64,192,33573,1,0,0:0:0:0:
448,192,33685,1,0,0:0:0:0:
320,192,33796,1,0,0:0:0:0:
64,192,33796,1,0,0:0:0:0:
192,192,33907,1,0,0:0:0:0:
64,192,34018,1,0,0:0:0:0:
320,192,34129,1,0,0:0:0:0:
64,192,34240,1,0,0:0:0:0:
192,192,34296,1,0,0:0:0:0:
320,192,34351,1,0,0:0:0:0:
192,192,34462,1,0,0:0:0:0:
448,192,34573,1,0,0:0:0:0:
64,192,34685,1,0,0:0:0:0:
320,192,34685,1,0,0:0:0:0:
448,192,34796,1,0,0:0:0:0:
64,192,34907,1,0,0:0:0:0:
192,192,34935,1,0,0:0:0:0:
320,192,34962,1,0,0:0:0:0:
448,192,34990,1,0,0:0:0:0:
64,192,35129,1,0,0:0:0:0:
320,192,35129,1,0,0:0:0:0:
192,192,35240,1,0,0:0:0:0:
320,192,35351,1,0,0:0:0:0:
448,192,35462,1,0,0:0:0:0:
320,192,35573,1,0,0:0:0:0:
64,192,35573,1,0,0:0:0:0:
448,192,35685,1,0,0:0:0:0:
192,192,35796,1,0,0:0:0:0:
320,192,35907,1,0,0:0:0:0:
64,192,36018,1,0,0:0:0:0:
192,192,36018,1,0,0:0:0:0:
448,192,36018,1,0,0:0:0:0:
320,192,36129,1,0,0:0:0:0:
192,192,36240,1,0,0:0:0:0:
448,192,36351,1,0,0:0:0:0:
64,192,36351,1,0,0:0:0:0:
320,192,36351,1,0,0:0:0:0:
192,192,36462,1,0,0:0:0:0:
320,192,36573,1,0,0:0:0:0:
448,192,36685,1,0,0:0:0:0:
192,192,36685,1,0,0:0:0:0:
64,192,36685,1,0,0:0:0:0:
192,192,36907,128,0,37129:0:0:0:0:
320,192,37129,128,0,37351:0:0:0:0:
448,192,37351,128,0,37796:0:0:0:0:
320,192,37796,1,0,0:0:0:0:
192,192,37796,1,0,0:0:0:0:
64,192,37907,1,0,0:0:0:0:
320,192,38018,1,0,0:0:0:0:
448,192,38018,1,0,0:0:0:0:
192,192,38129,1,0,0:0:0:0:
448,192,38240,1,0,0:0:0:0:
64,192,38240,1,0,0:0:0:0:
320,192,38685,1,0,0:0:0:0:
64,192,38685,1,0,0:0:0:0:
192,192,38796,1,0,0:0:0:0:
448,192,38907,1,0,0:0:0:0:
320,192,39018,1,0,0:0:0:0:
448,192,39129,1,0,0:0:0:0:
64,192,39129,1,0,0:0:0:0:
448,192,39573,1,0,0:0:0:0:
320,192,39573,1,0,0:0:0:0:
192,192,39685,1,0,0:0:0:0:
320,192,39796,1,0,0:0:0:0:
64,192,39796,1,0,0:0:0:0:
192,192,39907,1,0,0:0:0:0:
448,192,40018,1,0,0:0:0:0:
64,192,40018,1,0,0:0:0:0:
320,192,40462,1,0,0:0:0:0:
64,192,40462,1,0,0:0:0:0:
192,192,40573,1,0,0:0:0:0:
320,192,40685,1,0,0:0:0:0:
448,192,40796,1,0,0:0:0:0:
192,192,40907,1,0,0:0:0:0:
320,192,40907,1,0,0:0:0:0:
448,192,41351,1,0,0:0:0:0:
192,192,41351,1,0,0:0:0:0:
320,192,41462,1,0,0:0:0:0:
192,192,41573,1,0,0:0:0:0:
64,192,41573,1,0,0:0:0:0:
320,192,41685,1,0,0:0:0:0:
448,192,41796,1,0,0:0:0:0:
192,192,41796,1,0,0:0:0:0:
448,192,42240,1,0,0:0:0:0:
192,192,42240,1,0,0:0:0:0:
320,192,42351,1,0,0:0:0:0:
64,192,42462,1,0,0:0:0:0:
192,192,42573,1,0,0:0:0:0:
320,192,42685,1,0,0:0:0:0:
64,192,42685,1,0,0:0:0:0:
320,192,43129,1,0,0:0:0:0:
64,192,43129,1,0,0:0:0:0:
192,192,43240,1,0,0:0:0:0:
64,192,43351,1,0,0:0:0:0:
320,192,43351,1,0,0:0:0:0:
448,192,43462,1,0,0:0:0:0:
320,192,43573,1,0,0:0:0:0:
192,192,43573,1,0,0:0:0:0:
64,192,44018,1,0,0:0:0:0:
448,192,44018,1,0,0:0:0:0:
320,192,44129,1,0,0:0:0:0:
192,192,44240,1,0,0:0:0:0:
64,192,44351,1,0,0:0:0:0:
320,192,44462,1,0,0:0:0:0:
448,192,44462,1,0,0:0:0:0:
448,192,44907,1,0,0:0:0:0:
320,192,44907,1,0,0:0:0:0:
64,192,44907,1,0,0:0:0:0:
192,192,45018,1,0,0:0:0:0:
64,192,45129,1,0,0:0:0:0:
448,192,45129,1,0,0:0:0:0:
320,192,45240,1,0,0:0:0:0:
448,192,45351,1,0,0:0:0:0:
192,192,45351,1,0,0:0:0:0:
320,192,45796,1,0,0:0:0:0:
448,192,45796,1,0,0:0:0:0:
192,192,45907,1,0,0:0:0:0:
64,192,46018,1,0,0:0:0:0:
448,192,46129,1,0,0:0:0:0:
320,192,46240,1,0,0:0:0:0:
192,192,46240,1,0,0:0:0:0:
192,192,46685,1,0,0:0:0:0:
448,192,46685,1,0,0:0:0:0:
320,192,46796,1,0,0:0:0:0:
448,192,46907,1,0,0:0:0:0:
64,192,46907,1,0,0:0:0:0:
320,192,47018,1,0,0:0:0:0:
192,192,47129,1,0,0:0:0:0:
64,192,47129,1,0,0:0:0:0:
448,192,47573,1,0,0:0:0:0:
192,192,47573,1,0,0:0:0:0:
320,192,47685,1,0,0:0:0:0:
192,192,47796,1,0,0:0:0:0:
320,192,47907,1,0,0:0:0:0:
64,192,48018,1,0,0:0:0:0:
448,192,48018,1,0,0:0:0:0:
192,192,48462,1,0,0:0:0:0:
320,192,48462,1,0,0:0:0:0:
64,192,48573,1,0,0:0:0:0:
448,192,48685,1,0,0:0:0:0:
192,192,48685,1,0,0:0:0:0:
320,192,48796,1,0,0:0:0:0:
448,192,48907,1,0,0:0:0:0:
64,192,48907,1,0,0:0:0:0:
448,192,49546,5,0,0:0:0:0:
320,192,49573,1,0,0:0:0:0:
192,192,49601,1,0,0:0:0:0:
64,192,49629,1,0,0:0:0:0:
448,192,49657,1,0,0:0:0:0:
320,192,49685,1,0,0:0:0:0:
192,192,49712,1,0,0:0:0:0:
64,192,49740,1,0,0:0:0:0:
448,192,49768,1,0,0:0:0:0:
320,192,49796,1,0,0:0:0:0:
192,192,49823,1,0,0:0:0:0:
64,192,49851,1,0,0:0:0:0:
448,192,49879,1,0,0:0:0:0:
320,192,49907,1,0,0:0:0:0:
192,192,49935,1,0,0:0:0:0:
64,192,49962,1,0,0:0:0:0:
448,192,49990,1,0,0:0:0:0:
320,192,50018,1,0,0:0:0:0:
192,192,50046,1,0,0:0:0:0:
64,192,50073,1,0,0:0:0:0:
448,192,50240,1,0,0:0:0:0:
320,192,50240,1,0,0:0:0:0:
64,192,50240,1,0,0:0:0:0:
192,192,50351,1,0,0:0:0:0:
320,192,50462,1,0,0:0:0:0:
448,192,50573,1,0,0:0:0:0:
64,192,50573,1,0,0:0:0:0:
192,192,50573,1,0,0:0:0:0:
320,192,50685,1,0,0:0:0:0:
192,192,50796,1,0,0:0:0:0:
320,192,50907,1,0,0:0:0:0:
448,192,50907,1,0,0:0:0:0:
64,192,50907,1,0,0:0:0:0:
64,192,51129,1,0,0:0:0:0:
320,192,51129,1,0,0:0:0:0:
448,192,51129,1,0,0:0:0:0:
64,192,51573,1,0,0:0:0:0:
448,192,51573,1,0,0:0:0:0:
192,192,52018,1,0,0:0:0:0:
320,192,52018,1,0,0:0:0:0:
448,192,52129,1,0,0:0:0:0:
192,192,52240,1,0,0:0:0:0:
64,192,52240,1,0,0:0:0:0:
320,192,52351,1,0,0:0:0:0:
64,192,52462,1,0,0:0:0:0:
448,192,52462,1,0,0:0:0:0:
192,192,52907,1,0,0:0:0:0:
448,192,52907,1,0,0:0:0:0:
320,192,53018,1,0,0:0:0:0:
64,192,53129,1,0,0:0:0:0:
192,192,53240,1,0,0:0:0:0:
64,192,53351,1,0,0:0:0:0:
448,192,53351,1,0,0:0:0:0:
64,192,53796,1,0,0:0:0:0:
192,192,53796,1,0,0:0:0:0:
320,192,53907,1,0,0:0:0:0:
192,192,54018,1,0,0:0:0:0:
448,192,54018,1,0,0:0:0:0:
320,192,54129,1,0,0:0:0:0:
64,192,54240,1,0,0:0:0:0:
448,192,54240,1,0,0:0:0:0:
192,192,54685,1,0,0:0:0:0:
448,192,54685,1,0,0:0:0:0:
320,192,54796,1,0,0:0:0:0:
192,192,54907,1,0,0:0:0:0:
64,192,55018,1,0,0:0:0:0:
320,192,55129,1,0,0:0:0:0:
192,192,55129,1,0,0:0:0:0:
64,192,55573,1,0,0:0:0:0:
320,192,55573,1,0,0:0:0:0:
192,192,55685,1,0,0:0:0:0:
320,192,55796,1,0,0:0:0:0:
448,192,55796,1,0,0:0:0:0:
192,192,55907,1,0,0:0:0:0:
64,192,56018,1,0,0:0:0:0:
320,192,56018,1,0,0:0:0:0:
64,192,56462,1,0,0:0:0:0:
320,192,56462,1,0,0:0:0:0:
192,192,56573,1,0,0:0:0:0:
448,192,56685,1,0,0:0:0:0:
320,192,56796,1,0,0:0:0:0:
192,192,56907,1,0,0:0:0:0:
448,192,56907,1,0,0:0:0:0:
192,192,57351,1,0,0:0:0:0:
448,192,57351,1,0,0:0:0:0:
320,192,57462,1,0,0:0:0:0:
448,192,57573,1,0,0:0:0:0:
192,192,57573,1,0,0:0:0:0:
64,192,57685,1,0,0:0:0:0:
192,192,57796,1,0,0:0:0:0:
320,192,57796,1,0,0:0:0:0:
448,192,58240,1,0,0:0:0:0:
64,192,58240,1,0,0:0:0:0:
192,192,58351,1,0,0:0:0:0:
320,192,58462,1,0,0:0:0:0:
448,192,58573,1,0,0:0:0:0:
192,192,58685,1,0,0:0:0:0:
64,192,58685,1,0,0:0:0:0:
64,192,59129,1,0,0:0:0:0:
192,192,59129,1,0,0:0:0:0:
448,192,59129,1,0,0:0:0:0:
320,192,59240,1,0,0:0:0:0:
448,192,59351,1,0,0:0:0:0:
64,192,59351,1,0,0:0:0:0:
192,192,59462,1,0,0:0:0:0:
64,192,59573,1,0,0:0:0:0:
320,192,59573,1,0,0:0:0:0:
192,192,60018,1,0,0:0:0:0:
64,192,60018,1,0,0:0:0:0:
320,192,60129,1,0,0:0:0:0:
448,192,60240,1,0,0:0:0:0:
64,192,60351,1,0,0:0:0:0:
192,192,60462,1,0,0:0:0:0:
320,192,60462,1,0,0:0:0:0:
320,192,60907,1,0,0:0:0:0:
64,192,60907,1,0,0:0:0:0:
192,192,61018,1,0,0:0:0:0:
64,192,61129,1,0,0:0:0:0:
448,192,61129,1,0,0:0:0:0:
192,192,61240,1,0,0:0:0:0:
320,192,61351,1,0,0:0:0:0:
448,192,61351,1,0,0:0:0:0:
64,192,61796,1,0,0:0:0:0:
320,192,61796,1,0,0:0:0:0:
192,192,61907,1,0,0:0:0:0:
320,192,62018,1,0,0:0:0:0:
192,192,62129,1,0,0:0:0:0:
448,192,62240,1,0,0:0:0:0:
64,192,62240,1,0,0:0:0:0:
320,192,62685,1,0,0:0:0:0:
192,192,62685,1,0,0:0:0:0:
448,192,62796,1,0,0:0:0:0:
64,192,62907,1,0,0:0:0:0:
320,192,62907,1,0,0:0:0:0:
192,192,63018,1,0,0:0:0:0:
64,192,63129,1,0,0:0:0:0:
448,192,63129,1,0,0:0:0:0:
320,192,63573,1,0,0:0:0:0:
64,192,63573,1,0,0:0:0:0:
192,192,63685,1,0,0:0:0:0:
448,192,63796,1,0,0:0:0:0:
320,192,63907,1,0,0:0:0:0:
192,192,64018,1,0,0:0:0:0:
64,192,64018,1,0,0:0:0:0:
192,192,64462,1,0,0:0:0:0:
448,192,64462,1,0,0:0:0:0:
320,192,64573,1,0,0:0:0:0:
64,192,64685,1,0,0:0:0:0:
448,192,64685,1,0,0:0:0:0:
320,192,64796,1,0,0:0:0:0:
192,192,64907,1,0,0:0:0:0:
64,192,64907,1,0,0:0:0:0:
320,192,65351,1,0,0:0:0:0:
64,192,65351,1,0,0:0:0:0:
192,192,65462,1,0,0:0:0:0:
448,192,65573,1,0,0:0:0:0:
320,192,65685,1,0,0:0:0:0:
448,192,65796,1,0,0:0:0:0:
192,192,65796,1,0,0:0:0:0:
64,192,66073,5,0,0:0:0:0:
192,192,66129,1,0,0:0:0:0:
320,192,66185,1,0,0:0:0:0:
192,192,66240,1,0,0:0:0:0:
64,192,66240,1,0,0:0:0:0:
448,192,66240,1,0,0:0:0:0:
320,192,66351,1,0,0:0:0:0:
448,192,66573,1,0,0:0:0:0:
192,192,66573,1,0,0:0:0:0:
64,192,66573,1,0,0:0:0:0:
320,192,66685,1,0,0:0:0:0:
448,192,66907,1,0,0:0:0:0:
192,192,66907,1,0,0:0:0:0:
64,192,66907,1,0,0:0:0:0:
448,192,67129,1,0,0:0:0:0:
64,192,67129,1,0,0:0:0:0:
192,192,67129,1,0,0:0:0:0:
320,192,67573,1,0,0:0:0:0:
448,192,67685,1,0,0:0:0:0:
320,192,67740,1,0,0:0:0:0:
192,192,67796,1,0,0:0:0:0:
320,192,67935,1,0,0:0:0:0:
448,192,68018,1,0,0:0:0:0:
192,192,68018,1,0,0:0:0:0:
64,192,68018,1,0,0:0:0:0:
320,192,68129,1,0,0:0:0:0:
64,192,68240,1,0,0:0:0:0:
448,192,68351,1,0,0:0:0:0:
64,192,68462,1,0,0:0:0:0:
192,192,68462,1,0,0:0:0:0:
320,192,68573,1,0,0:0:0:0:
192,192,68685,1,0,0:0:0:0:
320,192,68740,1,0,0:0:0:0:
448,192,68796,1,0,0:0:0:0:
192,192,68907,1,0,0:0:0:0:
64,192,68907,1,0,0:0:0:0:
320,192,69018,1,0,0:0:0:0:
192,192,69129,1,0,0:0:0:0:
448,192,69240,1,0,0:0:0:0:
320,192,69351,1,0,0:0:0:0:
64,192,69351,1,0,0:0:0:0:
192,192,69462,1,0,0:0:0:0:
64,192,69573,1,0,0:0:0:0:
320,192,69685,1,0,0:0:0:0:
64,192,69796,1,0,0:0:0:0:
192,192,69823,1,0,0:0:0:0:
320,192,69851,1,0,0:0:0:0:
448,192,69879,1,0,0:0:0:0:
192,192,70018,1,0,0:0:0:0:
64,192,70129,1,0,0:0:0:0:
320,192,70240,1,0,0:0:0:0:
192,192,70240,1,0,0:0:0:0:
64,192,70351,1,0,0:0:0:0:
448,192,70462,1,0,0:0:0:0:
320,192,70490,1,0,0:0:0:0:
192,192,70518,1,0,0:0:0:0:
64,192,70546,1,0,0:0:0:0:
320,192,70629,1,0,0:0:0:0:
64,192,70685,1,0,0:0:0:0:
448,192,70685,1,0,0:0:0:0:
320,192,70796,1,0,0:0:0:0:
64,192,70907,1,0,0:0:0:0:
320,192,71018,1,0,0:0:0:0:
64,192,71129,1,0,0:0:0:0:
192,192,71129,1,0,0:0:0:0:
448,192,71185,1,0,0:0:0:0:
320,192,71240,1,0,0:0:0:0:
192,192,71296,1,0,0:0:0:0:
320,192,71351,1,0,0:0:0:0:
192,192,71407,1,0,0:0:0:0:
64,192,71462,1,0,0:0:0:0:
192,192,71518,1,0,0:0:0:0:
448,192,71573,1,0,0:0:0:0:
64,192,71573,1,0,0:0:0:0:
320,192,71685,1,0,0:0:0:0:
192,192,71796,1,0,0:0:0:0:
448,192,71907,1,0,0:0:0:0:
320,192,72018,1,0,0:0:0:0:
64,192,72018,1,0,0:0:0:0:
448,192,72129,1,0,0:0:0:0:
192,192,72240,1,0,0:0:0:0:
320,192,72296,1,0,0:0:0:0:
448,192,72351,1,0,0:0:0:0:
64,192,72462,1,0,0:0:0:0:
320,192,72462,1,0,0:0:0:0:
192,192,72573,1,0,0:0:0:0:
448,192,72685,1,0,0:0:0:0:
320,192,72796,1,0,0:0:0:0:
192,192,72907,1,0,0:0:0:0:
64,192,72907,1,0,0:0:0:0:
320,192,73018,1,0,0:0:0:0:
192,192,73129,1,0,0:0:0:0:
320,192,73240,1,0,0:0:0:0:
192,192,73351,1,0,0:0:0:0:
64,192,73351,1,0,0:0:0:0:
448,192,73351,1,0,0:0:0:0:
320,192,73462,1,0,0:0:0:0:
192,192,73573,1,0,0:0:0:0:
64,192,73685,1,0,0:0:0:0:
448,192,73685,1,0,0:0:0:0:
320,192,73685,1,0,0:0:0:0:
192,192,73796,1,0,0:0:0:0:
320,192,73907,1,0,0:0:0:0:
192,192,74018,1,0,0:0:0:0:
64,192,74018,1,0,0:0:0:0:
448,192,74018,1,0,0:0:0:0:
192,192,74240,1,0,0:0:0:0:
64,192,74240,1,0,0:0:0:0:
448,192,74240,1,0,0:0:0:0:
192,192,74462,128,0,74685:0:0:0:0:
320,192,74685,128,0,75129:0:0:0:0:
192,192,75129,128,0,75796:0:0:0:0:
448,192,75129,1,0,0:0:0:0:
320,192,75796,128,0,77573:0:0:0:0:
192,192,77629,1,0,0:0:0:0:
64,192,77685,1,0,0:0:0:0:
448,192,77740,1,0,0:0:0:0:
320,192,77796,128,0,78185:0:0:0:0:
192,192,77796,1,0,0:0:0:0:
192,192,78185,128,0,78462:0:0:0:0:
64,192,78462,128,0,78685:0:0:0:0:
320,192,78685,128,0,79129:0:0:0:0:
192,192,78685,1,0,0:0:0:0:
192,192,79129,1,0,0:0:0:0:
448,192,79129,1,0,0:0:0:0:
64,192,79185,1,0,0:0:0:0:
320,192,79240,1,0,0:0:0:0:
448,192,79296,1,0,0:0:0:0:
320,192,79351,1,0,0:0:0:0:
192,192,79407,1,0,0:0:0:0:
64,192,79462,1,0,0:0:0:0:
192,192,79518,1,0,0:0:0:0:
320,192,79573,1,0,0:0:0:0:
448,192,79573,1,0,0:0:0:0:
64,192,79629,1,0,0:0:0:0:
192,192,79685,1,0,0:0:0:0:
320,192,79740,1,0,0:0:0:0:
448,192,79796,1,0,0:0:0:0:
192,192,79851,1,0,0:0:0:0:
320,192,79907,1,0,0:0:0:0:
448,192,79962,1,0,0:0:0:0:
320,192,80018,128,0,80462:0:0:0:0:
192,192,80018,1,0,0:0:0:0:
448,192,80462,1,0,0:0:0:0:
192,192,80462,128,0,80796:0:0:0:0:
64,192,80796,128,0,81129:0:0:0:0:
448,192,81129,128,0,81351:0:0:0:0:
320,192,81351,128,0,81962:0:0:0:0:
192,192,81351,1,0,0:0:0:0:
192,192,82018,1,0,0:0:0:0:
320,192,82129,1,0,0:0:0:0:
192,192,82240,128,0,82907:0:0:0:0:
320,192,82907,1,0,0:0:0:0:
192,192,83101,1,0,0:0:0:0:
64,192,83129,128,0,83740:0:0:0:0:
320,192,83796,1,0,0:0:0:0:
192,192,83851,1,0,0:0:0:0:
320,192,83907,1,0,0:0:0:0:
448,192,83962,1,0,0:0:0:0:
320,192,84018,128,0,84685:0:0:0:0:
192,192,84685,1,0,0:0:0:0:
192,192,84879,1,0,0:0:0:0:
64,192,84907,128,0,86018:0:0:0:0:
192,192,86240,128,0,86462:0:0:0:0:
320,192,86462,128,0,86685:0:0:0:0:
192,192,86685,1,0,0:0:0:0:
64,192,86740,1,0,0:0:0:0:
192,192,86796,1,0,0:0:0:0:
320,192,86851,1,0,0:0:0:0:
448,192,86907,128,0,87351:0:0:0:0:
320,192,87351,128,0,87573:0:0:0:0:
192,192,87573,1,0,0:0:0:0:
64,192,87629,1,0,0:0:0:0:
448,192,87685,1,0,0:0:0:0:
320,192,87740,1,0,0:0:0:0:
192,192,87796,128,0,88796:0:0:0:0:
192,192,88907,1,0,0:0:0:0:
64,192,88962,1,0,0:0:0:0:
320,192,89018,1,0,0:0:0:0:
448,192,89073,1,0,0:0:0:0:
192,192,89129,1,0,0:0:0:0:
64,192,89185,1,0,0:0:0:0:
192,192,89240,1,0,0:0:0:0:
320,192,89296,1,0,0:0:0:0:
448,192,89351,128,0,90018:0:0:0:0:
64,192,90018,128,0,90240:0:0:0:0:
192,192,90296,1,0,0:0:0:0:
320,192,90351,1,0,0:0:0:0:
448,192,90407,1,0,0:0:0:0:
64,192,90462,1,0,0:0:0:0:
192,192,90518,1,0,0:0:0:0:
320,192,90573,1,0,0:0:0:0:
192,192,90629,1,0,0:0:0:0:
64,192,90685,1,0,0:0:0:0:
448,192,90740,1,0,0:0:0:0:
320,192,90796,1,0,0:0:0:0:
192,192,90851,1,0,0:0:0:0:
448,192,90907,1,0,0:0:0:0:
320,192,90962,1,0,0:0:0:0:
192,192,91018,1,0,0:0:0:0:
64,192,91073,1,0,0:0:0:0:
192,192,91129,128,0,91573:0:0:0:0:
320,192,91629,1,0,0:0:0:0:
192,192,91685,1,0,0:0:0:0:
64,192,91740,1,0,0:0:0:0:
192,192,91796,1,0,0:0:0:0:
320,192,91851,1,0,0:0:0:0:
448,192,91907,128,0,92407:0:0:0:0:
64,192,92407,128,0,92685:0:0:0:0:
192,192,92685,128,0,92907:0:0:0:0:
320,192,92907,128,0,93351:0:0:0:0:
192,192,93351,1,0,0:0:0:0:
64,192,93407,1,0,0:0:0:0:
320,192,93462,1,0,0:0:0:0:
448,192,93518,1,0,0:0:0:0:
320,192,93573,1,0,0:0:0:0:
192,192,93629,1,0,0:0:0:0:
320,192,93685,1,0,0:0:0:0:
448,192,93740,1,0,0:0:0:0:
64,192,93796,1,0,0:0:0:0:
192,192,93851,1,0,0:0:0:0:
320,192,93907,1,0,0:0:0:0:
192,192,93962,1,0,0:0:0:0:
320,192,94018,1,0,0:0:0:0:
448,192,94073,1,0,0:0:0:0:
64,192,94129,1,0,0:0:0:0:
192,192,94185,1,0,0:0:0:0:
320,192,94240,128,0,94685:0:0:0:0:
192,192,94685,128,0,95129:0:0:0:0:
448,192,95129,128,0,95351:0:0:0:0:
320,192,95351,128,0,95573:0:0:0:0:
192,192,95573,128,0,96018:0:0:0:0:
64,192,96073,1,0,0:0:0:0:
192,192,96129,1,0,0:0:0:0:
320,192,96185,1,0,0:0:0:0:
448,192,96240,1,0,0:0:0:0:
320,192,96296,1,0,0:0:0:0:
192,192,96351,1,0,0:0:0:0:
320,192,96407,1,0,0:0:0:0:
448,192,96462,128,0,97129:0:0:0:0:
320,192,97129,1,0,0:0:0:0:
192,192,97129,1,0,0:0:0:0:
192,192,97351,1,0,0:0:0:0:
64,192,97407,1,0,0:0:0:0:
192,192,97462,1,0,0:0:0:0:
320,192,97518,1,0,0:0:0:0:
448,192,97573,128,0,97796:0:0:0:0:
320,192,97796,128,0,98018:0:0:0:0:
448,192,98018,128,0,98240:0:0:0:0:
64,192,98240,128,0,98907:0:0:0:0:
448,192,98907,1,0,0:0:0:0:
320,192,98907,1,0,0:0:0:0:
320,192,99129,1,0,0:0:0:0:
192,192,99129,128,0,100240:0:0:0:0:
192,192,100462,1,0,0:0:0:0:
64,192,100462,1,0,0:0:0:0:
320,192,100685,1,0,0:0:0:0:
448,192,100685,1,0,0:0:0:0:
448,192,100907,1,0,0:0:0:0:
320,192,100962,1,0,0:0:0:0:
192,192,101018,1,0,0:0:0:0:
64,192,101073,1,0,0:0:0:0:
64,192,101796,5,0,0:0:0:0:
192,192,101796,1,0,0:0:0:0:
448,192,101796,1,0,0:0:0:0:
320,192,101907,1,0,0:0:0:0:
448,192,102129,1,0,0:0:0:0:
192,192,102129,1,0,0:0:0:0:
64,192,102129,1,0,0:0:0:0:
320,192,102240,1,0,0:0:0:0:
192,192,102462,1,0,0:0:0:0:
64,192,102462,1,0,0:0:0:0:
448,192,102462,1,0,0:0:0:0:
64,192,102685,1,0,0:0:0:0:
192,192,102685,1,0,0:0:0:0:
448,192,102685,1,0,0:0:0:0:
64,192,103129,1,0,0:0:0:0:
192,192,103129,1,0,0:0:0:0:
192,192,103240,1,0,0:0:0:0:
320,192,103240,1,0,0:0:0:0:
320,192,103351,1,0,0:0:0:0:
448,192,103351,1,0,0:0:0:0:
320,192,103462,1,0,0:0:0:0:
192,192,103462,1,0,0:0:0:0:
192,192,103573,1,0,0:0:0:0:
64,192,103573,1,0,0:0:0:0:
448,192,103573,1,0,0:0:0:0:
320,192,103685,1,0,0:0:0:0:
192,192,103907,1,0,0:0:0:0:
64,192,103907,1,0,0:0:0:0:
448,192,103907,1,0,0:0:0:0:
320,192,104018,1,0,0:0:0:0:
192,192,104240,1,0,0:0:0:0:
64,192,104240,1,0,0:0:0:0:
448,192,104240,1,0,0:0:0:0:
64,192,104462,1,0,0:0:0:0:
192,192,104462,1,0,0:0:0:0:
448,192,104462,1,0,0:0:0:0:
192,192,105203,1,0,0:0:0:0:
320,192,105277,1,0,0:0:0:0:
448,192,105351,1,0,0:0:0:0:
192,192,105351,1,0,0:0:0:0:
320,192,105499,1,0,0:0:0:0:
192,192,105648,1,0,0:0:0:0:
448,192,105796,1,0,0:0:0:0:
64,192,105796,1,0,0:0:0:0:
320,192,105944,1,0,0:0:0:0:
192,192,106092,1,0,0:0:0:0:
320,192,106240,1,0,0:0:0:0:
448,192,106240,1,0,0:0:0:0:
64,192,106240,1,0,0:0:0:0:
192,192,106833,1,0,0:0:0:0:
448,192,106981,1,0,0:0:0:0:
192,192,107129,1,0,0:0:0:0:
192,192,107351,1,0,0:0:0:0:
320,192,107462,1,0,0:0:0:0:
64,192,107462,1,0,0:0:0:0:
192,192,107685,1,0,0:0:0:0:
448,192,107796,1,0,0:0:0:0:
64,192,108018,1,0,0:0:0:0:
320,192,108018,1,0,0:0:0:0:
192,192,108240,1,0,0:0:0:0:
320,192,108240,1,0,0:0:0:0:
192,192,108462,1,0,0:0:0:0:
320,192,108490,1,0,0:0:0:0:
448,192,108518,1,0,0:0:0:0:
192,192,108685,1,0,0:0:0:0:
64,192,108907,1,0,0:0:0:0:
320,192,108907,1,0,0:0:0:0:
192,192,109129,1,0,0:0:0:0:
448,192,109240,1,0,0:0:0:0:
64,192,109240,1,0,0:0:0:0:
192,192,109462,1,0,0:0:0:0:
448,192,109573,1,0,0:0:0:0:
192,192,109796,1,0,0:0:0:0:
64,192,109796,1,0,0:0:0:0:
448,192,110018,1,0,0:0:0:0:
192,192,110018,1,0,0:0:0:0:
192,192,110351,1,0,0:0:0:0:
448,192,110462,1,0,0:0:0:0:
320,192,110685,1,0,0:0:0:0:
64,192,110685,1,0,0:0:0:0:
192,192,110907,1,0,0:0:0:0:
320,192,110907,1,0,0:0:0:0:
64,192,111018,1,0,0:0:0:0:
192,192,111046,1,0,0:0:0:0:
320,192,111073,1,0,0:0:0:0:
192,192,111240,1,0,0:0:0:0:
448,192,111351,1,0,0:0:0:0:
320,192,111573,1,0,0:0:0:0:
64,192,111573,1,0,0:0:0:0:
320,192,111796,1,0,0:0:0:0:
448,192,112018,1,0,0:0:0:0:
192,192,112018,1,0,0:0:0:0:
320,192,112129,1,0,0:0:0:0:
192,192,112240,1,0,0:0:0:0:
448,192,112351,1,0,0:0:0:0:
320,192,112462,1,0,0:0:0:0:
64,192,112462,1,0,0:0:0:0:
192,192,112518,1,0,0:0:0:0:
320,192,112573,1,0,0:0:0:0:
448,192,112629,1,0,0:0:0:0:
192,192,112685,1,0,0:0:0:0:
64,192,112740,1,0,0:0:0:0:
192,192,112796,1,0,0:0:0:0:
320,192,112851,1,0,0:0:0:0:
64,192,112907,1,0,0:0:0:0:
192,192,112907,1,0,0:0:0:0:
448,192,112962,1,0,0:0:0:0:
320,192,113018,1,0,0:0:0:0:
192,192,113073,1,0,0:0:0:0:
320,192,113129,1,0,0:0:0:0:
64,192,113185,1,0,0:0:0:0:
192,192,113240,1,0,0:0:0:0:
320,192,113296,1,0,0:0:0:0:
192,192,113351,1,0,0:0:0:0:
448,192,113351,1,0,0:0:0:0:
64,192,113407,1,0,0:0:0:0:
448,192,113462,1,0,0:0:0:0:
320,192,113518,1,0,0:0:0:0:
192,192,113573,1,0,0:0:0:0:
320,192,113629,1,0,0:0:0:0:
448,192,113685,1,0,0:0:0:0:
64,192,113740,1,0,0:0:0:0:
192,192,113796,1,0,0:0:0:0:
320,192,113796,1,0,0:0:0:0:
448,192,113851,1,0,0:0:0:0:
320,192,113907,1,0,0:0:0:0:
192,192,113962,1,0,0:0:0:0:
64,192,114018,1,0,0:0:0:0:
192,192,114073,1,0,0:0:0:0:
320,192,114129,1,0,0:0:0:0:
192,192,114185,1,0,0:0:0:0:
448,192,114240,128,0,115351:0:0:0:0:
320,192,114240,1,0,0:0:0:0:
320,192,115351,1,0,0:0:0:0:
192,192,115462,1,0,0:0:0:0:
448,192,115573,1,0,0:0:0:0:
64,192,115573,1,0,0:0:0:0:
320,192,115629,1,0,0:0:0:0:
192,192,115685,1,0,0:0:0:0:
64,192,115740,1,0,0:0:0:0:
320,192,115796,1,0,0:0:0:0:
192,192,115907,1,0,0:0:0:0:
448,192,116018,1,0,0:0:0:0:
320,192,116018,1,0,0:0:0:0:
192,192,116129,1,0,0:0:0:0:
64,192,116240,1,0,0:0:0:0:
320,192,116351,1,0,0:0:0:0:
192,192,116462,1,0,0:0:0:0:
64,192,116462,1,0,0:0:0:0:
448,192,116573,1,0,0:0:0:0:
64,192,116685,1,0,0:0:0:0:
192,192,116796,1,0,0:0:0:0:
448,192,116907,1,0,0:0:0:0:
64,192,116907,1,0,0:0:0:0:
192,192,117018,1,0,0:0:0:0:
320,192,117129,1,0,0:0:0:0:
64,192,117240,1,0,0:0:0:0:
192,192,117351,1,0,0:0:0:0:
448,192,117351,1,0,0:0:0:0:
64,192,117462,1,0,0:0:0:0:
320,192,117573,1,0,0:0:0:0:
192,192,117685,1,0,0:0:0:0:
320,192,117796,1,0,0:0:0:0:
64,192,117796,1,0,0:0:0:0:
448,192,117796,1,0,0:0:0:0:
192,192,117907,1,0,0:0:0:0:
64,192,118018,1,0,0:0:0:0:
320,192,118129,1,0,0:0:0:0:
192,192,118240,1,0,0:0:0:0:
448,192,118240,1,0,0:0:0:0:
64,192,118351,1,0,0:0:0:0:
320,192,118462,1,0,0:0:0:0:
192,192,118573,1,0,0:0:0:0:
320,192,118685,1,0,0:0:0:0:
64,192,118685,1,0,0:0:0:0:
192,192,118796,1,0,0:0:0:0:
448,192,118907,5,0,0:0:0:0:
320,192,118935,1,0,0:0:0:0:
192,192,118962,1,0,0:0:0:0:
64,192,118990,1,0,0:0:0:0:
448,192,119018,1,0,0:0:0:0:
320,192,119046,1,0,0:0:0:0:
192,192,119073,1,0,0:0:0:0:
64,192,119101,1,0,0:0:0:0:
448,192,119129,1,0,0:0:0:0:
320,192,119157,1,0,0:0:0:0:
192,192,119185,1,0,0:0:0:0:
64,192,119212,1,0,0:0:0:0:
448,192,119240,1,0,0:0:0:0:
320,192,119268,1,0,0:0:0:0:
192,192,119296,1,0,0:0:0:0:
64,192,119323,1,0,0:0:0:0:
448,192,119351,1,0,0:0:0:0:
320,192,119379,1,0,0:0:0:0:
192,192,119407,1,0,0:0:0:0:
64,192,119435,1,0,0:0:0:0:
448,192,119573,1,0,0:0:0:0:
192,192,119573,1,0,0:0:0:0:
64,192,119573,1,0,0:0:0:0:
320,192,119685,1,0,0:0:0:0:
192,192,119796,1,0,0:0:0:0:
448,192,119907,1,0,0:0:0:0:
320,192,119907,1,0,0:0:0:0:
64,192,119907,1,0,0:0:0:0:
192,192,120018,1,0,0:0:0:0:
320,192,120129,1,0,0:0:0:0:
64,192,120240,1,0,0:0:0:0:
448,192,120240,1,0,0:0:0:0:
192,192,120240,1,0,0:0:0:0:
64,192,120462,1,0,0:0:0:0:
320,192,120462,1,0,0:0:0:0:
448,192,120462,1,0,0:0:0:0:
192,192,120907,128,0,121351:0:0:0:0:
448,192,120907,1,0,0:0:0:0:
64,192,120907,1,0,0:0:0:0:
320,192,121351,1,0,0:0:0:0:
448,192,121351,1,0,0:0:0:0:
64,192,121462,1,0,0:0:0:0:
192,192,121573,1,0,0:0:0:0:
320,192,121685,1,0,0:0:0:0:
192,192,121796,1,0,0:0:0:0:
64,192,121796,1,0,0:0:0:0:
320,192,121907,1,0,0:0:0:0:
448,192,122018,1,0,0:0:0:0:
192,192,122129,1,0,0:0:0:0:
320,192,122240,1,0,0:0:0:0:
64,192,122240,1,0,0:0:0:0:
192,192,122351,1,0,0:0:0:0:
448,192,122462,1,0,0:0:0:0:
64,192,122573,1,0,0:0:0:0:
192,192,122685,1,0,0:0:0:0:
320,192,122712,1,0,0:0:0:0:
448,192,122740,1,0,0:0:0:0:
320,192,122907,1,0,0:0:0:0:
64,192,123018,1,0,0:0:0:0:
320,192,123129,1,0,0:0:0:0:
448,192,123129,1,0,0:0:0:0:
192,192,123240,1,0,0:0:0:0:
320,192,123351,1,0,0:0:0:0:
64,192,123462,1,0,0:0:0:0:
192,192,123573,1,0,0:0:0:0:
448,192,123573,1,0,0:0:0:0:
64,192,123685,1,0,0:0:0:0:
448,192,123796,1,0,0:0:0:0:
320,192,123907,1,0,0:0:0:0:
192,192,124018,1,0,0:0:0:0:
64,192,124018,1,0,0:0:0:0:
448,192,124129,1,0,0:0:0:0:
192,192,124240,1,0,0:0:0:0:
448,192,124351,1,0,0:0:0:0:
320,192,124462,1,0,0:0:0:0:
64,192,124462,1,0,0:0:0:0:
192,192,124573,1,0,0:0:0:0:
320,192,124685,1,0,0:0:0:0:
448,192,124796,1,0,0:0:0:0:
320,192,124907,1,0,0:0:0:0:
64,192,124907,1,0,0:0:0:0:
192,192,125018,1,0,0:0:0:0:
320,192,125129,1,0,0:0:0:0:
64,192,125240,1,0,0:0:0:0:
320,192,125351,1,0,0:0:0:0:
448,192,125351,1,0,0:0:0:0:
192,192,125462,1,0,0:0:0:0:
320,192,125573,1,0,0:0:0:0:
448,192,125685,1,0,0:0:0:0:
64,192,125796,1,0,0:0:0:0:
192,192,125823,1,0,0:0:0:0:
320,192,125851,1,0,0:0:0:0:
448,192,125879,1,0,0:0:0:0:
192,192,126018,1,0,0:0:0:0:
64,192,126129,1,0,0:0:0:0:
192,192,126240,1,0,0:0:0:0:
448,192,126240,1,0,0:0:0:0:
64,192,126351,1,0,0:0:0:0:
448,192,126462,1,0,0:0:0:0:
320,192,126462,1,0,0:0:0:0:
320,192,126573,1,0,0:0:0:0:
192,192,126573,1,0,0:0:0:0:
192,192,126685,1,0,0:0:0:0:
64,192,126685,1,0,0:0:0:0:
448,192,126796,1,0,0:0:0:0:
320,192,126907,1,0,0:0:0:0:
64,192,127018,1,0,0:0:0:0:
448,192,127129,1,0,0:0:0:0:
192,192,127129,1,0,0:0:0:0:
320,192,127240,1,0,0:0:0:0:
192,192,127351,1,0,0:0:0:0:
64,192,127462,1,0,0:0:0:0:
448,192,127573,1,0,0:0:0:0:
192,192,127573,1,0,0:0:0:0:
64,192,127685,1,0,0:0:0:0:
192,192,127796,1,0,0:0:0:0:
320,192,127907,1,0,0:0:0:0:
64,192,128018,1,0,0:0:0:0:
192,192,128018,1,0,0:0:0:0:
320,192,128129,1,0,0:0:0:0:
192,192,128240,1,0,0:0:0:0:
448,192,128351,1,0,0:0:0:0:
64,192,128462,1,0,0:0:0:0:
192,192,128490,1,0,0:0:0:0:
320,192,128518,1,0,0:0:0:0:
448,192,128546,1,0,0:0:0:0:
64,192,128685,1,0,0:0:0:0:
448,192,128796,1,0,0:0:0:0:
64,192,128907,1,0,0:0:0:0:
320,192,128907,1,0,0:0:0:0:
448,192,129018,1,0,0:0:0:0:
64,192,129129,1,0,0:0:0:0:
192,192,129240,1,0,0:0:0:0:
448,192,129351,1,0,0:0:0:0:
320,192,129351,1,0,0:0:0:0:
192,192,129462,1,0,0:0:0:0:
64,192,129573,1,0,0:0:0:0:
320,192,129685,1,0,0:0:0:0:
448,192,129796,1,0,0:0:0:0:
192,192,129796,1,0,0:0:0:0:
320,192,129851,1,0,0:0:0:0:
192,192,129907,1,0,0:0:0:0:
64,192,129962,1,0,0:0:0:0:
320,192,130018,1,0,0:0:0:0:
192,192,130129,1,0,0:0:0:0:
320,192,130240,1,0,0:0:0:0:
448,192,130240,1,0,0:0:0:0:
192,192,130351,1,0,0:0:0:0:
64,192,130462,1,0,0:0:0:0:
320,192,130573,1,0,0:0:0:0:
192,192,130685,1,0,0:0:0:0:
448,192,130685,1,0,0:0:0:0:
320,192,130796,1,0,0:0:0:0:
192,192,130907,1,0,0:0:0:0:
64,192,131018,1,0,0:0:0:0:
192,192,131129,1,0,0:0:0:0:
448,192,131129,1,0,0:0:0:0:
320,192,131240,1,0,0:0:0:0:
192,192,131351,1,0,0:0:0:0:
448,192,131462,1,0,0:0:0:0:
192,192,131573,1,0,0:0:0:0:
64,192,131573,1,0,0:0:0:0:
320,192,131685,1,0,0:0:0:0:
192,192,131796,1,0,0:0:0:0:
448,192,131796,1,0,0:0:0:0:
320,192,131907,1,0,0:0:0:0:
64,192,131907,1,0,0:0:0:0:
192,192,132018,1,0,0:0:0:0:
448,192,132018,1,0,0:0:0:0:
64,192,132129,1,0,0:0:0:0:
320,192,132240,1,0,0:0:0:0:
448,192,132351,1,0,0:0:0:0:
192,192,132462,1,0,0:0:0:0:
64,192,132462,1,0,0:0:0:0:
320,192,132573,1,0,0:0:0:0:
64,192,132685,1,0,0:0:0:0:
448,192,132796,1,0,0:0:0:0:
192,192,132907,1,0,0:0:0:0:
320,192,132907,1,0,0:0:0:0:
64,192,133018,1,0,0:0:0:0:
320,192,133129,1,0,0:0:0:0:
192,192,133240,1,0,0:0:0:0:
320,192,133296,1,0,0:0:0:0:
448,192,133351,1,0,0:0:0:0:
192,192,133351,1,0,0:0:0:0:
320,192,133462,1,0,0:0:0:0:
64,192,133573,1,0,0:0:0:0:
192,192,133685,1,0,0:0:0:0:
448,192,133796,1,0,0:0:0:0:
320,192,133796,1,0,0:0:0:0:
192,192,133907,1,0,0:0:0:0:
64,192,134018,1,0,0:0:0:0:
320,192,134129,1,0,0:0:0:0:
192,192,134240,1,0,0:0:0:0:
64,192,134240,1,0,0:0:0:0:
448,192,134351,1,0,0:0:0:0:
320,192,134462,5,0,0:0:0:0:
192,192,134573,1,0,0:0:0:0:
64,192,134685,1,0,0:0:0:0:
320,192,134685,1,0,0:0:0:0:
192,192,134796,1,0,0:0:0:0:
448,192,134907,1,0,0:0:0:0:
320,192,135018,1,0,0:0:0:0:
64,192,135129,1,0,0:0:0:0:
192,192,135129,1,0,0:0:0:0:
320,192,135240,1,0,0:0:0:0:
192,192,135351,1,0,0:0:0:0:
320,192,135462,1,0,0:0:0:0:
192,192,135573,5,0,0:0:0:0:
64,192,135573,1,0,0:0:0:0:
448,192,135573,1,0,0:0:0:0:
320,192,135685,1,0,0:0:0:0:
192,192,135796,1,0,0:0:0:0:
448,192,135907,1,0,0:0:0:0:
64,192,135907,1,0,0:0:0:0:
320,192,135907,1,0,0:0:0:0:
192,192,136018,1,0,0:0:0:0:
320,192,136129,1,0,0:0:0:0:
64,192,136240,1,0,0:0:0:0:
192,192,136240,1,0,0:0:0:0:
448,192,136240,1,0,0:0:0:0:
448,192,136462,1,0,0:0:0:0:
192,192,136462,1,0,0:0:0:0:
64,192,136462,1,0,0:0:0:0:
320,192,136907,1,0,0:0:0:0:
192,192,137018,1,0,0:0:0:0:
320,192,137073,1,0,0:0:0:0:
448,192,137129,1,0,0:0:0:0:
320,192,137240,1,0,0:0:0:0:
192,192,137351,1,0,0:0:0:0:
64,192,137351,1,0,0:0:0:0:
448,192,137351,1,0,0:0:0:0:
320,192,137462,1,0,0:0:0:0:
192,192,137573,1,0,0:0:0:0:
64,192,137685,1,0,0:0:0:0:
448,192,137796,1,0,0:0:0:0:
320,192,137907,1,0,0:0:0:0:
192,192,138018,1,0,0:0:0:0:
320,192,138073,1,0,0:0:0:0:
448,192,138129,1,0,0:0:0:0:
320,192,138240,1,0,0:0:0:0:
64,192,138351,1,0,0:0:0:0:
192,192,138462,1,0,0:0:0:0:
448,192,138573,1,0,0:0:0:0:
320,192,138685,1,0,0:0:0:0:
64,192,138685,1,0,0:0:0:0:
192,192,138796,1,0,0:0:0:0:
320,192,138907,1,0,0:0:0:0:
192,192,139018,1,0,0:0:0:0:
64,192,139129,1,0,0:0:0:0:
192,192,139157,1,0,0:0:0:0:
320,192,139185,1,0,0:0:0:0:
448,192,139212,1,0,0:0:0:0:
64,192,139351,1,0,0:0:0:0:
192,192,139462,1,0,0:0:0:0:
320,192,139573,1,0,0:0:0:0:
448,192,139573,1,0,0:0:0:0:
192,192,139685,1,0,0:0:0:0:
448,192,139796,1,0,0:0:0:0:
320,192,139823,1,0,0:0:0:0:
192,192,139851,1,0,0:0:0:0:
64,192,139879,1,0,0:0:0:0:
448,192,139962,1,0,0:0:0:0:
64,192,140018,1,0,0:0:0:0:
320,192,140018,1,0,0:0:0:0:
192,192,140073,1,0,0:0:0:0:
448,192,140129,1,0,0:0:0:0:
192,192,140185,1,0,0:0:0:0:
320,192,140240,1,0,0:0:0:0:
448,192,140296,1,0,0:0:0:0:
320,192,140351,1,0,0:0:0:0:
192,192,140407,1,0,0:0:0:0:
320,192,140462,1,0,0:0:0:0:
64,192,140462,1,0,0:0:0:0:
192,192,140518,1,0,0:0:0:0:
320,192,140573,1,0,0:0:0:0:
448,192,140629,1,0,0:0:0:0:
320,192,140685,1,0,0:0:0:0:
64,192,140740,1,0,0:0:0:0:
192,192,140796,1,0,0:0:0:0:
320,192,140851,1,0,0:0:0:0:
192,192,140907,1,0,0:0:0:0:
448,192,140907,1,0,0:0:0:0:
64,192,141018,1,0,0:0:0:0:
320,192,141129,1,0,0:0:0:0:
64,192,141240,1,0,0:0:0:0:
448,192,141351,1,0,0:0:0:0:
192,192,141351,1,0,0:0:0:0:
320,192,141462,1,0,0:0:0:0:
192,192,141573,1,0,0:0:0:0:
320,192,141629,1,0,0:0:0:0:
448,192,141685,1,0,0:0:0:0:
192,192,141796,1,0,0:0:0:0:
320,192,141796,1,0,0:0:0:0:
448,192,141907,1,0,0:0:0:0:
64,192,142018,1,0,0:0:0:0:
192,192,142129,1,0,0:0:0:0:
320,192,142240,1,0,0:0:0:0:
64,192,142240,1,0,0:0:0:0:
192,192,142351,1,0,0:0:0:0:
64,192,142407,1,0,0:0:0:0:
448,192,142462,1,0,0:0:0:0:
320,192,142518,1,0,0:0:0:0:
64,192,142573,1,0,0:0:0:0:
192,192,142629,1,0,0:0:0:0:
448,192,142685,1,0,0:0:0:0:
320,192,142685,1,0,0:0:0:0:
64,192,142685,1,0,0:0:0:0:
192,192,142796,1,0,0:0:0:0:
320,192,142907,1,0,0:0:0:0:
448,192,143018,1,0,0:0:0:0:
64,192,143018,1,0,0:0:0:0:
192,192,143018,1,0,0:0:0:0:
320,192,143129,1,0,0:0:0:0:
192,192,143240,1,0,0:0:0:0:
448,192,143351,1,0,0:0:0:0:
320,192,143351,1,0,0:0:0:0:
64,192,143351,1,0,0:0:0:0:
448,192,143573,1,0,0:0:0:0:
320,192,143573,1,0,0:0:0:0:
64,192,143573,1,0,0:0:0:0:
192,192,143796,1,0,0:0:0:0:
320,192,143851,1,0,0:0:0:0:
192,192,143907,1,0,0:0:0:0:
64,192,143962,1,0,0:0:0:0:
320,192,144018,1,0,0:0:0:0:
448,192,144073,1,0,0:0:0:0:
320,192,144129,1,0,0:0:0:0:
192,192,144185,1,0,0:0:0:0:
64,192,144240,1,0,0:0:0:0:
448,192,144296,1,0,0:0:0:0:
320,192,144351,1,0,0:0:0:0:
192,192,144407,1,0,0:0:0:0:
320,192,144462,1,0,0:0:0:0:
448,192,144462,128,0,144796:0:0:0:0:
192,192,144796,128,0,145351:0:0:0:0:
320,192,145351,1,0,0:0:0:0:
448,192,145407,1,0,0:0:0:0:
64,192,145462,1,0,0:0:0:0:
192,192,145518,1,0,0:0:0:0:
448,192,145573,1,0,0:0:0:0:
320,192,145685,1,0,0:0:0:0:
192,192,145796,1,0,0:0:0:0:
448,192,145796,1,0,0:0:0:0:
64,192,145907,1,0,0:0:0:0:
448,192,146018,1,0,0:0:0:0:
192,192,146129,1,0,0:0:0:0:
320,192,146240,1,0,0:0:0:0:
64,192,146240,1,0,0:0:0:0:
192,192,146351,1,0,0:0:0:0:
320,192,146462,1,0,0:0:0:0:
64,192,146573,1,0,0:0:0:0:
192,192,146685,1,0,0:0:0:0:
448,192,146685,1,0,0:0:0:0:
320,192,146796,1,0,0:0:0:0:
448,192,146907,1,0,0:0:0:0:
192,192,147018,1,0,0:0:0:0:
64,192,147129,1,0,0:0:0:0:
320,192,147129,128,0,147573:0:0:0:0:
64,192,147573,1,0,0:0:0:0:
448,192,147573,1,0,0:0:0:0:
192,192,147685,1,0,0:0:0:0:
64,192,147796,1,0,0:0:0:0:
448,192,147907,1,0,0:0:0:0:
64,192,148018,1,0,0:0:0:0:
192,192,148018,1,0,0:0:0:0:
448,192,148129,1,0,0:0:0:0:
320,192,148240,1,0,0:0:0:0:
192,192,148351,1,0,0:0:0:0:
448,192,148462,1,0,0:0:0:0:
64,192,148462,1,0,0:0:0:0:
320,192,148573,1,0,0:0:0:0:
192,192,148685,1,0,0:0:0:0:
64,192,148796,1,0,0:0:0:0:
320,192,148907,1,0,0:0:0:0:
448,192,148907,1,0,0:0:0:0:
192,192,149018,1,0,0:0:0:0:
320,192,149129,1,0,0:0:0:0:
192,192,149240,1,0,0:0:0:0:
448,192,149351,1,0,0:0:0:0:
320,192,149351,1,0,0:0:0:0:
192,192,149407,1,0,0:0:0:0:
64,192,149462,1,0,0:0:0:0:
320,192,149518,1,0,0:0:0:0:
192,192,149573,1,0,0:0:0:0:
448,192,149629,1,0,0:0:0:0:
320,192,149685,1,0,0:0:0:0:
192,192,149740,1,0,0:0:0:0:
320,192,149796,128,0,150240:0:0:0:0:
64,192,149796,1,0,0:0:0:0:
448,192,150240,1,0,0:0:0:0:
64,192,150240,1,0,0:0:0:0:
192,192,150351,1,0,0:0:0:0:
64,192,150462,1,0,0:0:0:0:
320,192,150573,1,0,0:0:0:0:
192,192,150685,1,0,0:0:0:0:
448,192,150685,1,0,0:0:0:0:
64,192,150796,1,0,0:0:0:0:
320,192,150907,1,0,0:0:0:0:
448,192,151018,128,0,151240:0:0:0:0:
320,192,151240,1,0,0:0:0:0:
192,192,151351,1,0,0:0:0:0:
64,192,151462,1,0,0:0:0:0:
448,192,151573,1,0,0:0:0:0:
192,192,151573,1,0,0:0:0:0:
320,192,151685,1,0,0:0:0:0:
64,192,151796,1,0,0:0:0:0:
448,192,151851,1,0,0:0:0:0:
320,192,151907,1,0,0:0:0:0:
192,192,151962,1,0,0:0:0:0:
64,192,152018,128,0,152462:0:0:0:0:
192,192,152462,1,0,0:0:0:0:
320,192,152462,1,0,0:0:0:0:
448,192,152573,1,0,0:0:0:0:
192,192,152685,128,0,152907:0:0:0:0:
320,192,152685,1,0,0:0:0:0:
320,192,152907,128,0,153129:0:0:0:0:
64,192,152907,1,0,0:0:0:0:
64,192,153129,128,0,153351:0:0:0:0:
192,192,153129,1,0,0:0:0:0:
192,192,153351,1,0,0:0:0:0:
448,192,153351,128,0,153685:0:0:0:0:
320,192,153685,1,0,0:0:0:0:
192,192,153740,1,0,0:0:0:0:
64,192,153796,128,0,153907:0:0:0:0:
192,192,153907,1,0,0:0:0:0:
320,192,153962,1,0,0:0:0:0:
448,192,154018,1,0,0:0:0:0:
320,192,154129,1,0,0:0:0:0:
448,192,154240,128,0,154907:0:0:0:0:
192,192,154240,1,0,0:0:0:0:
320,192,154907,1,0,0:0:0:0:
192,192,154962,1,0,0:0:0:0:
64,192,155018,1,0,0:0:0:0:
320,192,155073,1,0,0:0:0:0:
192,192,155129,1,0,0:0:0:0:
448,192,155129,1,0,0:0:0:0:
320,192,155185,1,0,0:0:0:0:
64,192,155240,1,0,0:0:0:0:
192,192,155296,1,0,0:0:0:0:
448,192,155351,1,0,0:0:0:0:
320,192,155407,1,0,0:0:0:0:
192,192,155462,1,0,0:0:0:0:
448,192,155518,1,0,0:0:0:0:
320,192,155573,1,0,0:0:0:0:
64,192,155573,1,0,0:0:0:0:
192,192,155629,1,0,0:0:0:0:
320,192,155685,1,0,0:0:0:0:
448,192,155740,1,0,0:0:0:0:
192,192,155796,1,0,0:0:0:0:
320,192,155851,1,0,0:0:0:0:
64,192,155907,1,0,0:0:0:0:
448,192,155962,1,0,0:0:0:0:
320,192,156018,1,0,0:0:0:0:
192,192,156018,1,0,0:0:0:0:
64,192,156073,1,0,0:0:0:0:
192,192,156129,1,0,0:0:0:0:
320,192,156185,1,0,0:0:0:0:
448,192,156240,1,0,0:0:0:0:
192,192,156296,1,0,0:0:0:0:
320,192,156351,1,0,0:0:0:0:
64,192,156407,1,0,0:0:0:0:
320,192,156462,1,0,0:0:0:0:
448,192,156462,1,0,0:0:0:0:
192,192,156518,1,0,0:0:0:0:
320,192,156573,1,0,0:0:0:0:
64,192,156629,1,0,0:0:0:0:
192,192,156685,1,0,0:0:0:0:
448,192,156740,1,0,0:0:0:0:
192,192,156796,1,0,0:0:0:0:
320,192,156851,1,0,0:0:0:0:
448,192,156907,1,0,0:0:0:0:
192,192,156907,1,0,0:0:0:0:
64,192,156907,1,0,0:0:0:0:
320,192,157018,1,0,0:0:0:0:
192,192,157129,1,0,0:0:0:0:
448,192,157240,1,0,0:0:0:0:
64,192,157240,1,0,0:0:0:0:
320,192,157240,1,0,0:0:0:0:
192,192,157351,1,0,0:0:0:0:
320,192,157462,1,0,0:0:0:0:
192,192,157573,1,0,0:0:0:0:
64,192,157573,1,0,0:0:0:0:
448,192,157573,1,0,0:0:0:0:
64,192,157796,1,0,0:0:0:0:
192,192,157796,1,0,0:0:0:0:
448,192,157796,1,0,0:0:0:0:
192,192,158240,1,0,0:0:0:0:
64,192,158240,1,0,0:0:0:0:
448,192,158240,1,0,0:0:0:0:
192,192,158685,1,0,0:0:0:0:
64,192,158685,1,0,0:0:0:0:
448,192,158685,1,0,0:0:0:0:
320,192,158740,1,0,0:0:0:0:
448,192,158796,1,0,0:0:0:0:
64,192,158851,1,0,0:0:0:0:
192,192,158907,1,0,0:0:0:0:
320,192,158962,1,0,0:0:0:0:
192,192,159018,1,0,0:0:0:0:
64,192,159073,1,0,0:0:0:0:
448,192,159129,1,0,0:0:0:0:
320,192,159129,1,0,0:0:0:0:
64,192,159185,1,0,0:0:0:0:
192,192,159240,1,0,0:0:0:0:
320,192,159296,1,0,0:0:0:0:
448,192,159351,1,0,0:0:0:0:
320,192,159407,1,0,0:0:0:0:
192,192,159462,1,0,0:0:0:0:
64,192,159518,1,0,0:0:0:0:
192,192,159573,1,0,0:0:0:0:
448,192,159573,1,0,0:0:0:0:
320,192,159629,1,0,0:0:0:0:
192,192,159685,1,0,0:0:0:0:
64,192,159740,1,0,0:0:0:0:
192,192,159796,1,0,0:0:0:0:
320,192,159851,1,0,0:0:0:0:
448,192,159907,1,0,0:0:0:0:
320,192,159962,1,0,0:0:0:0:
448,192,160018,1,0,0:0:0:0:
192,192,160018,1,0,0:0:0:0:
320,192,160073,1,0,0:0:0:0:
192,192,160129,1,0,0:0:0:0:
64,192,160185,1,0,0:0:0:0:
192,192,160240,1,0,0:0:0:0:
320,192,160296,1,0,0:0:0:0:
448,192,160351,1,0,0:0:0:0:
320,192,160407,1,0,0:0:0:0:
192,192,160462,1,0,0:0:0:0:
448,192,160462,128,0,160907:0:0:0:0:
320,192,160907,1,0,0:0:0:0:
64,192,160907,1,0,0:0:0:0:
192,192,160962,1,0,0:0:0:0:
64,192,161018,1,0,0:0:0:0:
320,192,161073,1,0,0:0:0:0:
192,192,161129,1,0,0:0:0:0:
448,192,161185,1,0,0:0:0:0:
320,192,161240,1,0,0:0:0:0:
192,192,161351,1,0,0:0:0:0:
448,192,161351,1,0,0:0:0:0:
64,192,161462,1,0,0:0:0:0:
320,192,161462,1,0,0:0:0:0:
192,192,161573,1,0,0:0:0:0:
448,192,161573,1,0,0:0:0:0:
64,192,161685,1,0,0:0:0:0:
320,192,161685,1,0,0:0:0:0:
192,192,161796,1,0,0:0:0:0:
448,192,161796,1,0,0:0:0:0:
192,192,161907,1,0,0:0:0:0:
448,192,161907,1,0,0:0:0:0:
320,192,162018,1,0,0:0:0:0:
64,192,162018,1,0,0:0:0:0:
64,192,162129,1,0,0:0:0:0:
320,192,162129,1,0,0:0:0:0:
192,192,162240,128,0,162629:0:0:0:0:
320,192,162240,128,0,162629:0:0:0:0:
64,192,162685,128,0,163073:0:0:0:0:
448,192,162685,128,0,163073:0:0:0:0:
192,192,163129,128,0,163518:0:0:0:0:
320,192,163129,128,0,163518:0:0:0:0:
448,192,163573,128,0,163962:0:0:0:0:
64,192,163573,128,0,163962:0:0:0:0:
192,192,164018,128,0,164407:0:0:0:0:
320,192,164018,128,0,164407:0:0:0:0:
64,192,164462,128,0,165129:0:0:0:0:
192,192,165129,1,0,0:0:0:0:
320,192,165185,1,0,0:0:0:0:
448,192,165240,1,0,0:0:0:0:
192,192,165296,1,0,0:0:0:0:
64,192,165351,1,0,0:0:0:0:
320,192,165351,1,0,0:0:0:0:
64,192,165518,1,0,0:0:0:0:
448,192,165573,1,0,0:0:0:0:
320,192,165629,1,0,0:0:0:0:
192,192,165685,1,0,0:0:0:0:
320,192,165740,1,0,0:0:0:0:
448,192,165796,128,0,166685:0:0:0:0:
64,192,165796,1,0,0:0:0:0:
192,192,166685,1,0,0:0:0:0:
64,192,166685,1,0,0:0:0:0:
320,192,166740,1,0,0:0:0:0:
192,192,166796,1,0,0:0:0:0:
320,192,166851,1,0,0:0:0:0:
64,192,166907,1,0,0:0:0:0:
192,192,166962,1,0,0:0:0:0:
448,192,167018,1,0,0:0:0:0:
320,192,167073,1,0,0:0:0:0:
192,192,167129,1,0,0:0:0:0:
64,192,167129,1,0,0:0:0:0:
320,192,167185,1,0,0:0:0:0:
192,192,167240,1,0,0:0:0:0:
448,192,167296,1,0,0:0:0:0:
320,192,167351,1,0,0:0:0:0:
64,192,167407,1,0,0:0:0:0:
192,192,167462,1,0,0:0:0:0:
448,192,167518,1,0,0:0:0:0:
320,192,167573,1,0,0:0:0:0:
64,192,167573,1,0,0:0:0:0:
192,192,167685,1,0,0:0:0:0:
320,192,167796,1,0,0:0:0:0:
64,192,167907,1,0,0:0:0:0:
448,192,167907,1,0,0:0:0:0:
192,192,168018,1,0,0:0:0:0:
320,192,168018,1,0,0:0:0:0:
448,192,168129,1,0,0:0:0:0:
64,192,168240,1,0,0:0:0:0:
64,192,168351,1,0,0:0:0:0:
192,192,168462,128,0,169129:0:0:0:0:
448,192,168462,128,0,169129:0:0:0:0:
320,192,169129,1,0,0:0:0:0:
64,192,169240,1,0,0:0:0:0:
320,192,169351,1,0,0:0:0:0:
192,192,169351,1,0,0:0:0:0:
64,192,169462,1,0,0:0:0:0:
448,192,169462,1,0,0:0:0:0:
448,192,169573,1,0,0:0:0:0:
448,192,169685,1,0,0:0:0:0:
320,192,169796,1,0,0:0:0:0:
64,192,169796,1,0,0:0:0:0:
192,192,169907,1,0,0:0:0:0:
320,192,170018,1,0,0:0:0:0:
448,192,170129,1,0,0:0:0:0:
192,192,170240,1,0,0:0:0:0:
320,192,170240,1,0,0:0:0:0:
64,192,170351,1,0,0:0:0:0:
192,192,170462,1,0,0:0:0:0:
448,192,170573,1,0,0:0:0:0:
320,192,170685,1,0,0:0:0:0:
64,192,170685,1,0,0:0:0:0:
448,192,170796,1,0,0:0:0:0:
192,192,170907,1,0,0:0:0:0:
320,192,171018,1,0,0:0:0:0:
192,192,171129,1,0,0:0:0:0:
448,192,171129,128,0,172907:0:0:0:0:
320,192,172907,1,0,0:0:0:0:
192,192,172907,1,0,0:0:0:0:
64,192,172907,1,0,0:0:0:0:
448,192,173018,1,0,0:0:0:0:
320,192,173240,1,0,0:0:0:0:
192,192,173240,1,0,0:0:0:0:
64,192,173240,1,0,0:0:0:0:
448,192,173351,1,0,0:0:0:0:
320,192,173573,1,0,0:0:0:0:
192,192,173573,1,0,0:0:0:0:
64,192,173573,1,0,0:0:0:0:
64,192,173796,1,0,0:0:0:0:
192,192,173796,1,0,0:0:0:0:
320,192,173796,1,0,0:0:0:0:
448,192,174685,1,0,0:0:0:0:
192,192,174685,1,0,0:0:0:0:
64,192,174685,1,0,0:0:0:0:
320,192,174796,1,0,0:0:0:0:
192,192,174907,1,0,0:0:0:0:
448,192,175018,1,0,0:0:0:0:
64,192,175129,1,0,0:0:0:0:
320,192,175129,1,0,0:0:0:0:
448,192,175240,1,0,0:0:0:0:
192,192,175351,1,0,0:0:0:0:
320,192,175407,1,0,0:0:0:0:
448,192,175462,1,0,0:0:0:0:
320,192,175573,1,0,0:0:0:0:
192,192,175573,1,0,0:0:0:0:
64,192,175685,1,0,0:0:0:0:
320,192,175796,1,0,0:0:0:0:
448,192,175907,1,0,0:0:0:0:
320,192,176018,1,0,0:0:0:0:
192,192,176129,1,0,0:0:0:0:
448,192,176240,1,0,0:0:0:0:
320,192,176351,1,0,0:0:0:0:
64,192,176462,1,0,0:0:0:0:
192,192,176490,1,0,0:0:0:0:
320,192,176518,1,0,0:0:0:0:
448,192,176546,1,0,0:0:0:0:
192,192,176685,1,0,0:0:0:0:
320,192,176796,1,0,0:0:0:0:
64,192,176907,1,0,0:0:0:0:
320,192,177018,1,0,0:0:0:0:
448,192,177129,1,0,0:0:0:0:
320,192,177157,1,0,0:0:0:0:
192,192,177185,1,0,0:0:0:0:
64,192,177212,1,0,0:0:0:0:
320,192,177351,1,0,0:0:0:0:
448,192,177351,1,0,0:0:0:0:
192,192,177462,1,0,0:0:0:0:
64,192,177573,1,0,0:0:0:0:
320,192,177685,1,0,0:0:0:0:
448,192,177796,1,0,0:0:0:0:
64,192,177796,1,0,0:0:0:0:
192,192,177907,1,0,0:0:0:0:
64,192,178018,1,0,0:0:0:0:
448,192,178129,1,0,0:0:0:0:
64,192,178240,1,0,0:0:0:0:
192,192,178268,1,0,0:0:0:0:
320,192,178296,1,0,0:0:0:0:
192,192,178462,1,0,0:0:0:0:
64,192,178573,1,0,0:0:0:0:
192,192,178685,1,0,0:0:0:0:
448,192,178685,1,0,0:0:0:0:
64,192,178796,1,0,0:0:0:0:
192,192,178907,1,0,0:0:0:0:
320,192,178935,1,0,0:0:0:0:
448,192,178962,1,0,0:0:0:0:
64,192,179018,1,0,0:0:0:0:
448,192,179129,1,0,0:0:0:0:
192,192,179129,1,0,0:0:0:0:
320,192,179240,1,0,0:0:0:0:
192,192,179351,1,0,0:0:0:0:
320,192,179462,1,0,0:0:0:0:
192,192,179573,1,0,0:0:0:0:
64,192,179573,1,0,0:0:0:0:
448,192,179685,1,0,0:0:0:0:
320,192,179796,1,0,0:0:0:0:
192,192,179907,1,0,0:0:0:0:
320,192,180018,1,0,0:0:0:0:
64,192,180018,1,0,0:0:0:0:
448,192,180018,1,0,0:0:0:0:
192,192,180129,1,0,0:0:0:0:
320,192,180240,1,0,0:0:0:0:
448,192,180351,1,0,0:0:0:0:
64,192,180351,1,0,0:0:0:0:
192,192,180351,1,0,0:0:0:0:
320,192,180462,1,0,0:0:0:0:
192,192,180573,1,0,0:0:0:0:
448,192,180685,1,0,0:0:0:0:
320,192,180685,1,0,0:0:0:0:
64,192,180685,1,0,0:0:0:0:
448,192,180907,1,0,0:0:0:0:
64,192,180907,1,0,0:0:0:0:
320,192,180907,128,0,181351:0:0:0:0:
448,192,181351,1,0,0:0:0:0:
64,192,181351,1,0,0:0:0:0:
192,192,181351,128,0,181796:0:0:0:0:
320,192,181796,1,0,0:0:0:0:
64,192,181796,1,0,0:0:0:0:
448,192,181907,1,0,0:0:0:0:
192,192,182018,1,0,0:0:0:0:
320,192,182129,1,0,0:0:0:0:
192,192,182240,1,0,0:0:0:0:
448,192,182240,1,0,0:0:0:0:
64,192,182351,1,0,0:0:0:0:
192,192,182462,1,0,0:0:0:0:
320,192,182518,1,0,0:0:0:0:
448,192,182573,1,0,0:0:0:0:
192,192,182685,1,0,0:0:0:0:
64,192,182685,1,0,0:0:0:0:
448,192,182796,1,0,0:0:0:0:
192,192,182907,1,0,0:0:0:0:
320,192,183018,1,0,0:0:0:0:
64,192,183129,1,0,0:0:0:0:
448,192,183129,1,0,0:0:0:0:
192,192,183240,1,0,0:0:0:0:
320,192,183351,1,0,0:0:0:0:
192,192,183462,1,0,0:0:0:0:
64,192,183573,1,0,0:0:0:0:
192,192,183601,1,0,0:0:0:0:
320,192,183629,1,0,0:0:0:0:
448,192,183657,1,0,0:0:0:0:
320,192,183796,1,0,0:0:0:0:
64,192,183907,1,0,0:0:0:0:
320,192,184018,1,0,0:0:0:0:
192,192,184018,1,0,0:0:0:0:
448,192,184240,1,0,0:0:0:0:
320,192,184296,1,0,0:0:0:0:
192,192,184351,1,0,0:0:0:0:
64,192,184407,1,0,0:0:0:0:
192,192,184462,1,0,0:0:0:0:
448,192,184462,1,0,0:0:0:0:
320,192,184518,1,0,0:0:0:0:
64,192,184573,1,0,0:0:0:0:
192,192,184629,1,0,0:0:0:0:
448,192,184685,1,0,0:0:0:0:
320,192,184740,1,0,0:0:0:0:
64,192,184796,1,0,0:0:0:0:
192,192,184851,1,0,0:0:0:0:
448,192,184907,1,0,0:0:0:0:
64,192,184907,1,0,0:0:0:0:
192,192,185018,1,0,0:0:0:0:
320,192,185129,1,0,0:0:0:0:
64,192,185240,1,0,0:0:0:0:
192,192,185351,1,0,0:0:0:0:
448,192,185351,1,0,0:0:0:0:
320,192,185462,1,0,0:0:0:0:
64,192,185573,1,0,0:0:0:0:
192,192,185685,1,0,0:0:0:0:
64,192,185796,1,0,0:0:0:0:
448,192,185796,1,0,0:0:0:0:
320,192,185907,1,0,0:0:0:0:
64,192,186018,1,0,0:0:0:0:
192,192,186046,1,0,0:0:0:0:
320,192,186073,1,0,0:0:0:0:
448,192,186101,1,0,0:0:0:0:
192,192,186240,1,0,0:0:0:0:
64,192,186240,1,0,0:0:0:0:
320,192,186351,1,0,0:0:0:0:
192,192,186462,1,0,0:0:0:0:
64,192,186573,1,0,0:0:0:0:
192,192,186685,1,0,0:0:0:0:
448,192,186685,1,0,0:0:0:0:
64,192,186796,1,0,0:0:0:0:
192,192,186907,1,0,0:0:0:0:
320,192,187018,1,0,0:0:0:0:
192,192,187129,1,0,0:0:0:0:
448,192,187129,1,0,0:0:0:0:
64,192,187129,1,0,0:0:0:0:
320,192,187240,1,0,0:0:0:0:
192,192,187351,1,0,0:0:0:0:
64,192,187462,1,0,0:0:0:0:
448,192,187462,1,0,0:0:0:0:
320,192,187462,1,0,0:0:0:0:
192,192,187573,1,0,0:0:0:0:
320,192,187685,1,0,0:0:0:0:
192,192,187796,1,0,0:0:0:0:
64,192,187796,1,0,0:0:0:0:
448,192,187796,1,0,0:0:0:0:
320,192,187907,1,0,0:0:0:0:
192,192,188018,1,0,0:0:0:0:
448,192,188018,1,0,0:0:0:0:
64,192,188018,1,0,0:0:0:0:
320,192,188073,1,0,0:0:0:0:
448,192,188129,1,0,0:0:0:0:
192,192,188185,128,0,188462:0:0:0:0:
320,192,188462,128,0,188907:0:0:0:0:
64,192,188462,1,0,0:0:0:0:
448,192,188907,1,0,0:0:0:0:
192,192,188907,1,0,0:0:0:0:
320,192,189018,1,0,0:0:0:0:
64,192,189018,1,0,0:0:0:0:
192,192,189240,1,0,0:0:0:0:
320,192,189296,1,0,0:0:0:0:
448,192,189351,1,0,0:0:0:0:
192,192,189351,1,0,0:0:0:0:
320,192,189425,1,0,0:0:0:0:
192,192,189499,1,0,0:0:0:0:
64,192,189573,1,0,0:0:0:0:
320,192,189573,1,0,0:0:0:0:
192,192,189648,1,0,0:0:0:0:
448,192,189722,1,0,0:0:0:0:
320,192,189796,1,0,0:0:0:0:
64,192,189796,1,0,0:0:0:0:
192,192,189870,1,0,0:0:0:0:
448,192,189944,1,0,0:0:0:0:
320,192,190018,1,0,0:0:0:0:
192,192,190018,1,0,0:0:0:0:
64,192,190092,1,0,0:0:0:0:
192,192,190166,1,0,0:0:0:0:
64,192,190240,1,0,0:0:0:0:
320,192,190240,1,0,0:0:0:0:
448,192,190314,1,0,0:0:0:0:
192,192,190388,1,0,0:0:0:0:
320,192,190462,1,0,0:0:0:0:
64,192,190462,1,0,0:0:0:0:
192,192,190518,1,0,0:0:0:0:
320,192,190573,1,0,0:0:0:0:
448,192,190629,1,0,0:0:0:0:
64,192,190685,1,0,0:0:0:0:
192,192,190685,1,0,0:0:0:0:
320,192,190685,1,0,0:0:0:0:
448,192,190796,1,0,0:0:0:0:
320,192,190907,1,0,0:0:0:0:
192,192,191018,1,0,0:0:0:0:
64,192,191018,1,0,0:0:0:0:
448,192,191018,1,0,0:0:0:0:
320,192,191129,1,0,0:0:0:0:
192,192,191240,1,0,0:0:0:0:
320,192,191351,1,0,0:0:0:0:
448,192,191351,1,0,0:0:0:0:
64,192,191351,1,0,0:0:0:0:
320,192,191573,1,0,0:0:0:0:
64,192,191573,1,0,0:0:0:0:
192,192,191573,128,0,191796:0:0:0:0:
448,192,191573,1,0,0:0:0:0:
320,192,191796,128,0,192018:0:0:0:0:
448,192,192018,1,0,0:0:0:0:
64,192,192018,1,0,0:0:0:0:
192,192,192018,1,0,0:0:0:0:
