osu file format v12

[General]
AudioFilename: 02. MIDDLEISLAND - Arado.mp3
AudioLeadIn: 2000
PreviewTime: 85719
Countdown: 0
SampleSet: Normal
StackLeniency: 0.7
Mode: 0
LetterboxInBreaks: 0
UseSkinSprites: 1
EpilepsyWarning: 1
WidescreenStoryboard: 0

[Editor]
Bookmarks: 2627,13284,18416,26311,38942,57890,70521,83153,86311,106837,114337,127363,139995,146311,170784
DistanceSpacing: 1.4
BeatDivisor: 2
GridSize: 4

[Metadata]
Title:Aldo
TitleUnicode:アラード
Artist:MiddleIsland
ArtistUnicode:MiddleIsland
Creator:Lan wings
Version:Normal
Source:Gen Sou Chou Waza
Tags:Arado Nakajima Misaki Piano Violin AngelHoney
BeatmapID:289257
BeatmapSetID:72767

[Difficulty]
HPDrainRate:2
CircleSize:3
OverallDifficulty:3
ApproachRate:5
SliderMultiplier:1.1
SliderTickRate:1

[Events]
//Background and Video events
0,0,"bg.jpg",0,0
//Break Periods
2,114536,126163
//Storyboard Layer 0 (Background)
//Storyboard Layer 1 (Fail)
//Storyboard Layer 2 (Pass)
//Storyboard Layer 3 (Foreground)
//Storyboard Sound Samples
//Background Colour Transformations
3,100,163,162,255

[TimingPoints]
610,469.759248385203,4,1,1,20,1,0
1079,516.129032258065,4,3,1,40,1,0
2627,394.736842105263,4,1,1,40,1,0
6969,-100,4,1,1,20,0,0
7363,-100,4,1,1,40,0,0
9436,-100,4,1,1,35,0,0
9830,-100,4,1,1,40,0,0
12890,-100,4,1,1,20,0,0
13087,-100,4,1,1,10,0,0
13284,-100,4,1,1,40,0,0
14271,-100,4,1,1,70,0,0
14666,-100,4,1,1,40,0,0
15061,-100,4,1,1,80,0,0
15455,-100,4,1,1,40,0,0
15850,-100,4,1,1,70,0,0
16245,-100,4,1,1,40,0,0
16837,-100,4,1,1,5,0,0
18219,-100,4,1,1,20,0,0
32429,-100,4,1,1,25,0,0
38942,-100,4,1,1,40,0,0
51574,-100,4,1,1,35,0,0
57791,-100,4,1,1,25,0,0
63613,-100,4,1,1,15,0,0
64008,-100,4,1,1,25,0,0
70521,-100,4,1,1,40,0,0
76837,-100,4,1,1,38,0,0
78317,-100,4,1,1,40,0,0
86311,-100,4,1,1,40,0,1
93120,-100,4,1,1,38,0,1
93515,-100,4,1,1,40,0,1
105751,-100,4,1,1,38,0,1
106146,-100,4,1,1,40,0,1
110982,-100,4,1,1,20,0,1
111376,-100,4,1,1,40,0,1
114337,-100,4,1,1,40,0,0
127363,-100,4,1,1,40,0,1
128893,-100,4,1,1,35,0,1
128992,-100,4,1,1,40,0,1
132051,-100,4,1,1,38,0,1
132150,-100,4,1,1,40,0,1
135209,-100,4,1,1,38,0,1
135307,-100,4,1,1,40,0,1
138367,-100,4,1,1,38,0,1
138465,-100,4,1,1,40,0,1
139995,-100,4,1,1,40,0,0
140094,-100,4,1,1,35,0,0
140982,-100,4,1,1,40,0,0
143548,-100,4,1,1,40,0,0
146311,-100,4,1,1,40,0,1
153120,-100,4,1,1,35,0,1
153515,-100,4,1,1,40,0,1
177495,-100,4,1,1,40,0,0
177890,-100,4,1,1,20,0,0
177988,-100,4,2,1,5,0,0

[Colours]
Combo1 : 240,80,80
Combo2 : 248,211,171
Combo3 : 171,252,203
Combo4 : 175,221,254
Combo5 : 249,254,186
SliderBorder : 255,255,255

[HitObjects]
68,276,610,2,2,B|132:276|164:324|164:324|264:228|380:320,1,351.7,2|2,0:0|2:1,2:0:0:0:
504,216,2627,2,2,P|427:216|348:179,1,165,6|8,0:3|0:3,0:0:0:0:
280,140,3416,2,2,P|224:200|136:208,1,165,8|0,0:0|0:0,0:0:0:0:
140,288,4205,6,2,P|132:180|92:136,1,165,6|0,0:3|0:0,0:0:0:0:
24,116,4995,2,2,P|89:138|216:116,1,165,12|0,0:0|0:0,0:0:0:0:
256,100,5784,2,2,P|424:124|448:264,1,330,6|0,0:3|2:0,0:0:0:0:
148,320,7758,6,2,B|100:324|100:324|84:320|84:320|36:324,2,110,0|2|2,2:1|2:1|2:1,0:0:0:0:
296,356,8942,6,2,P|294:273|324:180,1,165,6|8,0:3|0:3,0:0:0:0:
388,160,9732,2,2,P|324:192|236:172,1,165,8|0,0:0|0:0,0:0:0:0:
220,248,10521,6,2,P|172:176|80:140,1,165,6|0,0:3|0:0,0:0:0:0:
28,132,11311,2,2,P|40:220|12:320,1,165,12|0,0:0|0:0,0:0:0:0:
96,324,12100,2,2,P|200:360|324:348,1,220,6|0,0:3|0:0,0:0:0:0:
456,308,13284,6,0,P|402:304|351:283,1,110,2|2,1:2|2:0,0:0:0:0:
436,152,14074,1,2,2:1:0:0:
296,88,14469,6,0,L|196:40,1,110,2|6,2:0|0:3,0:0:0:0:
204,196,15258,2,0,L|104:148,1,110,2|6,2:0|0:3,0:0:0:0:
112,304,16048,2,0,L|12:256,1,110,2|6,2:0|0:3,0:0:0:0:
256,192,16837,12,0,18021,2:0:0:0:
96,264,19995,6,0,P|174:286|264:280,1,165,2|0,0:2|0:0,0:0:0:0:
232,352,20784,2,0,P|253:292|284:252,1,110,2|2,0:2|0:2,0:0:0:0:
424,196,21574,2,0,P|399:149|351:114,1,110,0|2,0:0|0:2,0:0:0:0:
232,20,22363,2,0,P|196:77|196:128,1,110,2|2,0:2|0:2,0:0:0:0:
300,232,23153,6,0,P|239:279|137:260,1,165,2|0,0:2|0:0,0:0:0:0:
104,212,23942,2,0,P|56:235|-16:244,1,110,2|2,0:2|0:2,0:0:0:0:
120,344,24732,2,0,P|176:360|232:364,1,110,0|2,0:0|0:2,0:0:0:0:
380,336,25521,1,2,0:2:0:0:
380,336,25916,1,2,0:2:0:0:
480,220,26311,6,0,P|492:136|492:52,1,165,8|0,0:0|0:0,0:0:0:0:
424,88,27100,2,0,P|377:106|316:104,1,110,2|2,0:2|0:2,0:0:0:0:
252,244,27890,2,2,P|172:231|87:232,1,165,8|8,0:3|0:3,0:0:0:0:
84,312,28679,2,0,P|32:292|8:244,1,110,2|2,0:2|0:2,0:0:0:0:
20,88,29469,6,0,P|88:116|180:120,1,165,8|8,0:0|0:3,0:0:0:0:
188,40,30258,2,0,P|240:68|260:112,1,110,2|2,0:2|0:2,0:0:0:0:
180,248,31048,2,2,P|252:292|320:252,1,165,8|8,0:3|0:3,0:0:0:0:
252,212,31837,2,0,B|268:180|308:184|332:132,1,110,10|0,0:2|2:0,0:0:0:0:
432,24,32626,6,0,L|464:208,1,165,8|0,0:0|0:0,0:0:0:0:
500,256,33416,2,0,P|440:264|396:236,1,110,2|2,0:2|0:2,0:0:0:0:
272,152,34205,2,2,P|344:172|344:100,1,165,8|8,0:3|0:3,0:0:0:0:
272,72,34995,2,0,P|216:92|192:144,1,110,10|2,0:2|0:2,0:0:0:0:
208,292,35784,6,0,P|140:264|128:180,1,165,8|8,0:0|0:3,0:0:0:0:
204,212,36574,2,0,P|264:232|288:276,1,110,2|2,0:2|0:2,0:0:0:0:
440,264,37363,2,2,P|408:332|324:340,1,165,8|8,0:3|0:3,0:0:0:0:
360,268,38153,2,0,P|380:208|424:184,1,110,10|2,0:2|0:2,0:0:0:0:
364,56,38942,6,0,P|340:136|268:152,1,165,6|2,0:3|0:2,0:0:0:0:
288,76,39732,2,2,P|237:82|168:72,1,110,2|2,0:2|0:0,0:0:0:0:
28,56,40521,2,2,P|108:112|56:212,1,220,6|2,0:2|3:1,0:0:0:0:
364,288,42100,6,0,P|314:354|240:345,1,165,6|2,0:3|0:2,0:0:0:0:
285,280,42890,2,2,P|308:232|360:208,1,110,2|2,0:2|0:0,0:0:0:0:
208,256,43679,2,2,P|264:164|368:128,1,220,6|2,0:2|0:0,0:0:0:0:
76,32,45258,6,0,P|144:108|136:224,1,220,6|8,0:3|0:3,0:0:0:0:
0,160,46442,1,2,0:0:0:0:
64,300,46837,2,0,P|174:312|246:240,1,220,6|8,0:3|0:0,0:0:0:0:
120,152,48021,1,2,0:0:0:0:
272,132,48416,6,0,P|344:204|331:314,1,220,6|2,0:3|0:2,0:0:0:0:
184,264,49600,1,2,0:0:0:0:
32,280,49995,2,2,P|40:178|133:116,1,220,4|4,0:2|0:2,0:0:0:0:
284,148,51179,1,4,0:2:0:0:
396,252,51574,6,0,P|436:148|404:48,1,220,12|12,0:2|0:3,0:0:0:0:
116,132,53153,2,0,P|76:236|108:336,1,220,12|12,0:2|0:3,0:0:0:0:
400,340,54732,6,0,P|300:372|196:332,1,220,12|12,0:2|0:3,0:0:0:0:
112,44,56311,2,0,P|212:12|316:52,1,220,12|2,0:2|0:2,0:0:0:0:
404,348,57890,6,0,P|400:268|412:184,1,165,8|8,0:0|0:3,0:0:0:0:
432,104,58679,2,0,P|376:112|332:160,1,110,2|2,0:2|0:2,0:0:0:0:
204,228,59469,2,2,P|272:268|340:228,1,165,8|8,0:2|0:3,0:0:0:0:
272,188,60258,2,0,P|232:152|168:156,1,110,2|2,0:2|0:2,0:0:0:0:
104,292,61048,6,0,P|118:214|56:160,1,165,8|8,0:0|0:3,0:0:0:0:
44,240,61837,2,0,P|24:292|52:352,1,110,2|2,0:2|0:2,0:0:0:0:
192,300,62626,2,2,P|276:296|360:324,1,165,8|8,0:2|0:3,0:0:0:0:
424,364,63416,2,0,P|460:312|508:292,1,110,2|0,0:2|0:0,0:0:0:0:
460,152,64205,6,0,P|388:128|292:128,1,165,8|8,0:0|0:3,0:0:0:0:
300,48,64995,2,0,P|268:96|216:120,1,110,2|2,0:2|0:2,0:0:0:0:
96,208,65784,2,2,P|160:256|244:264,1,165,8|8,0:2|0:3,0:0:0:0:
252,340,66574,2,0,P|280:287|320:256,1,110,2|2,0:2|0:2,0:0:0:0:
472,272,67363,6,0,P|464:192|412:128,1,165,8|8,0:0|0:3,0:0:0:0:
340,100,68153,2,0,P|296:132|236:140,1,110,2|2,0:2|0:2,0:0:0:0:
136,252,68941,2,2,P|218:290|304:276,1,165,8|8,0:2|0:3,0:0:0:0:
364,256,69731,2,0,P|408:220|432:172,1,110,10|0,0:2|0:0,0:0:0:0:
280,204,70521,6,0,P|200:180|184:108,1,165,12|2,0:3|0:2,0:0:0:0:
260,128,71311,2,2,L|384:168,1,110,2|2,0:2|0:0,0:0:0:0:
432,24,72100,2,2,P|501:93|432:182,1,220,4|2,0:2|3:1,3:0:0:0:
156,292,73679,6,0,P|90:241|99:167,1,165,6|2,0:3|0:2,0:0:0:0:
164,212,74469,2,2,P|211:235|235:287,1,110,2|2,0:2|0:0,0:0:0:0:
192,136,75258,2,2,P|280:192|316:300,1,220,4|2,0:2|0:0,0:0:0:0:
480,36,76837,6,2,P|404:116|296:84,1,220,6|8,0:3|0:3,0:0:0:0:
168,32,78021,1,2,0:0:0:0:
48,128,78416,6,2,P|136:180|252:160,1,220,6|8,0:3|0:3,0:0:0:0:
352,56,79600,1,2,0:0:0:0:
472,152,79995,6,2,B|456:192|416:204|380:196|380:196|368:252|452:268,1,220,6|2,0:3|0:2,0:0:0:0:
400,116,81179,1,2,0:0:0:0:
288,220,81574,6,2,B|300:288|336:316|336:316|280:336|228:300,1,220,4|4,0:2|0:2,0:0:0:0:
140,176,82758,1,4,0:2:0:0:
260,80,83153,1,14,0:3:0:0:
256,192,83548,12,4,85521,0:2:0:0:
184,236,86311,6,2,P|248:324|356:320,1,220,6|2,0:3|0:0,0:0:0:0:
320,172,87495,1,2,0:2:0:0:
172,124,87890,2,2,P|84:188|88:296,1,220,8|2,0:3|0:0,0:0:0:0:
236,260,89074,1,8,0:0:0:0:
388,248,89469,6,2,L|504:268,1,110,6|0,0:3|0:0,0:0:0:0:
376,172,90258,2,2,L|267:153,1,110,2|0,0:2|0:0,0:0:0:0:
112,164,91048,2,2,L|328:203,1,220,0|0,0:0|0:0,0:0:0:0:
432,320,92232,1,8,0:0:0:0:
280,352,92626,6,0,B|164:364|180:296|63:312,1,220,6|2,0:3|0:0,0:0:0:0:
236,52,94205,2,2,B|224:112|268:152|268:152|311:113|368:112|368:112|388:168|372:224,1,330,8|8,0:0|0:0,0:0:0:0:
220,212,95784,6,0,P|160:116|168:8,1,220,6|2,0:3|0:0,0:0:0:0:
72,132,96969,1,2,0:0:0:0:
136,272,97363,6,2,P|216:308|292:288,1,165,4|4,0:2|0:2,0:0:0:0:
444,292,98350,2,0,P|392:284|356:240,1,110,4|2,0:2|0:2,0:0:0:0:
432,212,98942,6,2,P|368:160|292:188,1,165,6|0,0:3|0:0,0:0:0:0:
280,264,99732,2,2,P|233:239|212:181,1,110,2|2,0:2|0:0,0:0:0:0:
60,192,100521,2,2,P|128:172|144:80,1,165,8|2,0:0|0:2,0:0:0:0:
76,116,101311,2,0,L|24:4,1,110,2|2,0:0|0:0,0:0:0:0:
0,140,102100,6,2,L|46:239,1,110,6|0,0:3|0:0,0:0:0:0:
196,196,102890,2,2,L|242:295,1,110,2|0,0:0|0:2,0:0:0:0:
392,252,103679,2,2,B|440:352|440:352|488:328|500:260,1,220,8|0,0:0|0:0,0:0:0:0:
500,112,104863,1,8,0:0:0:0:
372,28,105258,6,0,P|340:104|360:184,1,165,6|2,0:3|0:2,0:0:0:0:
292,220,106048,2,2,P|240:234|164:216,1,110
40,172,106837,5,12,0:0:0:0:
112,36,107232,1,4,0:0:0:0:
232,132,107626,1,6,0:2:0:0:
352,228,108021,1,14,0:0:0:0:
44,256,108811,6,2,P|188:320|272:196,1,330,6|14,0:3|0:0,0:0:0:0:
232,132,110192,1,4,0:0:0:0:
460,180,110784,2,0,P|412:208|352:216,1,110,2|2,0:2|0:0,0:0:0:0:
428,76,111574,6,0,P|400:128|344:136,1,110,6|0,0:3|0:0,0:0:0:0:
236,236,112363,2,2,P|268:192|276:136,1,110,2|2,0:0|0:0,0:0:0:0:
120,148,113153,6,2,P|88:192|80:248,1,110,6|0,0:3|0:0,0:0:0:0:
220,312,113942,2,2,L|276:332,2,55,10|10|6,0:0|0:0|0:3,0:0:0:0:
220,260,127363,6,2,P|308:320|420:300,1,220,6|2,0:3|0:0,0:0:0:0:
340,168,128548,1,2,0:0:0:0:
188,156,128942,2,2,P|128:244|148:356,1,220,2|2,0:0|0:0,0:0:0:0:
280,276,130127,1,2,0:0:0:0:
292,124,130521,6,2,P|204:64|92:84,1,220,6|2,0:0|0:0,0:0:0:0:
172,216,131706,1,2,0:0:0:0:
324,228,132100,2,2,P|384:140|364:28,1,220
232,108,133285,1,2,0:0:0:0:
80,120,133679,6,2,P|112:212|212:188,1,220,6|2,0:3|0:0,0:0:0:0:
256,40,134864,1,2,0:0:0:0:
300,188,135258,2,2,P|400:212|432:120,1,220
296,44,136443,1,2,0:0:0:0:
164,120,136837,6,2,P|196:196|212:112,1,220,6|2,0:0|0:0,0:0:0:0:
80,36,138021,1,2,0:0:0:0:
80,196,138416,2,2,P|156:268|264:252,1,220
364,136,139600,1,2,0:0:0:0:
472,24,139995,6,0,B|484:100|484:100|456:168|456:168|480:236,1,220,6|8,0:3|0:0,0:0:0:0:
360,332,141179,1,8,0:0:0:0:
216,272,141574,2,0,B|152:240|152:240|116:176|116:176|52:244,1,220,6|8,0:3|0:0,0:0:0:0:
172,120,142758,1,2,0:2:0:0:
172,120,143153,1,6,0:3:0:0:
256,192,143548,12,12,145521,0:0:0:0:
88,240,146311,6,2,P|148:292|236:300,1,165,6|8,0:3|0:0,0:0:0:0:
268,368,147100,2,2,P|317:323|388:312,1,110,2|2,0:2|0:0,0:0:0:0:
456,192,147890,2,2,P|376:216|340:152,1,165,10|2,0:0|0:0,0:0:0:0:
304,88,148679,2,2,P|304:144|272:192,1,110,2|10,0:0|0:0,0:0:0:0:
128,236,149469,6,2,L|244:256,1,110,6|2,0:3|0:0,0:0:0:0:
356,352,150258,2,2,L|247:333,1,110,2|2,0:2|0:0,0:0:0:0:
96,308,151048,2,2,P|48:224|132:156,1,220,8|0,0:0|0:0,0:0:0:0:
276,200,152232,1,8,0:0:0:0:
128,236,152626,6,0,P|60:196|60:112,1,165,6|10,0:3|0:0,0:0:0:0:
104,56,153416,2,2,P|160:56|216:48,1,110,2|2,0:0|0:0,0:0:0:0:
368,64,154205,2,2,B|272:112|272:112|272:200|208:256|128:236,1,330,8|12,0:0|0:0,0:0:0:0:
276,280,155784,6,0,P|176:320|60:292,1,220,6|2,0:3|0:0,0:0:0:0:
8,148,156969,1,2,0:0:0:0:
140,72,157363,6,0,P|164:152|132:228,1,165,4|4,0:2|0:0,0:0:0:0:
244,116,158350,2,0,P|296:136|352:116,1,110,4|0,0:2|0:0,0:0:0:0:
300,56,158942,6,2,P|380:48|424:116,1,165,6|2,0:3|0:0,0:0:0:0:
488,160,159732,2,2,P|450:188|388:184,1,110
260,272,160521,2,2,P|336:248|400:304,1,165,8|0,0:0|0:0,0:0:0:0:
321,328,161311,2,2,P|275:352|217:344,1,110,2|10,0:0|0:0,0:0:0:0:
76,280,162100,6,2,P|124:292|188:264,1,110,6|0,0:3|0:0,0:0:0:0:
112,132,162890,2,2,P|63:119|0:148,1,110
152,200,163679,6,2,P|208:172|248:80,1,165,10|2,0:0|0:0,0:0:0:0:
296,144,164469,2,2,P|307:89|336:32,1,110,2|10,0:0|0:0,0:0:0:0:
452,136,165258,6,0,B|490:237|490:237|444:292,1,165,6|2,0:3|0:2,0:0:0:0:
400,224,166048,2,2,L|324:304,1,110,2|2,0:2|0:0,0:0:0:0:
192,224,166837,6,2,L|96:169,1,110,12|4,0:3|0:0,0:0:0:0:
248,156,167626,2,2,L|343:210,1,110,6|14,0:2|0:0,0:2:0:0:
60,88,168811,6,2,B|180:120|252:16|252:16|272:76|352:76,1,330,6|14,0:3|0:0,0:0:0:0:
412,76,170192,1,6,0:3:0:0:
452,304,170784,5,2,0:0:0:0:
336,200,171179,1,2,0:0:0:0:
184,220,171574,6,0,P|170:279|160:344,1,110,6|2,0:3|0:2,0:0:0:0:
316,336,172363,1,0,0:0:0:0:
260,192,172758,1,2,0:0:0:0:
140,92,173153,6,0,P|106:130|76:181,1,110,6|2,0:3|0:2,0:0:0:0:
64,336,173942,1,0,0:0:0:0:
216,324,174337,1,8,0:0:0:0:
356,260,174732,6,0,L|396:156,1,110,6|0,0:3|0:0,0:0:0:0:
256,96,175521,1,0,0:0:0:0:
180,232,175916,1,8,0:0:0:0:
88,108,176311,5,6,0:3:0:0:
88,108,176705,1,12,0:3:0:0:
88,108,177100,1,14,0:0:0:0:
44,252,177495,6,0,L|8:360,1,110,2|8,0:2|0:0,0:0:0:0:
256,192,178284,12,0,179567,0:0:0:0:
