osu file format v12

[General]
AudioFilename: 02. MIDDLEISLAND - Arado.mp3
AudioLeadIn: 2000
PreviewTime: 85719
Countdown: 0
SampleSet: Normal
StackLeniency: 0.7
Mode: 0
LetterboxInBreaks: 0
UseSkinSprites: 1
EpilepsyWarning: 1
WidescreenStoryboard: 0

[Editor]
Bookmarks: 2627,8942,13284,18416,26311,38942,57890,70521,83153,86311,106837,114337,127363,139995,146311,170784
DistanceSpacing: 0.7
BeatDivisor: 4
GridSize: 16

[Metadata]
Title:Aldo
TitleUnicode:アラード
Artist:MiddleIsland
ArtistUnicode:MiddleIsland
Creator:Lan wings
Version:AngelHoney
Source:Gen Sou Chou Waza
Tags:Arado Nakajima Misaki Piano Violin AngelHoney
BeatmapID:289256
BeatmapSetID:72767

[Difficulty]
HPDrainRate:5
CircleSize:4
OverallDifficulty:6
ApproachRate:8
SliderMultiplier:2.4
SliderTickRate:1

[Events]
//Background and Video events
0,0,"bg.jpg",0,0
//Break Periods
2,114537,126416
//Storyboard Layer 0 (Background)
//Storyboard Layer 1 (Fail)
//Storyboard Layer 2 (Pass)
//Storyboard Layer 3 (Foreground)
//Storyboard Sound Samples
//Background Colour Transformations
3,100,0,0,0

[TimingPoints]
610,469.759248385203,4,1,2,20,1,0
1079,516.129032258065,4,1,2,40,1,0
2627,394.736842105263,4,1,2,40,1,0
7363,-100,4,1,2,30,0,0
8745,-100,4,1,2,40,0,0
16640,-100,4,2,0,5,0,0
18219,-100,4,1,2,25,0,0
26212,-100,4,1,2,30,0,0
38844,-100,4,1,2,40,0,0
41113,-100,4,1,2,35,0,0
41311,-100,4,1,2,40,0,0
44271,-100,4,1,2,35,0,0
44469,-100,4,1,2,40,0,0
50587,-100,4,1,2,50,0,0
51376,-100,4,1,2,40,0,0
57692,-100,4,1,2,35,0,0
70423,-100,4,1,2,40,0,0
85521,-100,4,1,2,45,0,0
108811,-133.333333333333,4,1,2,40,0,0
109699,-100,4,1,2,45,0,0
110390,-100,4,1,2,35,0,0
126574,-100,4,1,2,40,0,0
142758,-100,4,1,2,45,0,0
168811,-133.333333333333,4,1,2,40,0,0
169205,-133.333333333333,4,1,2,10,0,0
169304,-133.333333333333,4,1,2,40,0,0
169798,-100,4,1,2,45,0,0
170587,-100,4,1,2,30,0,0
171574,-100,4,1,2,45,0,0
171771,-100,4,1,2,30,0,0
173153,-100,4,1,2,45,0,0
173350,-100,4,1,2,30,0,0
174732,-100,4,1,2,45,0,0
174929,-100,4,1,2,30,0,0
176311,-100,4,1,2,45,0,0
177495,-100,4,1,2,40,0,0
177791,-100,4,1,2,35,0,0
177890,-200,4,1,2,30,0,0
177988,-200,4,1,2,10,0,0
179074,-200,4,1,2,5,0,0

[Colours]
Combo1 : 240,80,80
Combo2 : 248,211,171
Combo3 : 171,252,203
Combo4 : 175,221,254
Combo5 : 249,254,186
SliderBorder : 255,255,255

[HitObjects]
256,192,610,12,6,2627,0:2:0:0:
96,96,3219,5,0,0:0:0:0:
80,128,3317,1,0,0:0:0:0:
64,160,3416,1,2,0:3:0:0:
448,320,4008,1,2,0:2:0:0:
416,336,4107,1,2,0:2:0:0:
384,352,4205,2,0,P|320:320|240:336,1,120,4|0,0:2|0:0,0:0:0:0:
240,336,4501,2,0,P|176:352|96:304,1,120,2|0,0:2|0:0,0:0:0:0:
105,305,4798,1,2,0:2:0:0:
112,272,4896,1,2,0:2:0:0:
144,256,4995,2,0,P|160:192|128:128,1,120,4|0,0:2|0:0,0:0:0:0:
128,112,5291,2,0,P|192:128|272:112,1,120,2|0,0:3|0:0,0:0:0:0:
280,104,5587,1,0,0:2:0:0:
312,80,5686,1,0,0:0:0:0:
336,48,5784,5,4,0:2:0:0:
96,112,7758,1,2,0:2:0:0:
176,128,8153,1,2,0:2:0:0:
256,144,8548,1,2,0:2:0:0:
336,160,8942,6,0,P|400:144|448:96,1,120,4|0,0:2|0:0,0:0:0:0:
464,80,9238,2,0,P|480:144|512:192,1,120
496,224,9534,1,2,0:2:0:0:
470,250,9633,1,2,0:2:0:0:
437,271,9732,2,0,P|352:256|272:320,1,180,2|0,0:3|0:0,0:0:0:0:
16,288,10324,1,2,0:2:0:0:
42,255,10423,1,2,0:2:0:0:
60,217,10521,6,0,P|70:152|36:73,1,120,4|0,0:2|0:0,0:0:0:0:
29,67,10817,2,0,P|92:68|157:35,1,120,2|0,0:2|0:0,0:0:0:0:
182,28,11113,1,2,0:2:0:0:
223,24,11212,1,2,0:2:0:0:
264,32,11311,2,0,P|314:61|418:67,1,120,4|0,0:2|0:0,0:0:0:0:
415,63,11607,2,0,P|396:124|399:191,1,120,2|0,0:3|0:0,0:0:0:0:
409,219,11903,1,2,0:2:0:0:
434,252,12001,1,0,0:0:0:0:
471,270,12100,1,4,0:2:0:0:
230,329,13284,6,0,L|85:308,1,120,0|2,0:0|0:2,0:0:0:0:
24,199,13679,1,2,0:2:0:0:
144,128,13876,2,0,L|128:80,2,40,2|0|0,0:2|0:0|0:0,0:0:0:0:
208,96,14074,2,0,L|192:48,2,40,2|0|0,0:2|0:0|0:0,0:0:0:0:
272,64,14271,2,0,L|256:16,2,40,2|0|0,0:2|0:0|0:0,0:0:0:0:
336,32,14469,6,0,P|416:144|352:208,1,240,0|4,0:0|0:2,0:0:0:0:
176,352,15258,2,0,P|96:240|160:176,1,240,0|4,0:0|0:2,0:0:0:0:
336,32,16048,2,0,P|416:144|352:208,1,240,0|4,0:0|0:2,0:0:0:0:
256,192,16837,12,0,18021,0:0:0:0:
144,304,18416,5,0,0:0:0:0:
48,240,18613,1,0,0:0:0:0:
160,192,18811,1,0,0:0:0:0:
64,80,19008,2,0,P|192:96|288:16,1,240
318,24,19501,1,0,0:0:0:0:
359,32,19600,1,0,0:0:0:0:
392,56,19699,1,0,0:0:0:0:
414,91,19798,1,2,0:3:0:0:
419,132,19896,1,2,0:3:0:0:
416,174,19995,5,0,0:0:0:0:
208,247,20192,2,0,L|350:275,1,120,2|0,0:3|0:0,0:0:0:0:
61,318,20587,1,2,0:3:0:0:
75,278,20686,1,2,0:3:0:0:
74,236,20784,1,2,0:3:0:0:
18,103,20982,1,0,0:0:0:0:
154,122,21179,1,0,0:0:0:0:
194,134,21278,1,0,0:0:0:0:
235,136,21376,1,2,0:3:0:0:
275,124,21475,1,2,0:3:0:0:
312,104,21574,6,0,P|374:79|456:88,1,120
486,130,21870,1,2,0:3:0:0:
486,130,21969,2,0,L|466:290,1,120,0|0,0:0|0:0,0:0:0:0:
404,160,22265,1,2,0:3:0:0:
404,160,22363,2,0,L|386:293,1,120,0|0,0:0|0:0,0:0:0:0:
320,189,22659,1,2,0:3:0:0:
320,189,22758,2,0,L|301:321,1,120,0|0,0:0|0:0,0:0:0:0:
154,351,23153,5,0,0:0:0:0:
34,254,23350,1,2,0:3:0:0:
175,203,23548,1,2,0:3:0:0:
196,167,23646,1,2,0:3:0:0:
202,125,23745,1,2,0:3:0:0:
98,38,23942,1,0,0:0:0:0:
307,35,24140,1,2,0:3:0:0:
301,76,24238,1,2,0:3:0:0:
313,116,24337,1,2,0:3:0:0:
440,186,24534,1,2,0:3:0:0:
330,307,24732,6,0,L|471:294,1,120
262,263,25028,1,2,0:3:0:0:
262,263,25126,2,0,L|107:284,1,120
319,204,25423,1,2,0:3:0:0:
319,204,25521,2,0,L|460:191,1,120
250,160,25817,1,2,0:3:0:0:
250,160,25915,2,0,L|95:181,1,120
357,33,26311,5,4,0:3:0:0:
393,52,26409,1,0,0:0:0:0:
421,82,26508,1,0,0:0:0:0:
440,119,26607,1,0,0:0:0:0:
447,160,26705,1,0,0:0:0:0:
445,202,26804,1,0,0:0:0:0:
428,240,26903,1,4,0:3:0:0:
400,271,27001,1,0,0:0:0:0:
361,288,27100,1,0,0:0:0:0:
319,291,27199,1,0,0:0:0:0:
279,275,27298,1,0,0:0:0:0:
255,240,27396,1,0,0:0:0:0:
242,199,27495,1,4,0:3:0:0:
248,157,27594,1,0,0:0:0:0:
265,119,27692,1,0,0:0:0:0:
255,77,27791,1,0,0:0:0:0:
228,44,27890,6,0,P|146:96|58:84,1,180,4|0,0:3|0:0,0:0:0:0:
37,58,28284,1,0,0:0:0:0:
5,85,28383,1,0,0:0:0:0:
31,117,28482,1,4,0:3:0:0:
48,154,28580,1,0,0:0:0:0:
59,194,28679,2,0,P|61:257|18:312,2,120,0|0|4,0:0|0:0|0:3,0:0:0:0:
193,142,29271,1,0,0:0:0:0:
228,283,29469,5,4,0:3:0:0:
265,264,29567,1,0,0:0:0:0:
306,257,29666,1,0,0:0:0:0:
347,265,29765,1,0,0:0:0:0:
384,282,29863,1,0,0:0:0:0:
411,314,29962,1,0,0:0:0:0:
450,298,30061,1,4,0:3:0:0:
475,265,30159,1,0,0:0:0:0:
490,225,30258,1,0,0:0:0:0:
494,183,30357,1,0,0:0:0:0:
485,142,30455,1,0,0:0:0:0:
467,103,30554,1,0,0:0:0:0:
439,71,30653,1,4,0:3:0:0:
402,50,30751,1,0,0:0:0:0:
360,40,30850,1,0,0:0:0:0:
318,44,30949,1,0,0:0:0:0:
278,57,31048,6,0,P|190:80|97:36,1,180,4|4,0:3|0:3,0:0:0:0:
76,23,31442,1,0,0:0:0:0:
35,33,31541,1,0,0:0:0:0:
11,67,31640,1,4,0:3:0:0:
19,107,31738,1,0,0:0:0:0:
35,145,31837,2,0,P|79:249|1:354,1,240,0|4,0:0|0:3,0:0:0:0:
214,265,32429,1,0,0:0:0:0:
203,123,32626,5,4,0:3:0:0:
240,103,32725,1,0,0:0:0:0:
282,100,32824,1,0,0:0:0:0:
322,112,32923,1,0,0:0:0:0:
352,140,33021,1,0,0:0:0:0:
369,178,33120,1,0,0:0:0:0:
411,178,33219,1,4,0:3:0:0:
451,168,33317,1,0,0:0:0:0:
481,138,33416,1,0,0:0:0:0:
495,98,33515,1,0,0:0:0:0:
481,58,33613,1,0,0:0:0:0:
450,29,33712,1,0,0:0:0:0:
410,13,33811,1,4,0:3:0:0:
368,17,33909,1,0,0:0:0:0:
332,39,34008,1,0,0:0:0:0:
291,52,34107,1,0,0:0:0:0:
249,52,34205,6,0,P|165:25|53:57,1,180,4|0,0:3|0:0,0:0:0:0:
42,67,34600,1,0,0:0:0:0:
22,104,34699,1,0,0:0:0:0:
19,146,34798,1,4,0:3:0:0:
28,186,34896,1,0,0:0:0:0:
53,219,34995,2,0,P|117:231|212:203,1,120
336,343,35390,2,0,P|272:329|204:344,1,120,4|0,0:3|0:0,0:0:0:0:
307,202,35784,5,4,0:3:0:0:
341,225,35883,1,0,0:0:0:0:
382,232,35982,1,0,0:0:0:0:
422,222,36080,1,0,0:0:0:0:
451,192,36179,1,0,0:0:0:0:
461,151,36278,1,0,0:0:0:0:
449,110,36376,1,4,0:3:0:0:
417,82,36475,1,0,0:0:0:0:
377,66,36574,1,0,0:0:0:0:
335,75,36673,1,0,0:0:0:0:
304,103,36771,1,0,0:0:0:0:
287,141,36870,1,0,0:0:0:0:
244,138,36969,1,4,0:3:0:0:
205,121,37067,1,0,0:0:0:0:
175,90,37166,1,0,0:0:0:0:
154,53,37265,1,0,0:0:0:0:
126,21,37363,6,0,P|55:135|69:171,1,180,4|0,0:3|0:0,0:0:0:0:
92,198,37758,1,0,0:0:0:0:
130,214,37857,1,0,0:0:0:0:
171,216,37955,1,4,0:3:0:0:
211,204,38054,1,0,0:0:0:0:
250,188,38153,2,0,P|310:258|273:346,1,180
261,368,38548,2,0,P|325:356|385:367,1,120,4|0,0:3|0:0,0:0:0:0:
471,83,38942,6,0,P|409:136|290:106,1,180,4|0,0:2|0:0,0:0:0:0:
251,93,39337,2,0,L|150:104,1,60,2|0,0:2|0:0,0:0:0:0:
180,175,39534,2,0,L|276:164,1,60,2|0,0:2|0:0,0:0:0:0:
304,205,39732,1,0,0:2:0:0:
334,233,39830,1,0,0:2:0:0:
356,268,39929,1,2,0:2:0:0:
362,309,40028,1,0,0:2:0:0:
347,348,40126,1,2,0:2:0:0:
316,376,40225,1,2,0:2:0:0:
274,383,40324,1,2,0:2:0:0:
234,367,40423,1,2,0:2:0:0:
205,336,40521,6,0,P|154:266|35:251,1,180,4|0,0:2|0:0,0:0:0:0:
25,251,40916,2,0,P|56:193|55:127,1,120,2|2,0:3|0:2,0:0:0:0:
42,100,41212,1,2,0:2:0:0:
15,66,41311,2,0,P|114:81|195:37,1,180,2|0,0:3|0:0,0:0:0:0:
219,26,41705,2,0,P|198:124|252:195,1,180,2|0,0:3|0:0,0:0:0:0:
275,206,42100,5,6,0:2:0:0:
442,117,42298,1,2,0:2:0:0:
420,152,42396,1,2,0:2:0:0:
407,192,42495,2,0,P|407:261|448:325,1,120,2|2,0:2|0:2,0:0:0:0:
460,334,42791,1,0,0:0:0:0:
394,369,42890,2,0,L|297:390,1,60,2|0,0:2|0:0,0:0:0:0:
275,335,43087,2,0,L|202:349,1,60,2|0,0:2|0:0,0:0:0:0:
146,318,43284,1,2,0:2:0:0:
159,278,43383,1,2,0:2:0:0:
162,236,43482,1,2,0:2:0:0:
148,196,43580,1,2,0:2:0:0:
123,161,43679,6,0,P|66:140|-6:145,1,120,0|0,0:0|0:0,0:0:0:0:
141,30,44074,1,2,0:3:0:0:
279,66,44271,1,2,0:2:0:0:
265,105,44370,1,2,0:2:0:0:
258,146,44469,2,0,P|274:232|358:282,1,180,2|0,0:3|0:0,0:0:0:0:
388,281,44863,2,0,P|446:218|415:84,1,180,2|0,0:3|0:0,0:0:0:0:
423,92,45258,5,6,0:2:0:0:
383,107,45357,1,2,0:2:0:0:
343,120,45455,1,2,0:2:0:0:
300,122,45554,1,2,0:2:0:0:
258,114,45653,2,0,P|196:108|104:131,1,120,0|2,0:0|0:2,0:0:0:0:
100,231,46048,2,0,P|141:113|61:24,1,240,2|2,0:2|0:2,0:0:0:0:
17,266,46640,1,2,0:3:0:0:
205,300,46837,5,6,0:2:0:0:
237,273,46936,1,2,0:2:0:0:
276,258,47034,1,2,0:2:0:0:
318,257,47133,1,2,0:2:0:0:
358,269,47232,2,0,P|421:283|484:276,1,120,0|2,0:0|0:2,0:0:0:0:
414,3,47626,2,0,P|362:116|433:203,1,240,2|2,0:2|0:2,0:0:0:0:
247,64,48219,1,2,0:3:0:0:
96,44,48416,6,0,P|160:143|101:258,1,240,6|0,0:2|0:0,0:0:0:0:
210,340,49008,1,2,0:2:0:0:
249,324,49107,1,2,0:2:0:0:
290,316,49205,2,0,P|354:308|413:325,1,120,0|2,0:0|0:2,0:0:0:0:
475,199,49600,1,0,0:0:0:0:
344,217,49798,2,0,P|277:222|184:195,1,120,2|6,0:2|0:2,0:0:0:0:
96,64,50784,5,4,0:2:0:0:
425,92,51179,1,4,0:2:0:0:
257,301,51574,6,0,L|223:163,1,120,4|2,0:2|0:3,0:0:0:0:
228,184,51969,1,2,0:3:0:0:
257,301,52363,1,8,0:3:0:0:
50,89,53153,6,0,L|175:121,1,120,4|2,0:2|0:3,0:0:0:0:
166,118,53548,1,2,0:3:0:0:
50,89,53942,1,8,0:3:0:0:
430,89,54732,6,0,L|305:127,1,120,4|2,0:2|0:3,0:0:0:0:
315,123,55126,1,2,0:3:0:0:
430,89,55521,1,8,0:3:0:0:
59,129,56311,6,0,L|104:248,1,120,4|2,0:2|0:3,0:0:0:0:
101,241,56705,1,2,0:3:0:0:
59,129,57100,1,0,3:0:0:0:
312,98,57890,5,4,0:3:0:0:
289,133,57988,1,0,0:0:0:0:
276,173,58087,1,0,0:0:0:0:
279,215,58186,1,0,0:0:0:0:
296,253,58284,1,0,0:0:0:0:
326,282,58383,1,0,0:0:0:0:
301,316,58482,1,4,0:3:0:0:
265,337,58580,1,0,0:0:0:0:
222,337,58679,1,0,0:0:0:0:
183,320,58778,1,0,0:0:0:0:
155,288,58876,1,0,0:0:0:0:
143,247,58975,1,0,0:0:0:0:
151,205,59074,1,4,0:3:0:0:
176,171,59173,1,0,0:0:0:0:
214,155,59271,1,0,0:0:0:0:
256,154,59370,1,0,0:0:0:0:
297,161,59469,6,0,P|385:173|469:106,1,180,4|0,0:3|0:0,0:0:0:0:
467,84,59863,1,0,0:0:0:0:
449,45,59962,1,0,0:0:0:0:
419,17,60061,1,4,0:3:0:0:
378,5,60159,1,0,0:0:0:0:
336,10,60258,2,0,P|267:56|154:31,1,180,2|0,0:3|0:0,0:0:0:0:
136,26,60653,2,0,P|120:93|55:155,1,120,6|0,0:3|0:0,0:0:0:0:
22,286,61048,5,4,0:3:0:0:
59,266,61146,1,0,0:0:0:0:
100,259,61245,1,0,0:0:0:0:
140,269,61344,1,0,0:0:0:0:
177,286,61442,1,0,0:0:0:0:
204,317,61541,1,0,0:0:0:0:
224,353,61640,1,4,0:3:0:0:
253,323,61738,1,0,0:0:0:0:
286,297,61837,1,0,0:0:0:0:
326,284,61936,1,0,0:0:0:0:
367,284,62034,1,0,0:0:0:0:
406,298,62133,1,0,0:0:0:0:
439,323,62232,1,4,0:3:0:0:
476,304,62330,1,0,0:0:0:0:
501,270,62429,1,0,0:0:0:0:
504,227,62528,1,0,0:0:0:0:
490,187,62626,6,0,P|389:187|318:130,1,180,4|0,0:3|0:0,0:0:0:0:
304,107,63021,1,0,0:0:0:0:
294,65,63120,1,0,0:0:0:0:
308,25,63219,1,4,0:3:0:0:
345,7,63317,1,0,0:0:0:0:
383,23,63416,2,0,P|421:111|369:207,1,180,2|0,0:3|0:0,0:0:0:0:
359,211,63811,2,0,P|302:188|219:196,1,120,6|0,0:3|0:0,0:0:0:0:
56,116,64205,5,4,0:3:0:0:
34,152,64304,1,0,0:0:0:0:
27,193,64403,1,0,0:0:0:0:
35,233,64501,1,0,0:0:0:0:
57,268,64600,1,0,0:0:0:0:
91,292,64699,1,0,0:0:0:0:
131,302,64798,1,4,0:3:0:0:
172,296,64896,1,0,0:0:0:0:
210,278,64995,1,0,0:0:0:0:
239,248,65094,1,0,0:0:0:0:
253,208,65192,1,0,0:0:0:0:
294,202,65291,1,0,0:0:0:0:
334,212,65390,1,4,0:3:0:0:
369,234,65488,1,0,0:0:0:0:
394,267,65587,1,0,0:0:0:0:
411,305,65686,1,0,0:0:0:0:
408,346,65784,6,0,P|311:313|202:355,1,180,4|0,0:3|0:0,0:0:0:0:
199,348,66179,1,0,0:0:0:0:
157,355,66278,1,0,0:0:0:0:
115,349,66376,1,4,0:3:0:0:
81,323,66475,1,0,0:0:0:0:
63,284,66574,2,0,P|100:201|63:98,1,180,2|0,0:3|0:0,0:0:0:0:
60,79,66969,2,0,P|122:98|191:89,1,120,6|0,0:3|0:0,0:0:0:0:
338,57,67363,5,4,0:3:0:0:
363,90,67462,1,0,0:0:0:0:
375,130,67561,1,0,0:0:0:0:
375,171,67659,1,0,0:0:0:0:
359,210,67758,1,0,0:0:0:0:
333,243,67857,1,0,0:0:0:0:
296,262,67955,1,4,0:3:0:0:
254,270,68054,1,0,0:0:0:0:
212,263,68153,1,0,0:0:0:0:
177,239,68251,1,0,0:0:0:0:
155,202,68350,1,0,0:0:0:0:
116,185,68449,1,0,0:0:0:0:
73,183,68548,1,4,0:3:0:0:
34,200,68646,1,0,0:0:0:0:
11,235,68745,1,0,0:0:0:0:
6,276,68844,1,0,0:0:0:0:
18,315,68942,6,0,P|107:301|204:349,1,180,4|0,0:3|0:0,0:0:0:0:
220,361,69337,1,0,0:0:0:0:
260,349,69436,1,0,0:0:0:0:
293,323,69534,1,4,0:3:0:0:
318,289,69633,1,0,0:0:0:0:
330,248,69732,2,0,P|430:276|516:232,1,180,2|0,0:3|0:0,0:0:0:0:
467,220,70126,2,0,P|414:187|386:102,1,120,6|0,0:3|0:0,0:0:0:0:
143,38,70521,6,0,P|169:119|97:200,1,180,4|2,0:2|0:2,0:0:0:0:
76,195,70916,2,0,P|28:256|17:317,1,120,0|2,0:0|0:2,0:0:0:0:
140,367,71311,1,2,0:2:0:0:
283,303,71508,1,0,0:2:0:0:
260,267,71607,1,2,0:2:0:0:
249,226,71705,1,2,0:2:0:0:
253,184,71804,1,2,0:2:0:0:
268,144,71903,1,2,0:2:0:0:
302,120,72001,1,2,0:2:0:0:
344,119,72100,6,0,P|410:194|406:286,1,180,4|2,0:2|0:2,0:0:0:0:
421,311,72495,2,0,P|364:284|271:293,1,120,2|2,0:3|0:2,0:0:0:0:
266,289,72791,1,2,0:2:0:0:
226,304,72890,2,0,P|160:313|89:298,1,120,2|0,0:3|0:0,0:0:0:0:
6,219,73284,1,2,0:3:0:0:
143,182,73482,1,2,0:2:0:0:
179,162,73580,1,2,0:2:0:0:
218,147,73679,6,0,P|306:129|426:153,1,180,4|2,0:2|0:2,0:0:0:0:
432,158,74074,1,0,0:0:0:0:
331,264,74271,2,0,P|278:252|212:259,1,120,2|2,0:2|0:2,0:0:0:0:
78,324,74666,1,0,0:0:0:0:
50,292,74765,1,2,0:2:0:0:
40,251,74863,1,2,0:2:0:0:
46,209,74962,1,2,0:2:0:0:
70,174,75061,1,2,0:2:0:0:
103,149,75159,1,2,0:2:0:0:
144,141,75258,6,0,P|265:155|335:120,1,180,4|0,0:2|0:0,0:0:0:0:
353,113,75653,2,0,P|390:153|409:233,1,120,2|2,0:3|0:2,0:0:0:0:
406,256,75949,1,2,0:2:0:0:
388,294,76048,2,0,P|247:248|156:303,1,240,2|2,0:3|0:3,0:0:0:0:
67,65,76837,5,6,0:2:0:0:
107,77,76936,1,2,0:2:0:0:
147,84,77034,1,2,0:2:0:0:
189,84,77133,1,2,0:2:0:0:
230,78,77232,1,2,0:2:0:0:
379,69,77429,1,2,0:2:0:0:
310,186,77626,1,4,0:3:0:0:
52,211,78021,1,2,0:2:0:0:
52,211,78219,1,2,0:2:0:0:
53,342,78416,5,6,0:2:0:0:
91,324,78515,1,2,0:2:0:0:
132,316,78613,1,2,0:2:0:0:
174,317,78712,1,2,0:2:0:0:
214,329,78811,1,2,0:2:0:0:
362,360,79008,1,0,0:0:0:0:
316,239,79205,1,4,0:3:0:0:
479,100,79600,1,2,0:2:0:0:
479,100,79798,1,2,0:2:0:0:
361,36,79995,6,0,P|251:73|142:21,1,240,4|0,0:2|0:0,0:0:0:0:
18,132,80587,1,2,0:2:0:0:
58,120,80686,1,2,0:2:0:0:
98,130,80784,2,0,P|156:175|182:259,1,120,2|0,0:2|0:0,0:0:0:0:
406,183,81179,2,0,P|348:228|322:312,1,120,2|2,0:2|0:2,0:0:0:0:
126,337,81574,1,4,0:2:0:0:
464,335,82363,5,4,0:2:0:0:
305,77,82758,1,4,0:2:0:0:
65,255,83153,1,4,0:2:0:0:
256,192,83548,12,4,85521,0:2:0:0:
351,117,85719,5,2,0:2:0:0:
142,134,85916,1,2,0:2:0:0:
275,292,86113,1,2,0:2:0:0:
275,292,86311,6,0,P|176:320|32:272,1,240,4|0,0:2|0:0,0:0:0:0:
0,176,86903,1,2,0:2:0:0:
0,176,87001,1,2,0:2:0:0:
0,176,87100,2,0,P|68:165|128:112,1,120,0|2,0:0|0:2,0:0:0:0:
304,96,87495,2,0,P|240:128|208:176,1,120,0|2,0:0|0:2,0:0:0:0:
480,256,87890,6,0,P|416:160|464:32,1,240,2|0,0:2|0:0,0:0:0:0:
208,256,88482,1,2,0:2:0:0:
208,256,88580,1,2,0:2:0:0:
208,256,88679,2,0,P|272:224|352:240,1,120,0|2,0:0|0:2,0:0:0:0:
384,320,89074,1,0,0:0:0:0:
272,352,89271,1,2,0:2:0:0:
32,352,89469,6,0,P|80:272|48:176,1,180,2|0,0:2|0:0,0:0:0:0:
16,128,89863,2,0,P|112:128|160:208,1,180,2|0,0:2|0:0,0:0:0:0:
224,144,90258,2,0,P|304:176|400:112,1,180,2|0,0:2|0:0,0:0:0:0:
496,272,90653,2,0,P|416:224|320:288,1,180,2|0,0:2|0:0,0:0:0:0:
304,320,91048,5,2,0:3:0:0:
144,192,91245,2,0,P|112:304|0:304,1,240,2|2,0:3|0:2,0:0:0:0:
48,176,91837,2,0,P|48:112|80:48,1,120,2|0,0:2|0:0,0:0:0:0:
288,96,92232,2,0,P|224:112|157:105,1,120,2|0,0:2|0:0,0:0:0:0:
384,32,92626,5,4,0:2:0:0:
464,288,93219,1,2,0:2:0:0:
422,302,93317,1,2,0:2:0:0:
379,300,93416,1,0,0:0:0:0:
288,224,93613,2,0,B|246:283|208:304|208:304|145:307|80:272,1,240,2|2,0:2|0:2,0:0:0:0:
32,160,94205,5,0,0:0:0:0:
32,160,94304,1,2,0:2:0:0:
32,160,94403,1,2,0:2:0:0:
32,160,94501,1,2,0:2:0:0:
32,160,94600,2,0,P|48:96|32:32,1,120,0|2,0:0|0:2,0:0:0:0:
272,80,94995,2,0,P|192:80|112:32,1,120,2|0,0:2|0:0,0:0:0:0:
304,192,95390,2,0,P|352:160|432:144,1,120,2|0,0:2|0:0,0:0:0:0:
400,288,95784,6,0,P|304:352|176:320,1,240,4|0,0:2|0:0,0:0:0:0:
48,352,96376,1,2,0:2:0:0:
48,352,96475,1,2,0:2:0:0:
48,352,96574,1,0,0:0:0:0:
96,256,96771,1,2,0:2:0:0:
16,176,96969,1,2,0:2:0:0:
96,80,97166,1,2,0:2:0:0:
240,112,97363,5,4,0:2:0:0:
284,123,97462,1,2,0:2:0:0:
327,124,97561,1,2,0:2:0:0:
371,109,97659,1,2,0:2:0:0:
407,82,97758,1,4,0:3:0:0:
512,144,97955,1,4,0:2:0:0:
160,240,98350,1,4,0:2:0:0:
32,224,98548,1,0,0:0:0:0:
80,336,98745,1,4,0:2:0:0:
224,336,98942,6,0,P|352:352|432:272,1,240,4|0,0:2|0:0,0:0:0:0:
512,192,99534,1,2,0:2:0:0:
512,192,99633,1,2,0:2:0:0:
512,192,99732,1,0,0:0:0:0:
400,160,99929,1,2,0:2:0:0:
480,80,100126,1,0,0:0:0:0:
336,64,100324,1,2,0:2:0:0:
272,160,100521,6,0,P|144:176|48:112,1,240,2|0,0:2|0:0,0:0:0:0:
0,240,101113,1,2,0:2:0:0:
0,240,101212,1,2,0:2:0:0:
0,240,101311,1,0,0:0:0:0:
64,352,101508,1,2,0:2:0:0:
160,288,101705,2,0,P|208:256|304:256,1,120,0|2,0:0|0:2,0:0:0:0:
400,144,102100,6,0,P|272:144|160:64,1,240,2|2,0:2|0:2,0:0:0:0:
288,32,102692,1,0,0:0:0:0:
414,38,102890,2,0,P|352:144|256:208,1,240,2|2,0:2|0:2,0:0:0:0:
144,176,103482,1,0,0:0:0:0:
32,240,103679,6,0,B|96:320|192:352|288:352|400:288,1,360,2|2,0:2|0:2,0:0:0:0:
480,240,104469,2,0,P|368:176|352:64,1,240,2|2,0:2|0:2,0:0:0:0:
160,48,105258,5,4,0:2:0:0:
48,224,105850,1,2,0:2:0:0:
48,224,105949,1,2,0:2:0:0:
48,224,106048,1,0,0:0:0:0:
144,288,106245,2,0,P|256:256|416:272,1,240,2|2,0:2|0:2,0:0:0:0:
496,208,106837,6,0,L|448:16,1,180,4|0,0:2|0:0,0:0:0:0:
400,192,107232,2,0,L|352:0,1,180,4|0,0:2|0:0,0:0:0:0:
304,176,107626,2,0,L|256:-16,1,180,4|0,0:2|0:0,0:0:0:0:
224,208,108021,2,0,L|176:16,1,180,4|0,0:2|3:0,0:0:0:0:
18,261,108811,6,0,P|290:309|338:261,1,360.000013732911,4|0,0:2|0:0,0:0:0:0:
464,304,109798,1,2,0:2:0:0:
448,272,109896,1,2,0:2:0:0:
432,240,109995,2,0,P|416:176|432:112,1,120,4|4,0:2|0:2,0:0:0:0:
96,64,110784,5,0,0:2:0:0:
70,97,110883,1,2,0:2:0:0:
65,138,110982,1,2,0:2:0:0:
79,177,111080,1,2,0:2:0:0:
108,207,111179,1,2,0:2:0:0:
147,222,111278,1,2,0:2:0:0:
187,213,111376,1,2,0:2:0:0:
227,201,111475,1,2,0:2:0:0:
267,212,111574,5,4,0:2:0:0:
385,344,111969,1,0,0:0:0:0:
396,303,112067,1,2,0:2:0:0:
425,272,112166,1,2,0:2:0:0:
460,249,112265,1,2,0:2:0:0:
501,242,112363,1,0,0:0:0:0:
448,112,112561,1,2,0:2:0:0:
331,177,112758,1,0,0:0:0:0:
256,64,112955,1,2,0:2:0:0:
80,96,113153,5,4,0:2:0:0:
32,317,113548,1,0,0:0:0:0:
57,284,113646,1,2,0:2:0:0:
95,266,113745,1,2,0:2:0:0:
136,271,113844,1,2,0:2:0:0:
172,291,113942,1,2,0:2:0:0:
291,348,114140,1,2,0:2:0:0:
388,265,114337,1,4,0:2:0:0:
76,94,127166,5,2,0:2:0:0:
115,108,127265,1,2,0:2:0:0:
155,117,127363,2,0,L|200:101,9,40,4|0|0|0|0|0|0|0|0|0,0:2|0:0|0:0|0:0|0:0|0:0|0:0|0:0|0:0|0:0,0:0:0:0:
339,71,128153,1,2,0:2:0:0:
334,112,128251,1,2,0:2:0:0:
341,153,128350,1,2,0:2:0:0:
361,189,128449,1,2,0:2:0:0:
397,210,128548,1,2,0:2:0:0:
397,210,128745,1,2,0:2:0:0:
465,343,128942,6,0,L|418:333,9,40
289,321,129732,1,2,0:2:0:0:
248,328,129830,1,2,0:2:0:0:
214,354,129929,1,2,0:2:0:0:
174,338,130028,1,2,0:2:0:0:
132,333,130126,1,2,0:2:0:0:
132,333,130324,1,2,0:2:0:0:
34,166,130521,6,0,L|50:92,9,40,4|0|0|0|0|0|0|0|0|0,0:2|0:0|0:0|0:0|0:0|0:0|0:0|0:0|0:0|0:0,0:0:0:0:
168,68,131311,1,2,0:2:0:0:
189,103,131409,1,2,0:2:0:0:
194,144,131508,1,2,0:2:0:0:
188,185,131607,1,2,0:2:0:0:
169,222,131705,1,2,0:2:0:0:
169,222,131903,1,2,0:2:0:0:
347,154,132100,6,0,L|288:180,9,40
469,273,132890,1,2,0:2:0:0:
443,305,132988,1,2,0:2:0:0:
405,324,133087,1,2,0:2:0:0:
362,325,133186,1,2,0:2:0:0:
322,312,133284,1,2,0:2:0:0:
190,357,133482,1,2,0:2:0:0:
89,271,133679,6,0,L|97:197,9,40,4|0|0|0|0|0|0|0|0|0,0:2|0:0|0:0|0:0|0:0|0:0|0:0|0:0|0:0|0:0,0:0:0:0:
32,136,134469,1,2,0:2:0:0:
70,120,134567,1,2,0:2:0:0:
104,96,134666,1,2,0:2:0:0:
132,65,134765,1,2,0:2:0:0:
154,29,134863,1,2,0:2:0:0:
154,29,135061,1,2,0:2:0:0:
234,151,135258,6,0,L|168:139,9,40
292,271,136048,1,2,0:2:0:0:
327,249,136146,1,2,0:2:0:0:
368,241,136245,1,2,0:2:0:0:
408,252,136344,1,2,0:2:0:0:
439,278,136442,1,2,0:2:0:0:
439,278,136640,1,2,0:2:0:0:
453,134,136837,6,0,L|469:68,9,40,4|0|0|0|0|0|0|0|0|0,0:2|0:0|0:0|0:0|0:0|0:0|0:0|0:0|0:0|0:0,0:0:0:0:
330,36,137627,1,2,0:2:0:0:
297,62,137725,1,2,0:2:0:0:
276,98,137824,1,2,0:2:0:0:
276,140,137923,1,2,0:2:0:0:
290,178,138021,1,2,0:2:0:0:
290,178,138219,1,2,0:2:0:0:
182,299,138416,6,0,L|228:272,9,40
46,249,139206,1,2,0:2:0:0:
78,222,139304,1,2,0:2:0:0:
100,186,139403,1,2,0:2:0:0:
111,145,139502,1,2,0:2:0:0:
108,103,139600,1,2,0:2:0:0:
108,103,139798,1,2,0:2:0:0:
256,192,139995,12,0,140784,0:0:0:0:
256,192,141574,12,0,142363,0:0:0:0:
256,192,143153,12,4,145521,0:0:0:0:
144,128,145719,5,2,0:2:0:0:
368,96,145916,1,2,0:2:0:0:
288,304,146113,1,2,0:2:0:0:
64,272,146311,6,0,P|192:256|272:336,1,240,4|0,0:2|0:0,0:0:0:0:
448,320,146903,1,2,0:2:0:0:
421,288,147001,1,2,0:2:0:0:
400,256,147100,2,0,P|386:194|392:127,1,120,0|2,0:0|0:2,0:0:0:0:
272,144,147495,2,0,P|224:96|142:76,1,120,0|2,0:0|0:2,0:0:0:0:
16,192,147890,6,0,P|96:272|224:240,1,240,2|0,0:2|0:0,0:0:0:0:
353,317,148482,1,2,0:2:0:0:
327,279,148580,1,2,0:2:0:0:
321,237,148679,2,0,P|327:186|384:120,1,120,0|2,0:0|0:2,0:0:0:0:
509,235,149074,2,0,P|450:256|381:251,1,120,0|2,0:0|0:2,0:0:0:0:
128,317,149469,6,0,P|226:313|306:376,1,180,6|0,0:2|0:0,0:0:0:0:
261,222,149863,2,0,P|166:234|69:190,1,180,2|0,0:2|0:0,0:0:0:0:
26,104,150258,2,0,P|107:134|223:88,1,180,2|0,0:2|0:0,0:0:0:0:
260,41,150653,2,0,P|289:131|379:193,1,180,2|0,0:2|0:0,0:0:0:0:
433,194,151048,5,2,0:3:0:0:
256,320,151245,2,0,P|368:304|496:336,1,240,2|2,0:3|0:2,0:0:0:0:
240,192,151837,2,0,P|80:208|0:192,1,240,2|2,0:2|0:2,0:0:0:0:
336,48,152626,5,4,0:2:0:0:
480,240,153219,1,2,0:2:0:0:
448,272,153317,1,2,0:2:0:0:
400,288,153416,2,0,P|304:288|208:176,1,240,0|2,0:0|0:3,0:0:0:0:
96,240,154008,1,2,0:2:0:0:
16,144,154205,6,0,L|48:64,1,60,2|0,0:2|0:0,0:0:0:0:
128,64,154403,2,0,L|96:144,1,60,2|0,0:2|0:0,0:0:0:0:
192,128,154600,2,0,P|304:112|416:192,1,240,0|2,0:0|0:3,0:0:0:0:
496,96,155192,1,0,0:2:0:0:
496,288,155390,2,0,P|430:294|336:256,1,120,2|2,0:3|0:3,0:0:0:0:
96,304,155784,6,0,P|208:288|288:176,1,240,4|0,0:2|0:0,0:0:0:0:
208,64,156376,1,2,0:2:0:0:
208,64,156475,1,2,0:2:0:0:
208,64,156574,1,0,0:0:0:0:
144,176,156771,1,2,0:2:0:0:
48,96,156969,1,2,0:2:0:0:
16,224,157166,1,2,0:2:0:0:
320,160,157363,5,6,0:2:0:0:
320,160,157462,1,2,0:2:0:0:
320,160,157561,1,2,0:2:0:0:
448,112,157758,1,6,0:3:0:0:
336,48,157955,1,6,0:2:0:0:
384,352,158350,1,4,0:2:0:0:
256,288,158548,1,0,0:0:0:0:
128,336,158745,1,4,0:2:0:0:
16,192,158942,6,0,P|128:208|224:96,1,240,4|0,0:2|0:0,0:0:0:0:
432,144,159534,1,2,0:2:0:0:
432,144,159633,1,2,0:2:0:0:
432,144,159732,2,0,P|368:144|304:96,1,120,0|2,0:0|0:2,0:0:0:0:
224,256,160126,2,0,P|320:224|384:240,1,120,0|2,0:0|0:2,0:0:0:0:
480,48,160521,6,0,P|432:176|480:288,1,240,2|0,0:2|0:0,0:0:0:0:
320,352,161113,1,2,0:2:0:0:
320,352,161212,1,2,0:2:0:0:
320,352,161311,1,0,0:0:0:0:
192,288,161508,1,2,0:2:0:0:
48,224,161705,2,0,P|64:288|64:368,1,120,2|2,0:2|0:2,0:0:0:0:
176,144,162100,6,0,P|96:80|0:96,1,180,6|0,0:2|0:0,0:0:0:0:
256,96,162495,2,0,P|176:64|80:80,1,180,2|0,0:2|0:0,0:0:0:0:
336,32,162890,2,0,P|224:32|160:80,1,180,2|0,0:2|0:0,0:0:0:0:
432,80,163284,2,0,P|352:112|256:64,1,180,2|0,0:2|0:0,0:0:0:0:
304,208,163679,5,2,0:3:0:0:
304,208,163876,2,0,P|384:224|464:192,1,120,2|0,0:3|0:0,0:0:0:0:
496,320,164271,1,2,0:2:0:0:
336,352,164469,2,0,P|256:320|160:336,1,180,2|2,0:2|0:2,0:0:0:0:
128,352,164863,2,0,P|58:354|-5:306,1,120,2|0,0:2|0:0,0:0:0:0:
16,208,165258,5,4,0:2:0:0:
304,64,165850,1,2,0:2:0:0:
334,92,165949,1,2,0:2:0:0:
353,129,166048,2,0,P|355:190|311:265,1,120,0|2,0:0|0:2,0:0:0:0:
135,208,166442,2,0,P|205:204|263:160,1,120,2|0,0:2|0:0,0:0:0:0:
165,95,166837,6,0,P|95:99|5:29,1,180,4|0,0:2|0:0,0:0:0:0:
21,151,167232,2,0,P|69:235|31:340,1,180,4|0,0:2|0:0,0:0:0:0:
139,304,167626,2,0,P|224:282|335:309,1,180,4|0,0:2|0:0,0:0:0:0:
306,214,168021,2,0,P|403:234|498:198,1,180,4|0,0:2|3:0,0:0:0:0:
413,36,168811,6,0,P|284:110|78:26,1,360.000013732911,4|0,0:0|0:0,0:0:0:0:
32,224,169995,5,4,0:2:0:0:
32,224,170192,1,4,0:2:0:0:
336,288,170784,5,0,0:0:0:0:
296,303,170883,1,2,0:2:0:0:
254,294,170982,1,2,0:2:0:0:
221,267,171080,1,2,0:2:0:0:
206,227,171179,1,2,0:2:0:0:
214,185,171278,1,2,0:2:0:0:
243,155,171376,1,2,0:2:0:0:
283,142,171475,1,2,0:2:0:0:
323,154,171574,5,4,0:2:0:0:
449,53,171969,1,0,0:0:0:0:
417,80,172067,1,2,0:2:0:0:
401,118,172166,1,2,0:2:0:0:
402,160,172265,1,2,0:2:0:0:
423,195,172363,1,2,0:2:0:0:
477,308,172561,1,2,0:2:0:0:
323,298,172758,1,0,0:0:0:0:
283,313,172857,1,2,0:2:0:0:
241,311,172955,1,2,0:2:0:0:
204,289,173054,1,2,0:2:0:0:
184,251,173153,5,4,0:2:0:0:
29,101,173548,1,0,0:2:0:0:
65,121,173646,1,2,0:2:0:0:
105,130,173745,1,2,0:2:0:0:
147,127,173844,1,2,0:2:0:0:
184,108,173942,1,2,0:2:0:0:
303,36,174140,1,2,0:2:0:0:
304,160,174337,1,0,0:2:0:0:
295,201,174436,1,2,0:2:0:0:
306,241,174534,1,2,0:2:0:0:
331,275,174633,1,2,0:2:0:0:
371,290,174732,5,4,0:2:0:0:
64,322,175126,1,0,0:2:0:0:
86,286,175225,1,2,0:2:0:0:
93,244,175324,1,2,0:2:0:0:
91,201,175423,1,2,0:2:0:0:
66,167,175521,1,2,0:2:0:0:
11,42,175719,1,2,0:2:0:0:
125,74,175916,1,0,0:2:0:0:
162,92,176015,1,2,0:2:0:0:
201,104,176113,1,2,0:2:0:0:
243,102,176212,1,2,0:2:0:0:
284,92,176311,5,4,0:2:0:0:
479,184,176705,1,4,0:2:0:0:
207,211,177100,1,4,0:2:0:0:
425,323,177495,2,0,P|338:300|246:324,1,180,2|2,0:2|0:2,0:0:0:0:
221,340,177890,6,0,P|86:370|41:172,1,360,2|0,0:2|0:0,0:0:0:0:
