osu file format v14

[General]
AudioFilename: Achromat.mp3
AudioLeadIn: 0
PreviewTime: 62997
Countdown: 0
SampleSet: Soft
StackLeniency: 0.7
Mode: 3
LetterboxInBreaks: 0
SpecialStyle: 0
WidescreenStoryboard: 0

[Editor]
DistanceSpacing: 1.5
BeatDivisor: 8
GridSize: 8
TimelineZoom: 1.8

[Metadata]
Title:Achromat
TitleUnicode:Achromat
Artist:MiddleIsland
ArtistUnicode:MiddleIsland
Creator:iJinjin
Version:7K Black Another
Source:
Tags:jinjin piano tristan97 tidek blocko fullerene- 弦奏無彩色 nakajima misaki
BeatmapID:553820
BeatmapSetID:195940

[Difficulty]
HPDrainRate:8.5
CircleSize:7
OverallDifficulty:8
ApproachRate:5
SliderMultiplier:1.4
SliderTickRate:1

[Events]
//Background and Video events
0,0,"achromatbg.jpg",0,0
//Break Periods
//Storyboard Layer 0 (Background)
//Storyboard Layer 1 (Fail)
//Storyboard Layer 2 (Pass)
//Storyboard Layer 3 (Foreground)
//Storyboard Sound Samples

[TimingPoints]
-275,363.636363636364,4,2,1,15,1,0
88,-119.047619047619,4,2,1,30,0,0
5543,-117.647058823529,4,2,1,30,0,0
5634,-116.279069767442,4,2,1,30,0,0
5725,-114.942528735632,4,2,1,30,0,0
5815,-113.636363636364,4,2,1,30,0,0
5906,-112.359550561798,4,2,1,30,0,0
5997,-111.111111111111,4,2,1,30,0,0
6088,-109.89010989011,4,2,1,30,0,0
6179,-108.695652173913,4,2,1,30,0,0
6270,-107.52688172043,4,2,1,30,0,0
6361,-106.382978723404,4,2,1,30,0,0
6452,-105.263157894737,4,2,1,30,0,0
6543,-104.166666666667,4,2,1,30,0,0
6634,-103.092783505155,4,2,1,30,0,0
6997,-76.9230769230769,4,2,1,30,0,0
7179,-100,4,2,1,30,0,0
9543,-62.5,4,2,1,30,0,0
9725,-100,4,2,1,30,0,0
21588,-111.111111111111,4,2,1,30,0,0
33179,-108.695652173913,4,2,1,30,0,0
33906,-106.382978723404,4,2,1,30,0,0
34634,-104.166666666667,4,2,1,30,0,0
34679,-102.040816326531,4,2,1,30,0,0
34725,-100,4,2,1,30,0,0
34770,-99.009900990099,4,2,1,30,0,0
34815,-98.0392156862745,4,2,1,30,0,0
34861,-97.0873786407767,4,2,1,30,0,0
34906,-96.1538461538461,4,2,1,30,0,0
34952,-95.2380952380952,4,2,1,30,0,0
36088,-100,4,2,1,30,0,0
60815,-71.4285714285714,4,2,1,30,0,0
60906,-100,4,2,1,30,0,0
61906,-71.4285714285714,4,2,1,30,0,0
61997,-100,4,2,1,30,0,0
75361,-100,4,2,1,30,0,1
86270,-100,4,2,1,30,0,0
134997,-71.4285714285714,4,2,1,30,0,0
135088,-100,4,2,1,30,0,0
136088,-71.4285714285714,4,2,1,30,0,0
136179,-100,4,2,1,30,0,0
149543,-100,4,2,1,30,0,1
160452,-100,4,2,1,30,0,0

[HitObjects]
329,192,634,5,0,0:0:0:50:G6S_s.wav
329,192,815,1,0,0:0:0:50:G6S_s.wav
475,192,997,1,0,0:0:0:50:G7S_s.wav
475,192,1179,1,0,0:0:0:50:G7S.wav
182,192,1179,1,0,0:0:0:50:D#7S_Eb7S_s.wav
36,192,1179,1,0,0:0:0:50:C6S.wav
109,192,1543,1,0,0:0:0:50:D#6S_Eb6S_s.wav
256,192,1543,1,0,0:0:0:50:G6S.wav
329,192,1725,1,0,0:0:0:50:D7S_s.wav
402,192,1815,1,0,0:0:0:50:D#7S_Eb7S_s.wav
475,192,1906,1,0,0:0:0:50:F7S_s.wav
182,192,1906,1,0,0:0:0:50:B5S.wav
402,192,2088,1,0,0:0:0:50:D#7S_Eb7S_s.wav
475,192,2179,1,0,0:0:0:50:F7S_s.wav
402,192,2270,1,0,0:0:0:50:D#7S_Eb7S_s.wav
36,192,2270,1,0,0:0:0:50:D6S.wav
182,192,2270,1,0,0:0:0:50:B6S_s.wav
256,192,2452,1,0,0:0:0:50:D7S_s.wav
109,192,2634,128,0,3361:0:0:0:50:C6S.wav
329,192,2634,128,0,3361:0:0:0:50:C7S.wav
475,192,2634,128,0,3361:0:0:0:50:D#7S_Eb7S.wav
182,192,3543,1,0,0:0:0:50:F6S_s.wav
182,192,3725,1,0,0:0:0:50:F6S_s.wav
475,192,3906,1,0,0:0:0:50:D#7S_Eb7S_s.wav
329,192,4088,1,0,0:0:0:20:C7S.wav
109,192,4088,1,0,0:0:0:50:F6S.wav
475,192,4088,128,0,4815:0:0:0:50:D#7S_Eb7S.wav
256,192,4452,1,0,0:0:0:50:F5S.wav
402,192,4634,1,0,0:0:0:50:D7S_s.wav
329,192,4725,1,0,0:0:0:50:C7S_s.wav
402,192,4815,1,0,0:0:0:50:D7S_s.wav
36,192,4815,1,0,0:0:0:50:A#4S_Bb4S.wav
256,192,4815,128,0,5543:0:0:0:20:
329,192,4997,1,0,0:0:0:50:D#7S_Eb7S_s.wav
182,192,5179,1,0,0:0:0:50:F5S.wav
475,192,5179,1,0,0:0:0:50:F7S_s.wav
402,192,5361,1,0,0:0:0:50:D7S_s.wav
36,192,5543,1,0,0:0:0:50:D#4S_Eb4S.wav
475,192,5543,1,0,0:0:0:50:C7S.wav
182,192,5543,128,0,5906:0:0:0:20:
329,192,5543,1,0,0:0:0:45:D#6S_Eb6S_s.wav
256,192,5906,1,0,0:0:0:50:F5S.wav
402,192,5906,1,0,0:0:0:50:A#6S_Bb6S.wav
109,192,5906,128,0,6270:0:0:0:20:
475,192,6179,1,0,0:0:0:50:C7S_s.wav
402,192,6225,1,0,0:0:0:50:B6S_s.wav
329,192,6270,1,0,0:0:0:50:A#6S_Bb6S.wav
182,192,6270,1,0,0:0:0:50:D4S.wav
36,192,6270,128,0,6634:0:0:0:20:
256,192,6452,1,0,0:0:0:50:G#4S_Ab4S_s.wav
109,192,6634,128,0,6997:0:0:0:20:
329,192,6634,1,0,0:0:0:50:F5S_s.wav
475,192,6634,1,0,0:0:0:50:G#6S_Ab6S_s.wav
402,192,6815,1,0,0:0:0:45:G#4S_Ab4S_s.wav
329,192,6997,1,0,0:0:0:20:drums.wav
475,192,6997,1,6,0:0:0:50:G5S.wav
256,192,6997,1,4,0:0:0:50:
36,192,6997,1,0,0:0:0:20:
182,192,6997,1,0,0:0:0:20:drums.wav
256,192,7361,1,0,0:0:0:20:
402,192,7361,1,0,0:0:0:20:
475,192,7361,1,0,0:0:0:20:
36,192,7482,1,0,0:0:0:20:
109,192,7482,1,0,0:0:0:20:
182,192,7482,1,0,0:0:0:20:
36,192,7603,1,0,0:0:0:20:
109,192,7603,1,0,0:0:0:20:
182,192,7603,1,0,0:0:0:20:
329,192,7725,1,0,0:0:0:20:
402,192,7725,1,0,0:0:0:20:
475,192,7725,1,0,0:0:0:20:
109,192,7846,1,0,0:0:0:20:
256,192,7846,1,0,0:0:0:20:
182,192,7846,1,0,0:0:0:20:
109,192,7967,1,0,0:0:0:20:
182,192,7967,1,0,0:0:0:20:
256,192,7967,1,0,0:0:0:20:
402,192,8088,1,0,0:0:0:20:
475,192,8088,1,0,0:0:0:20:
36,192,8088,1,0,0:0:0:20:
182,192,8209,1,0,0:0:0:20:
256,192,8209,1,0,0:0:0:20:
329,192,8209,1,0,0:0:0:20:
182,192,8331,1,0,0:0:0:20:
256,192,8331,1,0,0:0:0:20:
329,192,8331,1,0,0:0:0:20:
109,192,8452,1,0,0:0:0:20:
475,192,8452,1,0,0:0:0:20:
36,192,8452,1,0,0:0:0:20:
256,192,8573,1,0,0:0:0:20:
329,192,8573,1,0,0:0:0:20:
402,192,8573,1,0,0:0:0:20:
256,192,8694,1,0,0:0:0:20:
329,192,8694,1,0,0:0:0:20:
402,192,8694,1,0,0:0:0:20:
36,192,8815,1,0,0:0:0:20:
109,192,8815,1,0,0:0:0:20:
182,192,8815,1,0,0:0:0:20:
329,192,8937,1,0,0:0:0:20:
402,192,8937,1,0,0:0:0:20:
475,192,8937,1,0,0:0:0:20:
475,192,9058,1,0,0:0:0:20:
329,192,9058,1,0,0:0:0:20:
402,192,9058,1,0,0:0:0:20:
36,192,9179,1,0,0:0:0:20:
109,192,9179,1,0,0:0:0:20:
256,192,9179,1,0,0:0:0:20:
182,192,9300,1,0,0:0:0:20:
402,192,9300,1,0,0:0:0:20:
329,192,9300,1,0,0:0:0:20:
182,192,9421,1,0,0:0:0:20:
329,192,9421,1,0,0:0:0:20:
402,192,9421,1,0,0:0:0:20:
256,192,9543,1,0,0:0:0:20:
36,192,9543,1,0,0:0:0:20:
475,192,9543,1,0,0:0:0:20:
329,192,9906,1,0,0:0:0:30:drums.wav
36,192,9906,1,0,0:0:0:20:
109,192,9906,1,0,0:0:0:20:
402,192,9906,1,0,0:0:0:20:
475,192,9906,1,0,0:0:0:20:
182,192,9906,1,4,0:0:0:30:
256,192,9997,1,0,0:0:0:20:
182,192,10088,1,0,0:0:0:20:
475,192,10088,1,0,0:0:0:20:
109,192,10179,1,0,0:0:0:20:
402,192,10179,1,0,0:0:0:20:
36,192,10270,1,0,0:0:0:20:
329,192,10270,1,0,0:0:0:20:
256,192,10270,1,0,0:0:0:20:
36,192,10452,1,0,0:0:0:20:
109,192,10452,1,0,0:0:0:20:
475,192,10452,1,0,0:0:0:20:
402,192,10452,1,0,0:0:0:30:drums.wav
182,192,10543,1,0,0:0:0:20:
256,192,10634,1,0,0:0:0:20:
329,192,10725,1,0,0:0:0:20:
402,192,10770,1,0,0:0:0:20:
475,192,10815,1,0,0:0:0:20:
182,192,10815,1,0,0:0:0:20:
109,192,10906,1,0,0:0:0:20:
402,192,10906,1,0,0:0:0:20:
36,192,10997,1,0,0:0:0:20:
329,192,10997,1,0,0:0:0:20:
182,192,11179,1,0,0:0:0:20:
329,192,11179,1,0,0:0:0:20:
402,192,11361,1,0,0:0:0:20:
256,192,11361,1,0,0:0:0:30:drums.wav
109,192,11361,1,0,0:0:0:20:
36,192,11361,1,0,0:0:0:20:
36,192,11725,1,0,0:0:0:20:
329,192,11725,1,0,0:0:0:20:
109,192,11815,1,0,0:0:0:20:
402,192,11815,1,0,0:0:0:20:
475,192,11906,1,0,0:0:0:20:
256,192,11906,1,0,0:0:0:30:drums.wav
329,192,11906,1,0,0:0:0:20:
182,192,11906,1,0,0:0:0:20:
109,192,12088,1,0,0:0:0:20:
402,192,12088,1,0,0:0:0:20:
329,192,12179,1,0,0:0:0:20:
256,192,12270,1,0,0:0:0:20:
475,192,12270,1,0,0:0:0:20:
36,192,12270,1,0,0:0:0:20:
182,192,12361,1,0,0:0:0:20:
109,192,12452,1,0,0:0:0:20:
475,192,12452,1,0,0:0:0:20:
36,192,12452,1,0,0:0:0:20:
329,192,12543,1,0,0:0:0:20:
182,192,12634,1,0,0:0:0:20:
36,192,12634,1,0,0:0:0:20:
475,192,12634,1,0,0:0:0:20:
256,192,12725,1,0,0:0:0:20:
109,192,12725,1,0,0:0:0:20:
182,192,12815,1,0,0:0:0:30:drums.wav
402,192,12815,1,0,0:0:0:20:
475,192,12815,1,0,0:0:0:20:
329,192,12815,1,0,0:0:0:20:
256,192,12997,1,0,0:0:0:20:
109,192,12997,1,0,0:0:0:20:
475,192,12997,1,0,0:0:0:20:
329,192,13088,1,0,0:0:0:20:
36,192,13088,1,0,0:0:0:20:
475,192,13179,1,0,0:0:0:20:
109,192,13179,1,0,0:0:0:20:
402,192,13179,1,0,0:0:0:20:
182,192,13225,1,0,0:0:0:20:
256,192,13270,1,0,0:0:0:20:
329,192,13315,1,0,0:0:0:20:
182,192,13361,1,0,0:0:0:30:crash.wav
402,192,13361,1,0,0:0:0:20:
475,192,13361,1,0,0:0:0:20:
36,192,13361,1,0,0:0:0:20:
109,192,13361,1,0,0:0:0:20:
256,192,13543,1,0,0:0:0:20:
402,192,13543,1,0,0:0:0:20:
182,192,13725,1,0,0:0:0:20:
329,192,13725,1,0,0:0:0:20:
109,192,13906,1,0,0:0:0:20:
256,192,13906,1,0,0:0:0:20:
402,192,13906,1,0,0:0:0:20:
329,192,14058,1,0,0:0:0:20:
182,192,14088,1,0,0:0:0:20:
475,192,14088,1,0,0:0:0:20:
36,192,14270,1,0,0:0:0:20:
182,192,14270,1,0,0:0:0:20:
475,192,14270,1,0,0:0:0:20:
256,192,14270,1,0,0:0:0:30:drums.wav
109,192,14452,1,0,0:0:0:20:
402,192,14452,1,0,0:0:0:20:
182,192,14543,1,0,0:0:0:20:
256,192,14634,1,0,0:0:0:20:
475,192,14634,1,0,0:0:0:20:
329,192,14725,1,0,0:0:0:20:
402,192,14815,1,0,0:0:0:20:
36,192,14815,1,0,0:0:0:20:
109,192,14815,1,0,0:0:0:20:
182,192,14815,1,0,0:0:0:30:drums.wav
256,192,14906,1,0,0:0:0:20:
475,192,14906,1,0,0:0:0:20:
329,192,14997,1,0,0:0:0:20:
36,192,14997,1,0,0:0:0:20:
109,192,15088,1,0,0:0:0:20:
402,192,15088,1,0,0:0:0:20:
475,192,15179,1,0,0:0:0:20:
182,192,15179,1,0,0:0:0:20:
329,192,15179,1,0,0:0:0:20:
36,192,15270,1,0,0:0:0:20:
256,192,15270,1,0,0:0:0:20:
109,192,15361,1,0,0:0:0:20:
475,192,15361,1,0,0:0:0:20:
402,192,15361,1,0,0:0:0:20:
329,192,15452,1,0,0:0:0:20:
182,192,15452,1,0,0:0:0:20:
256,192,15543,1,0,0:0:0:20:
36,192,15543,1,0,0:0:0:20:
475,192,15543,1,0,0:0:0:20:
402,192,15634,1,0,0:0:0:20:
109,192,15634,1,0,0:0:0:20:
256,192,15725,1,0,0:0:0:30:drums.wav
182,192,15725,1,0,0:0:0:20:
475,192,15725,128,0,16088:0:0:0:20:
36,192,15725,128,0,16088:0:0:0:20:
329,192,15725,1,4,0:0:0:30:
109,192,15906,1,0,0:0:0:20:
402,192,15906,1,0,0:0:0:20:
329,192,15997,1,0,0:0:0:20:
109,192,16088,1,0,0:0:0:20:
402,192,16088,1,0,0:0:0:20:
182,192,16088,1,0,0:0:0:20:
36,192,16452,128,0,16815:0:0:0:20:
475,192,16452,128,0,16815:0:0:0:20:
182,192,16452,1,0,0:0:0:20:
256,192,16452,1,0,0:0:0:30:drums.wav
329,192,16452,1,0,0:0:0:20:
402,192,16634,1,0,0:0:0:20:
109,192,16634,1,0,0:0:0:20:
329,192,16725,1,0,0:0:0:20:
182,192,16725,1,0,0:0:0:20:
109,192,16815,128,0,17179:0:0:0:20:
402,192,16815,128,0,17179:0:0:0:20:
256,192,16815,1,0,0:0:0:20:
329,192,16906,1,0,0:0:0:20:
256,192,16997,1,0,0:0:0:20:
182,192,17088,1,0,0:0:0:20:
36,192,17179,128,0,17543:0:0:0:20:
475,192,17179,128,0,17543:0:0:0:20:
329,192,17179,1,4,0:0:0:30:
256,192,17179,1,0,0:0:0:30:drums.wav
109,192,17361,1,0,0:0:0:20:
402,192,17361,1,0,0:0:0:20:
182,192,17452,1,0,0:0:0:20:
109,192,17543,1,0,0:0:0:20:
256,192,17543,1,0,0:0:0:20:
402,192,17543,1,0,0:0:0:20:
402,192,17906,128,0,18270:0:0:0:20:
109,192,17906,128,0,18270:0:0:0:20:
182,192,17906,1,0,0:0:0:20:
329,192,17906,1,0,0:0:0:20:
256,192,17906,1,0,0:0:0:30:drums.wav
182,192,18088,1,0,0:0:0:20:
329,192,18088,1,0,0:0:0:20:
256,192,18179,1,0,0:0:0:20:
36,192,18270,128,0,18634:0:0:0:20:
475,192,18270,128,0,18634:0:0:0:20:
329,192,18270,1,0,0:0:0:20:
182,192,18270,1,0,0:0:0:20:
402,192,18361,1,0,0:0:0:20:
109,192,18361,1,0,0:0:0:20:
329,192,18452,1,0,0:0:0:20:
182,192,18452,1,0,0:0:0:20:
256,192,18543,1,0,0:0:0:20:
182,192,18634,128,0,18997:0:0:0:30:drums.wav
329,192,18634,128,4,18997:0:0:0:30:
109,192,18634,1,0,0:0:0:20:
402,192,18634,1,0,0:0:0:20:
475,192,18815,1,0,0:0:0:20:
36,192,18815,1,0,0:0:0:20:
402,192,18906,1,0,0:0:0:20:
109,192,18906,1,0,0:0:0:20:
256,192,18997,1,0,0:0:0:20:
475,192,18997,1,0,0:0:0:20:
36,192,18997,1,0,0:0:0:20:
109,192,19179,1,0,0:0:0:20:
402,192,19179,1,0,0:0:0:20:
182,192,19270,1,0,0:0:0:20:
329,192,19270,1,0,0:0:0:20:
36,192,19361,128,0,19725:0:0:0:20:
475,192,19361,128,0,19725:0:0:0:20:
402,192,19361,1,0,0:0:0:20:
109,192,19361,1,0,0:0:0:20:
256,192,19361,1,0,0:0:0:30:drums.wav
182,192,19543,1,0,0:0:0:20:
329,192,19634,1,0,0:0:0:20:
109,192,19725,128,0,19906:0:0:0:20:
256,192,19725,1,0,0:0:0:20:
402,192,19725,128,0,19906:0:0:0:20:
36,192,19906,1,0,0:0:0:20:
256,192,19906,1,0,0:0:0:20:
475,192,19906,1,0,0:0:0:20:
256,192,19997,1,0,0:0:0:20:
182,192,20088,1,0,0:0:0:30:drums.wav
36,192,20088,1,0,0:0:0:20:
329,192,20088,1,4,0:0:0:30:
475,192,20088,1,0,0:0:0:20:
109,192,20088,1,0,0:0:0:20:
402,192,20088,1,0,0:0:0:20:
109,192,20209,1,0,0:0:0:20:
182,192,20209,1,0,0:0:0:20:
329,192,20209,1,0,0:0:0:20:
402,192,20209,1,0,0:0:0:20:
109,192,20331,1,0,0:0:0:20:
182,192,20331,1,0,0:0:0:20:
329,192,20331,1,0,0:0:0:20:
402,192,20331,1,0,0:0:0:20:
256,192,20452,1,0,0:0:0:20:
402,192,20573,1,0,0:0:0:20:
475,192,20573,1,0,0:0:0:20:
109,192,20573,1,0,0:0:0:20:
36,192,20573,1,0,0:0:0:20:
402,192,20694,1,0,0:0:0:20:
475,192,20694,1,0,0:0:0:20:
36,192,20694,1,0,0:0:0:20:
109,192,20694,1,0,0:0:0:20:
329,192,20815,1,0,0:0:0:20:
182,192,20815,1,0,0:0:0:20:
256,192,20815,1,0,0:0:0:30:drums.wav
36,192,20815,1,0,0:0:0:20:
475,192,20815,1,0,0:0:0:20:
109,192,20937,1,0,0:0:0:20:
402,192,20937,1,0,0:0:0:20:
36,192,20937,1,0,0:0:0:20:
475,192,20937,1,0,0:0:0:20:
109,192,21058,1,0,0:0:0:20:
402,192,21058,1,0,0:0:0:20:
36,192,21058,1,0,0:0:0:20:
475,192,21058,1,0,0:0:0:20:
36,192,21300,1,0,0:0:0:20:
182,192,21300,1,0,0:0:0:20:
329,192,21300,1,0,0:0:0:20:
475,192,21300,1,0,0:0:0:20:
36,192,21421,1,0,0:0:0:20:
182,192,21421,1,0,0:0:0:20:
329,192,21421,1,0,0:0:0:20:
475,192,21421,1,0,0:0:0:20:
36,192,21543,128,0,22997:0:0:0:30:drums.wav
475,192,21543,128,4,22997:0:0:0:30:
402,192,21565,128,0,22997:0:0:0:20:
109,192,21565,128,0,22997:0:0:0:20:
182,192,21588,128,0,22997:0:0:0:20:
329,192,21588,128,0,22997:0:0:0:70:
109,192,23906,1,0,0:0:0:20:
109,192,24088,1,0,0:0:0:20:
475,192,24270,1,0,0:0:0:20:
475,192,24452,1,0,0:0:0:20:
256,192,24452,1,0,0:0:0:20:
36,192,24452,128,0,25179:0:0:0:20:
182,192,24815,1,0,0:0:0:20:
329,192,24815,1,0,0:0:0:20:
109,192,24997,1,0,0:0:0:20:
182,192,25088,1,0,0:0:0:20:
329,192,25179,1,0,0:0:0:20:
256,192,25179,128,0,25906:0:0:0:20:
475,192,25179,1,0,0:0:0:20:
402,192,25361,1,0,0:0:0:20:
475,192,25452,1,0,0:0:0:20:
402,192,25543,1,0,0:0:0:20:
109,192,25543,1,0,0:0:0:20:
329,192,25725,1,0,0:0:0:20:
475,192,25906,128,0,26634:0:0:0:20:
182,192,25906,128,0,26634:0:0:0:20:
36,192,25906,128,0,26634:0:0:0:20:
36,192,26815,1,0,0:0:0:20:
36,192,26997,1,0,0:0:0:20:
475,192,27179,1,0,0:0:0:20:
329,192,27361,1,0,0:0:0:20:
475,192,27361,1,0,0:0:0:20:
109,192,27361,128,0,28088:0:0:0:20:
256,192,27725,1,0,0:0:0:20:
36,192,27725,1,0,0:0:0:20:
182,192,27906,1,0,0:0:0:20:
256,192,27997,1,0,0:0:0:20:
402,192,28088,128,0,28815:0:0:0:20:
329,192,28088,1,0,0:0:0:20:
36,192,28088,1,0,0:0:0:20:
329,192,28270,1,0,0:0:0:20:
256,192,28361,1,0,0:0:0:20:
182,192,28452,1,0,0:0:0:20:
36,192,28452,1,0,0:0:0:20:
329,192,28634,1,0,0:0:0:20:
256,192,28815,128,0,29179:0:0:0:20:
109,192,28815,1,0,0:0:0:20:
182,192,29179,128,0,29543:0:0:0:20:
182,192,29906,128,0,30270:0:0:0:20:
36,192,30270,128,0,30997:0:0:0:20:
329,192,30270,1,0,0:0:0:20:
475,192,30270,1,0,0:0:0:20:
256,192,30634,1,0,0:0:0:20:
402,192,30634,1,0,0:0:0:20:
109,192,30815,1,0,0:0:0:20:
182,192,30906,1,0,0:0:0:20:
256,192,30997,128,0,31725:0:0:0:20:
329,192,30997,1,0,0:0:0:20:
475,192,30997,1,0,0:0:0:20:
402,192,31179,1,0,0:0:0:20:
475,192,31361,1,0,0:0:0:20:
109,192,31361,1,0,0:0:0:20:
329,192,31543,1,0,0:0:0:20:
402,192,31725,128,0,32088:0:0:0:20:
36,192,31725,1,0,0:0:0:20:
109,192,32088,1,0,0:0:0:20:
182,192,32270,1,0,0:0:0:20:
256,192,32361,1,0,0:0:0:20:
329,192,32406,1,0,0:0:0:20:
402,192,32452,1,0,0:0:0:20:
475,192,32452,1,0,0:0:0:20:
109,192,32452,1,0,0:0:0:20:
36,192,32452,128,0,32997:0:0:0:20:
182,192,32725,1,0,0:0:0:20:
329,192,32725,1,0,0:0:0:20:
475,192,32725,1,0,0:0:0:20:
402,192,32997,1,0,0:0:0:20:
256,192,32997,1,0,0:0:0:20:
182,192,33179,1,0,0:0:0:20:
329,192,33179,1,0,0:0:0:20:
475,192,33179,1,0,0:0:0:20:
36,192,33179,128,0,33361:0:0:0:20:
256,192,33361,1,0,0:0:0:20:
109,192,33361,128,0,33543:0:0:0:20:
329,192,33543,1,0,0:0:0:20:
475,192,33543,1,0,0:0:0:20:
182,192,33543,128,0,33725:0:0:0:20:
402,192,33725,1,0,0:0:0:20:
256,192,33725,128,0,33906:0:0:0:20:
36,192,33815,1,0,0:0:0:20:
109,192,33861,1,0,0:0:0:20:
182,192,33906,1,0,0:0:0:20:
475,192,33906,1,0,0:0:0:20:
329,192,33906,128,0,34088:0:0:0:20:
36,192,34088,1,0,0:0:0:20:
182,192,34088,128,0,34270:0:0:0:20:
402,192,34179,1,0,0:0:0:20:
109,192,34270,1,0,0:0:0:20:
256,192,34270,128,0,34452:0:0:0:20:
182,192,34452,1,0,0:0:0:20:
475,192,34452,1,0,0:0:0:20:
329,192,34452,128,0,34634:0:0:0:20:
36,192,34543,1,0,0:0:0:20:
109,192,34543,1,0,0:0:0:20:
182,192,34634,1,0,0:0:0:20:
256,192,34634,1,0,0:0:0:30:drums.wav
402,192,34634,1,0,0:0:0:20:
475,192,34634,1,0,0:0:0:20:
36,192,34725,1,0,0:0:0:20:
109,192,34815,1,0,0:0:0:20:
329,192,34815,1,0,0:0:0:20:
402,192,34906,1,0,0:0:0:20:
182,192,34906,1,0,0:0:0:20:
475,192,34997,1,0,0:0:0:20:
256,192,34997,1,0,0:0:0:20:
109,192,35088,1,0,0:0:0:20:
402,192,35179,1,0,0:0:0:20:
36,192,35179,1,0,0:0:0:20:
475,192,35179,1,0,0:0:0:20:
329,192,35179,1,0,0:0:0:30:drums.wav
109,192,35270,1,0,0:0:0:20:
182,192,35361,1,0,0:0:0:20:
329,192,35361,1,0,0:0:0:20:
475,192,35384,1,0,0:0:0:20:
402,192,35384,1,0,0:0:0:20:
36,192,35543,1,0,0:0:0:20:
182,192,35543,1,0,0:0:0:20:
402,192,35634,1,0,0:0:0:20:
182,192,35725,1,0,0:0:0:20:
36,192,35725,1,0,0:0:0:20:
329,192,35906,1,0,0:0:0:20:
475,192,35906,1,0,0:0:0:20:
182,192,35997,1,0,0:0:0:20:
256,192,36088,1,0,0:0:0:30:drums.wav
109,192,36088,1,0,0:0:0:20:
402,192,36088,1,4,0:0:0:30:
475,192,36088,1,0,0:0:0:20:
36,192,36088,128,0,36815:0:0:0:20:
109,192,36452,1,0,0:0:0:20:
402,192,36452,1,0,0:0:0:20:
329,192,36452,1,0,0:0:0:20:
256,192,36634,1,0,0:0:0:20:
329,192,36725,1,0,0:0:0:20:
402,192,36815,1,0,0:0:0:20:
182,192,36815,1,0,0:0:0:20:
475,192,36815,128,0,37179:0:0:0:20:
329,192,36997,1,0,0:0:0:20:
402,192,37088,1,0,0:0:0:20:
329,192,37179,1,0,0:0:0:20:
109,192,37179,128,0,37543:0:0:0:20:
182,192,37179,1,0,0:0:0:20:
256,192,37361,1,0,0:0:0:20:
36,192,37543,128,0,38270:0:0:0:20:
475,192,37543,128,0,38270:0:0:0:20:
329,192,37543,1,0,0:0:0:20:
182,192,37906,128,0,38270:0:0:0:20:
329,192,37906,128,0,38270:0:0:0:20:
256,192,38088,1,0,0:0:0:20:
109,192,38270,128,0,38997:0:0:0:20:
402,192,38452,1,0,0:0:0:20:
402,192,38634,1,0,0:0:0:20:
256,192,38634,128,0,38997:0:0:0:20:
475,192,38815,1,0,0:0:0:20:
36,192,38997,1,0,0:0:0:20:
475,192,38997,1,0,0:0:0:20:
329,192,38997,128,0,39725:0:0:0:20:
182,192,39361,1,0,0:0:0:20:
256,192,39361,1,0,0:0:0:20:
475,192,39361,1,0,0:0:0:20:
36,192,39361,128,0,39725:0:0:0:20:
109,192,39543,1,0,0:0:0:20:
182,192,39634,1,0,0:0:0:20:
109,192,39725,128,0,40088:0:0:0:20:
402,192,39725,128,0,40088:0:0:0:20:
475,192,39725,1,0,0:0:0:20:
256,192,39725,1,0,0:0:0:20:
182,192,39906,1,0,0:0:0:20:
256,192,39997,1,0,0:0:0:20:
36,192,40088,128,0,40452:0:0:0:20:
475,192,40088,128,0,40452:0:0:0:20:
329,192,40088,1,0,0:0:0:20:
182,192,40088,1,0,0:0:0:20:
256,192,40270,1,0,0:0:0:20:
402,192,40452,128,0,41179:0:0:0:20:
256,192,40452,128,0,40815:0:0:0:20:
109,192,40452,128,0,41179:0:0:0:20:
182,192,40815,128,0,41179:0:0:0:20:
475,192,40997,1,0,0:0:0:20:
329,192,41179,128,0,41725:0:0:0:20:
256,192,41179,1,0,0:0:0:20:
36,192,41361,1,0,0:0:0:20:
475,192,41543,1,0,0:0:0:20:
182,192,41543,1,0,0:0:0:20:
256,192,41725,1,0,0:0:0:20:
402,192,41725,1,0,0:0:0:20:
109,192,41815,1,0,0:0:0:20:
182,192,41815,1,0,0:0:0:20:
36,192,41906,1,0,0:0:0:20:
256,192,41906,1,0,0:0:0:30:drums.wav
402,192,41906,1,4,0:0:0:30:
475,192,41906,128,0,42634:0:0:0:20:
109,192,42270,1,0,0:0:0:20:
402,192,42270,1,0,0:0:0:20:
256,192,42452,1,0,0:0:0:20:
329,192,42543,1,0,0:0:0:20:
36,192,42634,128,0,42997:0:0:0:20:
402,192,42634,1,0,0:0:0:20:
182,192,42634,1,0,0:0:0:20:
329,192,42815,1,0,0:0:0:20:
256,192,42906,1,0,0:0:0:20:
475,192,42997,128,0,43361:0:0:0:20:
182,192,42997,1,0,0:0:0:20:
109,192,42997,1,0,0:0:0:20:
256,192,43179,1,0,0:0:0:20:
182,192,43270,1,0,0:0:0:20:
36,192,43361,128,0,43725:0:0:0:20:
109,192,43361,1,0,0:0:0:20:
402,192,43361,1,0,0:0:0:20:
182,192,43543,1,0,0:0:0:20:
329,192,43543,1,0,0:0:0:20:
109,192,43725,128,0,44088:0:0:0:20:
256,192,43725,1,0,0:0:0:20:
402,192,43725,1,0,0:0:0:20:
329,192,43906,1,0,0:0:0:20:
475,192,43906,1,0,0:0:0:20:
182,192,44088,128,0,44452:0:0:0:20:
402,192,44088,1,0,0:0:0:20:
475,192,44088,1,0,0:0:0:20:
36,192,44088,1,0,0:0:0:20:
329,192,44270,1,0,0:0:0:20:
329,192,44452,1,0,0:0:0:20:
36,192,44452,1,0,0:0:0:20:
109,192,44634,1,0,0:0:0:20:
402,192,44634,1,0,0:0:0:20:
36,192,44815,128,0,45179:0:0:0:20:
329,192,44815,128,0,45179:0:0:0:20:
402,192,44815,128,4,45179:0:0:0:30:
182,192,44815,128,0,45179:0:0:0:30:drums.wav
475,192,44815,128,0,45179:0:0:0:20:
182,192,45361,1,0,0:0:0:20:
256,192,45452,1,0,0:0:0:20:
36,192,45543,128,0,45906:0:0:0:20:
109,192,45543,128,0,45906:0:0:0:20:
182,192,45543,128,4,45906:0:0:0:0:
329,192,45543,128,0,45906:0:0:0:30:drums.wav
475,192,45543,128,0,45906:0:0:0:20:
182,192,46088,1,0,0:0:0:20:
329,192,46179,1,0,0:0:0:20:
256,192,46270,128,0,46634:0:0:0:30:drums.wav
402,192,46270,128,4,46634:0:0:0:30:
475,192,46270,128,0,46634:0:0:0:20:
36,192,46270,128,0,46997:0:0:0:20:
109,192,46270,128,0,46997:0:0:0:20:
182,192,46634,128,0,46997:0:0:0:20:
109,192,47361,1,0,0:0:0:20:
402,192,47361,1,0,0:0:0:20:
182,192,47452,1,0,0:0:0:20:
329,192,47452,1,0,0:0:0:20:
402,192,47543,1,0,0:0:0:20:
109,192,47543,1,0,0:0:0:20:
36,192,47634,1,0,0:0:0:20:
475,192,47634,1,0,0:0:0:20:
182,192,47725,1,2,0:0:0:20:
329,192,47725,1,4,0:0:0:30:
402,192,47725,1,2,0:0:0:20:
109,192,47725,1,0,0:0:0:30:drums.wav
256,192,47725,128,0,47906:0:0:0:20:
36,192,47906,1,0,0:0:0:20:
182,192,47906,1,2,0:0:0:20:
402,192,47906,1,0,0:0:0:20:
36,192,48088,1,0,0:0:0:20:
182,192,48088,1,0,0:0:0:20:
402,192,48088,1,0,0:0:0:20:
36,192,48270,1,0,0:0:0:20:
182,192,48270,1,2,0:0:0:40:
329,192,48270,1,0,0:0:0:20:
475,192,48270,1,0,0:0:0:20:
109,192,48452,1,0,0:0:0:20:
329,192,48452,1,0,0:0:0:20:
475,192,48452,1,0,0:0:0:20:
36,192,48634,1,0,0:0:0:20:
182,192,48634,1,2,0:0:0:20:
256,192,48634,1,0,0:0:0:20:
402,192,48725,1,0,0:0:0:20:
36,192,48815,1,0,0:0:0:20:
182,192,48815,1,0,0:0:0:20:
329,192,48815,1,0,0:0:0:20:
36,192,48997,1,0,0:0:0:20:
182,192,48997,1,2,0:0:0:20:
475,192,48997,1,0,0:0:0:20:
402,192,48997,1,0,0:0:0:20:
329,192,49179,1,0,0:0:0:20:
475,192,49179,1,0,0:0:0:20:
182,192,49179,1,0,0:0:0:20:
256,192,49179,128,0,49361:0:0:0:20:
36,192,49361,1,0,0:0:0:20:
109,192,49361,1,2,0:0:0:20:
329,192,49361,1,0,0:0:0:20:
36,192,49543,1,0,0:0:0:20:
109,192,49543,1,0,0:0:0:20:
256,192,49543,1,0,0:0:0:20:
402,192,49543,1,0,0:0:0:20:
36,192,49725,1,0,0:0:0:20:
109,192,49725,1,2,0:0:0:20:
329,192,49725,1,0,0:0:0:20:
475,192,49725,1,0,0:0:0:20:
182,192,49906,1,0,0:0:0:20:
475,192,49906,1,0,0:0:0:20:
36,192,50088,1,0,0:0:0:20:
109,192,50088,1,2,0:0:0:20:
402,192,50088,1,0,0:0:0:20:
36,192,50270,1,0,0:0:0:20:
109,192,50270,1,0,0:0:0:20:
329,192,50270,1,0,0:0:0:20:
36,192,50452,1,0,0:0:0:20:
109,192,50452,1,2,0:0:0:20:
256,192,50452,1,0,0:0:0:20:
329,192,50543,1,0,0:0:0:20:
402,192,50634,1,0,0:0:0:20:
475,192,50634,1,0,0:0:0:20:
109,192,50634,1,0,0:0:0:20:
256,192,50634,128,0,50815:0:0:0:20:
36,192,50815,1,0,0:0:0:20:
182,192,50815,1,2,0:0:0:20:
475,192,50815,1,0,0:0:0:20:
36,192,50997,1,0,0:0:0:20:
182,192,50997,1,0,0:0:0:20:
329,192,50997,1,0,0:0:0:20:
36,192,51179,1,0,0:0:0:20:
182,192,51179,1,2,0:0:0:20:
329,192,51179,1,0,0:0:0:20:
402,192,51270,1,0,0:0:0:20:
256,192,51361,128,0,51543:0:0:0:20:
475,192,51361,1,0,0:0:0:20:
36,192,51361,1,0,0:0:0:20:
109,192,51543,1,0,0:0:0:20:
182,192,51543,1,2,0:0:0:20:
329,192,51543,1,0,0:0:0:20:
109,192,51725,1,0,0:0:0:20:
402,192,51725,1,0,0:0:0:20:
475,192,51725,1,0,0:0:0:20:
182,192,51725,1,0,0:0:0:20:
109,192,51906,1,0,0:0:0:20:
182,192,51906,1,2,0:0:0:20:
256,192,51906,1,0,0:0:0:20:
329,192,51997,1,0,0:0:0:20:
36,192,52088,1,0,0:0:0:20:
109,192,52088,1,0,0:0:0:20:
402,192,52088,1,0,0:0:0:30:drums.wav
475,192,52088,1,0,0:0:0:20:
182,192,52270,1,0,0:0:0:20:
329,192,52270,1,0,0:0:0:20:
109,192,52452,1,0,0:0:0:20:
256,192,52452,1,0,0:0:0:20:
402,192,52452,1,0,0:0:0:20:
36,192,52634,1,0,0:0:0:20:
256,192,52634,1,0,0:0:0:30:drums.wav
109,192,52634,1,0,0:0:0:20:
475,192,52634,1,0,0:0:0:20:
329,192,52725,1,0,0:0:0:20:
36,192,52815,1,0,0:0:0:20:
402,192,52815,1,0,0:0:0:20:
475,192,52815,128,0,53179:0:0:0:20:
182,192,52997,1,0,0:0:0:20:
109,192,52997,1,0,0:0:0:20:
256,192,53088,1,0,0:0:0:20:
402,192,53179,1,0,0:0:0:20:
329,192,53179,1,0,0:0:0:20:
36,192,53179,128,0,53543:0:0:0:20:
329,192,53361,1,0,0:0:0:20:
109,192,53361,1,0,0:0:0:20:
182,192,53452,1,0,0:0:0:20:
256,192,53543,1,0,0:0:0:30:drums.wav
109,192,53543,1,0,0:0:0:20:
402,192,53543,1,4,0:0:0:30:
475,192,53543,1,0,0:0:0:20:
329,192,53543,1,0,0:0:0:20:
256,192,53725,1,0,0:0:0:20:
182,192,53725,1,0,0:0:0:20:
36,192,53725,1,0,0:0:0:20:
182,192,53906,1,0,0:0:0:20:
329,192,53906,1,0,0:0:0:20:
402,192,53906,1,0,0:0:0:20:
475,192,54088,1,0,0:0:0:20:
109,192,54088,1,0,0:0:0:20:
36,192,54088,1,0,0:0:0:20:
402,192,54088,1,0,0:0:0:30:drums.wav
182,192,54270,1,0,0:0:0:20:
329,192,54270,1,0,0:0:0:20:
36,192,54452,1,0,0:0:0:20:
256,192,54452,1,0,0:0:0:20:
402,192,54452,1,0,0:0:0:20:
182,192,54543,1,0,0:0:0:20:
109,192,54634,1,0,0:0:0:20:
475,192,54634,1,0,0:0:0:20:
329,192,54634,1,0,0:0:0:20:
182,192,54815,1,0,0:0:0:20:
329,192,54815,1,0,0:0:0:20:
36,192,54997,1,0,0:0:0:20:
109,192,54997,1,0,0:0:0:20:
256,192,54997,1,0,0:0:0:30:drums.wav
402,192,54997,1,0,0:0:0:20:
475,192,55088,1,0,0:0:0:20:
402,192,55179,1,0,0:0:0:20:
182,192,55179,1,0,0:0:0:20:
329,192,55270,1,0,0:0:0:20:
109,192,55270,1,0,0:0:0:20:
36,192,55361,1,0,0:0:0:20:
256,192,55361,1,0,0:0:0:20:
182,192,55452,1,0,0:0:0:20:
475,192,55543,1,0,0:0:0:20:
109,192,55543,1,0,0:0:0:20:
402,192,55543,1,0,0:0:0:20:
329,192,55543,1,0,0:0:0:30:drums.wav
256,192,55634,1,0,0:0:0:20:
36,192,55634,1,0,0:0:0:20:
182,192,55725,1,0,0:0:0:20:
475,192,55725,1,0,0:0:0:20:
402,192,55815,1,0,0:0:0:20:
182,192,55906,1,0,0:0:0:20:
329,192,55906,1,0,0:0:0:20:
109,192,55997,1,0,0:0:0:20:
36,192,56088,1,0,0:0:0:20:
256,192,56088,1,0,0:0:0:20:
402,192,56088,1,0,0:0:0:20:
182,192,56179,1,0,0:0:0:20:
109,192,56270,1,0,0:0:0:20:
329,192,56270,1,0,0:0:0:20:
402,192,56361,1,0,0:0:0:20:
182,192,56361,1,0,0:0:0:20:
256,192,56452,1,0,0:0:0:30:drums.wav
36,192,56452,1,0,0:0:0:20:
475,192,56452,1,0,0:0:0:20:
109,192,56452,1,0,0:0:0:20:
329,192,56452,1,4,0:0:0:30:
36,192,56634,1,0,0:0:0:20:
182,192,56634,1,0,0:0:0:20:
475,192,56634,1,0,0:0:0:20:
402,192,56725,1,0,0:0:0:20:
109,192,56815,1,0,0:0:0:20:
182,192,56815,1,0,0:0:0:20:
329,192,56815,1,0,0:0:0:20:
36,192,56997,1,0,0:0:0:20:
256,192,56997,1,0,0:0:0:30:crash.wav
402,192,56997,1,0,0:0:0:20:
475,192,56997,1,0,0:0:0:20:
109,192,56997,1,0,0:0:0:20:
182,192,57179,1,0,0:0:0:20:
329,192,57179,1,0,0:0:0:20:
109,192,57361,1,0,0:0:0:20:
256,192,57361,1,0,0:0:0:20:
402,192,57361,1,0,0:0:0:20:
182,192,57543,1,0,0:0:0:20:
329,192,57543,1,0,0:0:0:20:
475,192,57543,1,0,0:0:0:20:
402,192,57725,1,0,0:0:0:20:
256,192,57725,1,0,0:0:0:20:
109,192,57725,1,0,0:0:0:20:
36,192,57906,1,0,0:0:0:20:
182,192,57906,1,0,0:0:0:30:drums.wav
402,192,57906,1,0,0:0:0:20:
475,192,57906,1,0,0:0:0:20:
256,192,57997,1,0,0:0:0:20:
36,192,58088,1,0,0:0:0:20:
329,192,58088,1,0,0:0:0:20:
402,192,58179,1,0,0:0:0:20:
109,192,58179,1,0,0:0:0:20:
475,192,58270,1,0,0:0:0:20:
182,192,58270,1,0,0:0:0:20:
256,192,58270,1,0,0:0:0:20:
475,192,58452,1,0,0:0:0:20:
36,192,58452,1,0,0:0:0:20:
256,192,58452,1,0,0:0:0:30:drums.wav
109,192,58452,1,0,0:0:0:20:
182,192,58543,1,0,0:0:0:20:
329,192,58543,1,0,0:0:0:20:
475,192,58634,1,0,0:0:0:20:
402,192,58634,1,0,0:0:0:20:
36,192,58725,1,0,0:0:0:20:
109,192,58815,1,0,0:0:0:20:
475,192,58815,1,0,0:0:0:20:
402,192,58906,1,0,0:0:0:20:
182,192,58906,1,0,0:0:0:20:
329,192,58997,1,0,0:0:0:20:
109,192,58997,1,0,0:0:0:20:
36,192,59088,1,0,0:0:0:20:
256,192,59088,1,0,0:0:0:20:
109,192,59179,1,0,0:0:0:20:
329,192,59179,1,0,0:0:0:20:
182,192,59270,1,0,0:0:0:20:
402,192,59270,1,0,0:0:0:20:
329,192,59361,1,4,0:0:0:30:
256,192,59361,1,0,0:0:0:30:drums.wav
475,192,59361,1,0,0:0:0:20:
109,192,59361,1,0,0:0:0:20:
36,192,59361,1,0,0:0:0:20:
402,192,59452,1,0,0:0:0:20:
329,192,59543,1,0,0:0:0:20:
36,192,59543,1,0,0:0:0:20:
109,192,59634,1,0,0:0:0:20:
402,192,59634,1,0,0:0:0:20:
182,192,59725,1,0,0:0:0:20:
475,192,59725,1,0,0:0:0:20:
256,192,59725,1,0,0:0:0:20:
402,192,59906,1,0,0:0:0:20:
36,192,59906,1,0,0:0:0:20:
475,192,59906,1,0,0:0:0:20:
182,192,59906,1,0,0:0:0:30:drums.wav
329,192,59997,1,0,0:0:0:20:
402,192,60088,1,0,0:0:0:20:
109,192,60088,1,0,0:0:0:20:
182,192,60179,1,0,0:0:0:20:
256,192,60270,1,0,0:0:0:20:
402,192,60270,1,0,0:0:0:20:
329,192,60361,1,0,0:0:0:20:
475,192,60452,1,0,0:0:0:20:
36,192,60452,1,0,0:0:0:20:
109,192,60543,1,0,0:0:0:20:
402,192,60543,1,0,0:0:0:20:
182,192,60634,1,0,0:0:0:20:
329,192,60634,1,0,0:0:0:20:
256,192,60725,1,0,0:0:0:20:
109,192,60815,1,0,0:0:0:20:
182,192,60815,1,0,0:0:0:30:drums.wav
329,192,60815,1,4,0:0:0:30:
402,192,60815,1,0,0:0:0:20:
475,192,60815,1,0,0:0:0:20:
36,192,60815,1,0,0:0:0:20:
36,192,61088,1,0,0:0:0:20:
329,192,61088,1,0,0:0:0:20:
109,192,61134,1,0,0:0:0:20:
402,192,61134,1,0,0:0:0:20:
182,192,61179,1,0,0:0:0:20:
475,192,61179,1,0,0:0:0:20:
256,192,61179,1,0,0:0:0:20:
329,192,61300,1,0,0:0:0:20:
402,192,61300,1,0,0:0:0:20:
475,192,61300,1,0,0:0:0:20:
329,192,61421,1,0,0:0:0:20:
402,192,61421,1,0,0:0:0:20:
475,192,61421,1,0,0:0:0:20:
182,192,61543,1,0,0:0:0:20:
109,192,61543,1,0,0:0:0:20:
329,192,61543,1,0,0:0:0:20:
402,192,61543,128,0,61906:0:0:0:20:
36,192,61664,1,0,0:0:0:20:
109,192,61664,1,0,0:0:0:20:
182,192,61664,1,0,0:0:0:20:
36,192,61785,1,0,0:0:0:20:
109,192,61785,1,0,0:0:0:20:
182,192,61785,1,0,0:0:0:20:
36,192,61906,1,0,0:0:0:20:
109,192,61906,1,0,0:0:0:20:
182,192,61906,1,0,0:0:0:30:drums.wav
329,192,61906,1,4,0:0:0:30:
475,192,61906,1,0,0:0:0:20:
256,192,61906,1,0,0:0:0:20:
182,192,62179,1,0,0:0:0:20:
475,192,62179,1,0,0:0:0:20:
109,192,62225,1,0,0:0:0:20:
402,192,62225,1,0,0:0:0:20:
36,192,62270,1,0,0:0:0:20:
329,192,62270,1,0,0:0:0:20:
256,192,62270,1,0,0:0:0:20:
329,192,62391,1,0,0:0:0:20:
402,192,62391,1,0,0:0:0:20:
475,192,62391,1,0,0:0:0:20:
329,192,62512,1,0,0:0:0:20:
402,192,62512,1,0,0:0:0:20:
475,192,62512,1,0,0:0:0:20:
182,192,62634,1,0,0:0:0:20:
329,192,62634,1,0,0:0:0:20:
109,192,62634,1,0,0:0:0:0:
475,192,62634,128,0,62997:0:0:0:20:
109,192,62755,1,0,0:0:0:20:
182,192,62755,1,0,0:0:0:20:
36,192,62755,1,0,0:0:0:20:
402,192,62815,1,0,0:0:0:20:
36,192,62876,1,0,0:0:0:20:
109,192,62876,1,0,0:0:0:20:
182,192,62876,1,0,0:0:0:20:
329,192,62906,1,0,0:0:0:20:
182,192,62997,1,0,0:0:0:30:drums.wav
109,192,62997,1,0,0:0:0:20:
36,192,62997,1,0,0:0:0:20:
256,192,62997,1,0,0:0:0:20:
402,192,62997,1,0,0:0:0:20:
36,192,63179,1,0,0:0:0:20:
36,192,63361,1,0,0:0:0:20:
475,192,63543,1,0,0:0:0:20:
36,192,63725,1,0,0:0:0:20:
109,192,63725,1,0,0:0:0:20:
182,192,63725,1,0,0:0:0:30:drums.wav
329,192,63725,1,4,0:0:0:30:
402,192,63725,1,0,0:0:0:20:
475,192,63725,1,0,0:0:0:20:
256,192,63815,1,0,0:0:0:20:
329,192,63906,1,0,0:0:0:20:
36,192,63906,1,0,0:0:0:20:
402,192,63997,1,0,0:0:0:20:
109,192,63997,1,0,0:0:0:20:
475,192,64088,1,0,0:0:0:20:
182,192,64088,1,0,0:0:0:20:
256,192,64088,1,0,0:0:0:20:
36,192,64270,1,0,0:0:0:20:
109,192,64270,1,0,0:0:0:20:
256,192,64270,1,0,0:0:0:30:drums.wav
475,192,64270,1,0,0:0:0:20:
329,192,64361,1,0,0:0:0:20:
402,192,64452,1,0,0:0:0:20:
182,192,64452,1,0,0:0:0:20:
475,192,64452,1,0,0:0:0:20:
109,192,64543,1,0,0:0:0:20:
36,192,64634,1,0,0:0:0:20:
329,192,64634,1,0,0:0:0:20:
402,192,64634,1,0,0:0:0:20:
109,192,64725,1,0,0:0:0:20:
475,192,64725,1,0,0:0:0:20:
182,192,64815,1,0,0:0:0:20:
329,192,64815,1,0,0:0:0:20:
402,192,64815,1,0,0:0:0:20:
109,192,64906,1,0,0:0:0:20:
36,192,64997,1,0,0:0:0:20:
329,192,64997,1,0,0:0:0:20:
475,192,64997,1,0,0:0:0:20:
109,192,65088,1,0,0:0:0:20:
475,192,65179,1,0,0:0:0:20:
182,192,65179,1,0,0:0:0:20:
256,192,65179,1,0,0:0:0:30:drums.wav
402,192,65179,1,0,0:0:0:20:
329,192,65270,1,0,0:0:0:20:
109,192,65361,1,0,0:0:0:20:
402,192,65452,1,0,0:0:0:20:
475,192,65543,1,0,0:0:0:20:
36,192,65543,1,0,0:0:0:20:
256,192,65543,1,0,0:0:0:20:
109,192,65725,1,0,0:0:0:20:
402,192,65725,1,0,0:0:0:30:drums.wav
475,192,65725,1,0,0:0:0:20:
182,192,65725,1,0,0:0:0:20:
256,192,65815,1,0,0:0:0:20:
329,192,65906,1,0,0:0:0:20:
36,192,65906,1,0,0:0:0:20:
109,192,65997,1,0,0:0:0:20:
475,192,66088,1,0,0:0:0:20:
329,192,66088,1,0,0:0:0:20:
182,192,66088,1,0,0:0:0:20:
36,192,66179,1,0,0:0:0:20:
182,192,66270,1,0,0:0:0:20:
475,192,66270,1,0,0:0:0:20:
329,192,66270,1,0,0:0:0:20:
109,192,66361,1,0,0:0:0:20:
402,192,66452,1,0,0:0:0:20:
475,192,66452,1,0,0:0:0:20:
36,192,66452,1,0,0:0:0:20:
329,192,66543,1,0,0:0:0:20:
182,192,66634,1,0,0:0:0:30:drums.wav
109,192,66634,1,0,0:0:0:20:
402,192,66634,1,0,0:0:0:20:
475,192,66634,1,0,0:0:0:20:
256,192,66725,1,0,0:0:0:20:
329,192,66815,1,0,0:0:0:20:
36,192,66815,1,0,0:0:0:20:
402,192,66906,1,0,0:0:0:20:
109,192,66906,1,0,0:0:0:20:
329,192,66997,1,0,0:0:0:20:
475,192,66997,1,0,0:0:0:20:
182,192,66997,1,0,0:0:0:20:
256,192,67179,1,0,0:0:0:20:
402,192,67179,1,0,0:0:0:20:
109,192,67179,1,0,0:0:0:30:crash.wav
36,192,67179,1,0,0:0:0:20:
475,192,67179,1,0,0:0:0:20:
182,192,67270,1,0,0:0:0:20:
329,192,67270,1,0,0:0:0:0:
109,192,67361,1,0,0:0:0:20:
475,192,67361,1,0,0:0:0:20:
402,192,67361,1,0,0:0:0:20:
329,192,67452,1,0,0:0:0:20:
36,192,67543,1,0,0:0:0:20:
182,192,67543,1,0,0:0:0:20:
256,192,67543,1,0,0:0:0:20:
402,192,67634,1,0,0:0:0:20:
475,192,67634,1,0,0:0:0:20:
109,192,67725,1,0,0:0:0:20:
182,192,67725,1,0,0:0:0:20:
329,192,67725,1,0,0:0:0:20:
36,192,67815,1,0,0:0:0:20:
182,192,67906,1,0,0:0:0:20:
256,192,67906,1,0,0:0:0:20:
475,192,67906,1,0,0:0:0:20:
329,192,67997,1,0,0:0:0:20:
475,192,68088,1,0,0:0:0:20:
402,192,68088,1,0,0:0:0:30:drums.wav
109,192,68088,1,0,0:0:0:20:
36,192,68088,1,0,0:0:0:20:
182,192,68179,1,0,0:0:0:20:
256,192,68270,1,0,0:0:0:20:
36,192,68270,1,0,0:0:0:20:
329,192,68361,1,0,0:0:0:20:
109,192,68361,1,0,0:0:0:20:
402,192,68452,1,0,0:0:0:20:
475,192,68452,1,0,0:0:0:20:
182,192,68452,1,0,0:0:0:20:
109,192,68634,1,0,0:0:0:20:
36,192,68634,1,0,0:0:0:20:
329,192,68634,1,0,0:0:0:30:drums.wav
475,192,68634,1,0,0:0:0:20:
182,192,68725,1,0,0:0:0:20:
402,192,68725,1,0,0:0:0:20:
475,192,68815,1,0,0:0:0:20:
256,192,68815,1,0,0:0:0:20:
36,192,68906,1,0,0:0:0:20:
329,192,68906,1,0,0:0:0:20:
402,192,68997,1,0,0:0:0:20:
109,192,68997,1,0,0:0:0:20:
182,192,69088,1,0,0:0:0:20:
329,192,69088,1,0,0:0:0:20:
256,192,69179,1,0,0:0:0:20:
109,192,69179,1,0,0:0:0:20:
475,192,69179,1,0,0:0:0:20:
329,192,69270,1,0,0:0:0:20:
36,192,69270,1,0,0:0:0:20:
402,192,69361,1,0,0:0:0:20:
109,192,69361,1,0,0:0:0:20:
182,192,69452,1,0,0:0:0:20:
329,192,69452,1,0,0:0:0:20:
36,192,69543,1,0,0:0:0:20:
109,192,69543,1,0,0:0:0:20:
402,192,69543,1,4,0:0:0:30:
475,192,69543,1,0,0:0:0:20:
256,192,69543,1,0,0:0:0:30:drums.wav
182,192,69634,1,0,0:0:0:20:
329,192,69725,1,0,0:0:0:20:
109,192,69725,1,0,0:0:0:20:
182,192,69815,1,0,0:0:0:20:
402,192,69815,1,0,0:0:0:20:
475,192,69906,1,0,0:0:0:20:
256,192,69906,1,0,0:0:0:20:
36,192,69906,1,0,0:0:0:20:
329,192,69997,1,0,0:0:0:20:
109,192,70088,1,0,0:0:0:20:
182,192,70088,1,0,0:0:0:30:drums.wav
402,192,70088,1,0,0:0:0:20:
256,192,70179,1,0,0:0:0:20:
36,192,70270,1,0,0:0:0:20:
475,192,70270,1,0,0:0:0:20:
329,192,70270,1,0,0:0:0:20:
329,192,70452,1,0,0:0:0:20:
36,192,70452,1,0,0:0:0:20:
182,192,70452,1,0,0:0:0:20:
256,192,70634,1,0,0:0:0:20:
402,192,70634,1,0,0:0:0:20:
475,192,70634,1,0,0:0:0:20:
109,192,70634,1,0,0:0:0:20:
182,192,70815,1,0,0:0:0:20:
329,192,70815,1,0,0:0:0:20:
109,192,70815,1,0,0:0:0:20:
402,192,70997,1,0,0:0:0:20:
109,192,70997,1,0,0:0:0:20:
329,192,70997,1,0,0:0:0:30:drums.wav
475,192,70997,1,0,0:0:0:20:
182,192,71088,1,0,0:0:0:20:
256,192,71179,1,0,0:0:0:20:
36,192,71179,1,0,0:0:0:20:
329,192,71270,1,0,0:0:0:20:
109,192,71270,1,0,0:0:0:20:
402,192,71361,1,0,0:0:0:20:
475,192,71361,1,0,0:0:0:20:
182,192,71361,1,0,0:0:0:20:
256,192,71452,1,0,0:0:0:20:
109,192,71543,1,0,0:0:0:20:
36,192,71543,1,0,0:0:0:20:
329,192,71543,1,0,0:0:0:30:drums.wav
475,192,71543,1,0,0:0:0:20:
182,192,71634,1,0,0:0:0:20:
256,192,71679,1,0,0:0:0:20:
329,192,71725,1,0,0:0:0:20:
402,192,71725,1,0,0:0:0:20:
475,192,71725,1,0,0:0:0:20:
36,192,71725,1,0,0:0:0:20:
109,192,71815,1,0,0:0:0:20:
182,192,71906,1,0,0:0:0:20:
402,192,71997,1,0,0:0:0:20:
329,192,71997,1,0,0:0:0:20:
256,192,71997,1,0,0:0:0:20:
36,192,72088,1,0,0:0:0:20:
109,192,72179,1,0,0:0:0:20:
256,192,72270,1,0,0:0:0:20:
182,192,72270,1,0,0:0:0:20:
329,192,72270,1,0,0:0:0:20:
475,192,72361,1,0,0:0:0:20:
36,192,72452,1,0,0:0:0:20:
182,192,72452,1,0,0:0:0:20:
402,192,72452,1,0,0:0:0:30:drums.wav
109,192,72452,1,0,0:0:0:20:
329,192,72543,1,0,0:0:0:20:
256,192,72634,1,0,0:0:0:20:
475,192,72725,1,0,0:0:0:20:
182,192,72725,1,0,0:0:0:20:
109,192,72815,1,0,0:0:0:20:
329,192,72815,1,0,0:0:0:20:
402,192,72815,1,0,0:0:0:20:
256,192,72906,1,0,0:0:0:20:
109,192,72997,1,0,0:0:0:20:
36,192,72997,1,0,0:0:0:20:
475,192,72997,1,0,0:0:0:20:
402,192,72997,1,0,0:0:0:30:crash.wav
182,192,72997,1,0,0:0:0:20:
256,192,73088,1,0,0:0:0:20:
329,192,73134,1,0,0:0:0:20:
402,192,73179,1,0,0:0:0:20:
109,192,73179,1,0,0:0:0:20:
475,192,73179,1,0,0:0:0:20:
36,192,73179,1,0,0:0:0:20:
182,192,73270,1,0,0:0:0:20:
256,192,73361,1,0,0:0:0:20:
329,192,73452,1,0,0:0:0:20:
402,192,73452,1,0,0:0:0:20:
475,192,73452,1,0,0:0:0:20:
109,192,73543,1,0,0:0:0:20:
36,192,73543,1,0,0:0:0:20:
475,192,73634,1,0,0:0:0:20:
402,192,73634,1,0,0:0:0:20:
182,192,73725,1,0,0:0:0:20:
329,192,73725,1,0,0:0:0:20:
36,192,73725,1,0,0:0:0:20:
256,192,73906,1,0,0:0:0:30:drums.wav
36,192,73906,128,0,74725:0:0:0:20:
109,192,73906,128,0,73997:0:0:0:20:
402,192,73906,1,4,0:0:0:30:
475,192,73906,1,0,0:0:0:20:
182,192,73997,128,0,74088:0:0:0:20:
329,192,73997,1,0,0:0:0:20:
256,192,74088,128,0,74179:0:0:0:20:
402,192,74088,1,0,0:0:0:20:
109,192,74179,128,0,74725:0:0:0:20:
329,192,74179,128,0,74270:0:0:0:20:
475,192,74179,1,0,0:0:0:20:
256,192,74270,1,0,0:0:0:20:
402,192,74270,128,0,74361:0:0:0:20:
329,192,74361,1,0,0:0:0:20:
475,192,74361,128,0,74452:0:0:0:20:
182,192,74452,128,0,74725:0:0:0:20:
402,192,74452,1,0,0:0:0:20:
475,192,74543,1,0,0:0:0:20:
256,192,74634,128,0,74725:0:0:0:20:
329,192,74634,128,0,74725:0:0:0:20:
402,192,74634,128,0,74725:0:0:0:20:
475,192,74815,1,0,0:0:0:20:
36,192,74997,1,0,0:0:0:20:
475,192,74997,1,0,0:0:0:30:
402,192,75043,1,0,0:0:0:30:
329,192,75088,1,0,0:0:0:30:
256,192,75134,1,0,0:0:0:30:
182,192,75179,1,0,0:0:0:30:
36,192,75179,1,0,0:0:0:20:
329,192,75270,1,0,0:0:0:20:
402,192,75361,1,0,0:0:0:20:
475,192,75361,1,0,0:0:0:20:
182,192,75361,1,4,0:0:0:30:
36,192,75361,1,0,0:0:0:20:
256,192,75361,1,0,0:0:0:30:drums.wav
109,192,75361,1,0,0:0:0:20:
329,192,75452,1,0,0:0:0:20:
256,192,75543,1,0,0:0:0:20:
182,192,75634,1,0,0:0:0:20:
36,192,75634,1,0,0:0:0:20:
109,192,75725,1,0,0:0:0:20:
402,192,75725,1,0,0:0:0:20:
475,192,75725,1,0,0:0:0:20:
182,192,75815,1,0,0:0:0:20:
36,192,75906,1,0,0:0:0:20:
329,192,75906,1,0,0:0:0:20:
475,192,75906,1,0,0:0:0:20:
256,192,75906,1,0,0:0:0:30:drums.wav
109,192,75997,1,0,0:0:0:20:
475,192,76088,1,0,0:0:0:20:
182,192,76088,1,0,0:0:0:20:
329,192,76088,1,0,0:0:0:20:
256,192,76179,1,0,0:0:0:20:
329,192,76270,1,0,0:0:0:20:
109,192,76270,1,0,0:0:0:20:
402,192,76270,1,0,0:0:0:20:
182,192,76361,1,0,0:0:0:20:
475,192,76361,1,0,0:0:0:20:
256,192,76452,1,0,0:0:0:20:
402,192,76452,1,0,0:0:0:20:
36,192,76452,1,0,0:0:0:20:
109,192,76543,1,0,0:0:0:20:
182,192,76634,1,0,0:0:0:20:
402,192,76634,1,0,0:0:0:20:
329,192,76634,1,0,0:0:0:20:
256,192,76725,1,0,0:0:0:20:
36,192,76815,1,0,0:0:0:20:
109,192,76815,1,0,0:0:0:20:
329,192,76815,1,0,0:0:0:30:drums.wav
475,192,76815,1,0,0:0:0:20:
182,192,76906,1,0,0:0:0:20:
256,192,76997,1,0,0:0:0:20:
36,192,76997,1,0,0:0:0:20:
109,192,77088,1,0,0:0:0:20:
329,192,77088,1,0,0:0:0:20:
182,192,77179,1,0,0:0:0:20:
475,192,77179,1,0,0:0:0:20:
402,192,77179,1,0,0:0:0:20:
475,192,77361,1,0,0:0:0:20:
36,192,77361,1,0,0:0:0:20:
109,192,77361,1,0,0:0:0:20:
329,192,77361,1,0,0:0:0:30:drums.wav
182,192,77452,1,0,0:0:0:20:
402,192,77543,1,0,0:0:0:20:
256,192,77543,1,0,0:0:0:20:
36,192,77634,1,0,0:0:0:20:
256,192,77725,1,0,0:0:0:20:
109,192,77725,1,0,0:0:0:20:
475,192,77725,1,0,0:0:0:20:
329,192,77815,1,0,0:0:0:20:
182,192,77906,1,0,0:0:0:20:
36,192,77906,1,0,0:0:0:20:
402,192,77906,1,0,0:0:0:20:
256,192,77997,1,0,0:0:0:20:
475,192,78088,1,0,0:0:0:20:
329,192,78088,1,0,0:0:0:20:
109,192,78088,1,0,0:0:0:20:
256,192,78179,1,0,0:0:0:20:
182,192,78270,1,0,0:0:0:30:drums.wav
36,192,78270,1,0,0:0:0:20:
402,192,78270,1,0,0:0:0:20:
475,192,78270,1,0,0:0:0:20:
256,192,78361,1,0,0:0:0:20:
329,192,78452,1,0,0:0:0:20:
36,192,78452,1,0,0:0:0:20:
109,192,78543,1,0,0:0:0:20:
402,192,78543,1,0,0:0:0:20:
182,192,78634,1,0,0:0:0:20:
475,192,78634,1,0,0:0:0:20:
256,192,78634,1,0,0:0:0:20:
402,192,78815,1,0,0:0:0:30:crash.wav
475,192,78815,1,0,0:0:0:20:
36,192,78815,1,0,0:0:0:20:
109,192,78815,1,0,0:0:0:20:
182,192,78815,1,0,0:0:0:20:
329,192,78906,1,0,0:0:0:20:
109,192,78997,1,0,0:0:0:20:
36,192,78997,1,0,0:0:0:20:
256,192,78997,1,0,0:0:0:20:
182,192,79088,1,0,0:0:0:20:
475,192,79179,1,0,0:0:0:20:
256,192,79179,1,0,0:0:0:20:
402,192,79179,1,0,0:0:0:20:
182,192,79270,1,0,0:0:0:20:
329,192,79270,1,0,0:0:0:20:
109,192,79361,1,0,0:0:0:20:
36,192,79361,1,0,0:0:0:20:
402,192,79361,1,0,0:0:0:20:
475,192,79361,1,0,0:0:0:20:
256,192,79452,1,0,0:0:0:20:
402,192,79543,1,0,0:0:0:20:
109,192,79543,1,0,0:0:0:20:
329,192,79543,1,0,0:0:0:20:
182,192,79543,1,0,0:0:0:20:
256,192,79634,1,0,0:0:0:20:
36,192,79725,1,0,0:0:0:20:
109,192,79725,1,0,0:0:0:20:
329,192,79725,1,0,0:0:0:30:drums.wav
475,192,79725,1,0,0:0:0:20:
182,192,79815,1,0,0:0:0:20:
256,192,79906,1,0,0:0:0:20:
36,192,79906,1,0,0:0:0:20:
109,192,79997,1,0,0:0:0:20:
329,192,79997,1,0,0:0:0:20:
182,192,80088,1,0,0:0:0:20:
402,192,80088,1,0,0:0:0:20:
475,192,80088,1,0,0:0:0:20:
402,192,80270,1,0,0:0:0:30:drums.wav
329,192,80270,1,0,0:0:0:20:
109,192,80270,1,0,0:0:0:20:
36,192,80270,1,0,0:0:0:20:
182,192,80361,1,0,0:0:0:20:
256,192,80452,1,0,0:0:0:20:
475,192,80452,1,0,0:0:0:20:
182,192,80543,1,0,0:0:0:20:
402,192,80543,1,0,0:0:0:20:
109,192,80634,1,0,0:0:0:20:
329,192,80634,1,0,0:0:0:20:
475,192,80634,1,0,0:0:0:20:
36,192,80725,1,0,0:0:0:20:
256,192,80725,1,0,0:0:0:20:
182,192,80815,1,0,0:0:0:20:
109,192,80815,1,0,0:0:0:20:
475,192,80815,1,0,0:0:0:20:
402,192,80906,1,0,0:0:0:20:
329,192,80997,1,0,0:0:0:20:
36,192,80997,1,0,0:0:0:20:
109,192,80997,1,0,0:0:0:20:
256,192,81088,1,0,0:0:0:20:
475,192,81088,1,0,0:0:0:20:
109,192,81179,1,0,0:0:0:20:
36,192,81179,1,0,0:0:0:20:
182,192,81179,1,0,0:0:0:30:drums.wav
402,192,81179,1,4,0:0:0:30:
329,192,81179,1,0,0:0:0:20:
256,192,81270,1,0,0:0:0:20:
36,192,81361,1,0,0:0:0:20:
109,192,81452,1,0,0:0:0:20:
475,192,81543,1,0,0:0:0:20:
182,192,81543,1,0,0:0:0:20:
329,192,81543,1,0,0:0:0:20:
36,192,81725,1,0,0:0:0:20:
475,192,81725,1,0,0:0:0:20:
109,192,81725,1,0,0:0:0:20:
329,192,81725,1,0,0:0:0:30:drums.wav
182,192,81815,1,0,0:0:0:20:
256,192,81906,1,0,0:0:0:20:
329,192,81906,1,0,0:0:0:20:
402,192,81906,1,0,0:0:0:20:
256,192,82088,1,0,0:0:0:20:
475,192,82088,1,0,0:0:0:20:
402,192,82179,1,0,0:0:0:20:
182,192,82179,1,0,0:0:0:20:
36,192,82270,1,0,0:0:0:20:
109,192,82270,1,0,0:0:0:20:
329,192,82270,1,0,0:0:0:20:
402,192,82452,1,0,0:0:0:20:
182,192,82452,1,0,0:0:0:20:
109,192,82543,1,0,0:0:0:20:
329,192,82543,1,0,0:0:0:20:
182,192,82634,1,4,0:0:0:30:
256,192,82634,1,0,0:0:0:30:drums.wav
36,192,82634,1,0,0:0:0:20:
402,192,82634,1,0,0:0:0:20:
475,192,82634,1,0,0:0:0:20:
182,192,82815,1,0,0:0:0:20:
329,192,82815,1,0,0:0:0:20:
36,192,82997,1,0,0:0:0:20:
109,192,82997,1,0,0:0:0:20:
256,192,82997,1,0,0:0:0:30:drums.wav
402,192,82997,1,4,0:0:0:30:
475,192,82997,1,0,0:0:0:20:
182,192,83179,1,0,0:0:0:20:
329,192,83179,1,0,0:0:0:20:
475,192,83361,1,0,0:0:0:20:
402,192,83361,1,4,0:0:0:30:
329,192,83361,1,0,0:0:0:20:
109,192,83361,1,0,0:0:0:20:
36,192,83361,1,0,0:0:0:20:
182,192,83361,1,0,0:0:0:30:drums.wav
256,192,83543,1,0,0:0:0:20:
329,192,83725,1,0,0:0:0:20:
36,192,83725,1,0,0:0:0:20:
109,192,83906,1,0,0:0:0:20:
402,192,83906,1,0,0:0:0:20:
36,192,84088,128,0,84452:0:0:0:20:
109,192,84088,128,0,84452:0:0:0:20:
256,192,84088,128,0,84452:0:0:0:30:drums.wav
402,192,84088,128,4,84452:0:0:0:30:
475,192,84088,128,0,84452:0:0:0:20:
109,192,84634,1,0,0:0:0:20:
329,192,84725,1,0,0:0:0:20:
36,192,84815,128,0,85179:0:0:0:20:
109,192,84815,128,0,85179:0:0:0:20:
402,192,84815,128,4,85179:0:0:0:30:
182,192,84815,128,0,85179:0:0:0:30:drums.wav
475,192,84815,128,0,85179:0:0:0:20:
36,192,85361,1,0,0:0:0:20:
182,192,85452,1,0,0:0:0:20:
256,192,85543,128,0,85906:0:0:0:30:drums.wav
402,192,85543,128,4,85906:0:0:0:30:
475,192,85543,128,0,85906:0:0:0:20:
36,192,85543,128,0,86270:0:0:0:20:
109,192,85543,128,0,86270:0:0:0:20:
182,192,85906,128,0,86270:0:0:0:20:
36,192,86906,1,0,0:0:0:20:
109,192,86952,1,0,0:0:0:20:
182,192,86997,1,0,0:0:0:20:
256,192,86997,1,0,0:0:0:30:drums.wav
402,192,86997,1,0,0:0:0:20:
329,192,86997,1,4,0:0:0:30:
475,192,86997,128,0,87179:0:0:0:20:
109,192,87361,1,0,0:0:0:20:
256,192,87361,1,0,0:0:0:20:
402,192,87361,128,0,87543:0:0:0:20:
36,192,87725,1,0,0:0:0:20:
182,192,87725,1,0,0:0:0:20:
329,192,87725,1,0,0:0:0:20:
475,192,87725,1,0,0:0:0:20:
256,192,87906,1,0,0:0:0:20:
256,192,88270,1,0,0:0:0:20:
36,192,88361,1,0,0:0:0:20:
109,192,88406,1,0,0:0:0:20:
182,192,88452,1,0,0:0:0:20:
329,192,88452,1,0,0:0:0:20:
256,192,88452,1,0,0:0:0:20:
475,192,88452,128,0,88634:0:0:0:20:
36,192,88815,1,0,0:0:0:20:
182,192,88815,1,0,0:0:0:20:
402,192,88815,128,0,88997:0:0:0:20:
475,192,89179,1,0,0:0:0:20:
329,192,89179,1,0,0:0:0:20:
109,192,89179,1,0,0:0:0:20:
36,192,89179,1,0,0:0:0:20:
256,192,89361,1,0,0:0:0:20:
256,192,89725,1,0,0:0:0:20:
109,192,89815,1,0,0:0:0:20:
182,192,89861,1,0,0:0:0:20:
329,192,89906,1,0,0:0:0:20:
256,192,89906,1,0,0:0:0:20:
475,192,89906,128,0,90088:0:0:0:20:
109,192,90270,1,0,0:0:0:20:
256,192,90270,1,0,0:0:0:20:
402,192,90270,128,0,90452:0:0:0:20:
36,192,90634,1,0,0:0:0:20:
182,192,90634,1,0,0:0:0:20:
329,192,90634,1,0,0:0:0:20:
329,192,90815,1,0,0:0:0:20:
475,192,90815,1,0,0:0:0:20:
109,192,90815,128,0,91179:0:0:0:20:
36,192,91179,1,0,0:0:0:20:
402,192,91179,1,0,0:0:0:20:
182,192,91270,1,0,0:0:0:20:
256,192,91315,1,0,0:0:0:20:
329,192,91361,1,0,0:0:0:20:
109,192,91361,1,0,0:0:0:20:
475,192,91361,128,0,91543:0:0:0:20:
256,192,91725,1,0,0:0:0:20:
36,192,91725,1,0,0:0:0:20:
402,192,91725,128,0,91906:0:0:0:20:
329,192,92088,1,0,0:0:0:20:
182,192,92088,1,0,0:0:0:20:
36,192,92088,1,0,0:0:0:20:
36,192,92725,1,0,0:0:0:20:
109,192,92770,1,0,0:0:0:20:
182,192,92815,1,0,0:0:0:20:
256,192,92815,1,0,0:0:0:30:drums.wav
329,192,92815,1,4,0:0:0:30:
402,192,92815,1,0,0:0:0:20:
475,192,92815,128,0,92997:0:0:0:20:
256,192,93179,1,0,0:0:0:20:
109,192,93179,1,0,0:0:0:20:
402,192,93179,128,0,93361:0:0:0:20:
36,192,93543,1,0,0:0:0:20:
182,192,93543,1,0,0:0:0:20:
402,192,93543,1,0,0:0:0:20:
475,192,93543,1,0,0:0:0:20:
256,192,93725,1,0,0:0:0:20:
256,192,94088,1,0,0:0:0:20:
36,192,94179,1,0,0:0:0:20:
109,192,94225,1,0,0:0:0:20:
182,192,94270,1,0,0:0:0:20:
329,192,94270,1,0,0:0:0:20:
475,192,94270,128,0,94452:0:0:0:20:
182,192,94634,1,0,0:0:0:20:
36,192,94634,1,0,0:0:0:20:
402,192,94634,128,0,94815:0:0:0:20:
36,192,94997,1,0,0:0:0:20:
182,192,94997,1,0,0:0:0:20:
329,192,94997,1,0,0:0:0:20:
475,192,94997,1,0,0:0:0:20:
256,192,95179,1,0,0:0:0:20:
256,192,95543,1,0,0:0:0:20:
109,192,95634,1,0,0:0:0:20:
182,192,95679,1,0,0:0:0:20:
256,192,95725,1,0,0:0:0:20:
329,192,95725,128,0,95906:0:0:0:20:
36,192,95725,1,0,0:0:0:20:
256,192,96088,1,0,0:0:0:20:
109,192,96088,1,0,0:0:0:20:
402,192,96088,128,0,96270:0:0:0:20:
182,192,96452,1,0,0:0:0:20:
329,192,96452,1,0,0:0:0:20:
475,192,96452,128,0,96634:0:0:0:20:
109,192,96634,1,0,0:0:0:20:
36,192,96634,1,0,0:0:0:20:
36,192,96997,1,0,0:0:0:20:
109,192,97088,1,0,0:0:0:20:
182,192,97134,1,0,0:0:0:20:
256,192,97179,1,0,0:0:0:30:drums.wav
329,192,97179,1,4,0:0:0:30:
402,192,97179,1,0,0:0:0:20:
36,192,97179,128,0,97543:0:0:0:20:
475,192,97179,128,0,97543:0:0:0:20:
329,192,97543,1,0,0:0:0:20:
182,192,97543,1,0,0:0:0:20:
182,192,97906,1,0,0:0:0:20:
256,192,97906,1,0,0:0:0:30:drums.wav
329,192,97906,1,4,0:0:0:30:
109,192,97906,128,0,98270:0:0:0:20:
402,192,97906,128,0,98270:0:0:0:20:
256,192,98088,1,0,0:0:0:20:
182,192,98270,1,0,0:0:0:20:
329,192,98270,1,0,0:0:0:20:
109,192,98452,1,0,0:0:0:20:
402,192,98452,1,0,0:0:0:20:
36,192,98543,1,0,0:0:0:20:
475,192,98543,1,0,0:0:0:20:
109,192,98634,1,0,0:0:0:20:
182,192,98634,1,0,0:0:0:20:
329,192,98634,1,4,0:0:0:30:
402,192,98634,1,0,0:0:0:20:
256,192,98634,1,0,0:0:0:30:drums.wav
475,192,98725,1,0,0:0:0:20:
36,192,98725,1,0,0:0:0:20:
109,192,98815,1,0,0:0:0:20:
402,192,98815,1,0,0:0:0:20:
329,192,98906,1,0,0:0:0:20:
182,192,98906,1,0,0:0:0:20:
109,192,98997,1,0,0:0:0:20:
36,192,98997,1,0,0:0:0:20:
402,192,98997,1,0,0:0:0:20:
475,192,98997,1,0,0:0:0:20:
36,192,99179,1,0,0:0:0:20:
329,192,99179,1,0,0:0:0:20:
475,192,99179,1,0,0:0:0:20:
402,192,99179,1,0,0:0:0:30:drums.wav
109,192,99270,1,0,0:0:0:20:
182,192,99361,1,0,0:0:0:20:
329,192,99452,1,0,0:0:0:20:
256,192,99452,1,0,0:0:0:20:
109,192,99452,1,0,0:0:0:20:
402,192,99497,1,0,0:0:0:20:
36,192,99543,1,0,0:0:0:20:
475,192,99543,1,0,0:0:0:20:
109,192,99634,1,0,0:0:0:20:
402,192,99634,1,0,0:0:0:20:
182,192,99725,1,0,0:0:0:20:
329,192,99725,1,0,0:0:0:20:
329,192,99906,1,0,0:0:0:20:
475,192,99906,1,0,0:0:0:20:
109,192,99906,1,0,0:0:0:20:
329,192,100088,1,0,0:0:0:20:
36,192,100088,1,0,0:0:0:20:
256,192,100088,1,0,0:0:0:30:drums.wav
475,192,100088,1,0,0:0:0:20:
109,192,100179,1,0,0:0:0:20:
182,192,100270,1,0,0:0:0:20:
256,192,100361,1,0,0:0:0:20:
329,192,100452,1,0,0:0:0:20:
402,192,100452,1,0,0:0:0:20:
109,192,100452,1,0,0:0:0:20:
182,192,100543,1,0,0:0:0:20:
256,192,100634,1,0,0:0:0:30:drums.wav
402,192,100634,1,0,0:0:0:20:
475,192,100634,1,0,0:0:0:20:
36,192,100634,1,0,0:0:0:20:
182,192,100725,1,0,0:0:0:20:
329,192,100725,1,0,0:0:0:20:
36,192,100815,1,0,0:0:0:20:
475,192,100815,1,0,0:0:0:20:
402,192,100906,1,0,0:0:0:20:
109,192,100906,1,0,0:0:0:20:
182,192,100997,1,0,0:0:0:20:
329,192,100997,1,0,0:0:0:20:
256,192,100997,1,0,0:0:0:20:
36,192,101088,1,0,0:0:0:20:
402,192,101088,1,0,0:0:0:20:
475,192,101179,1,0,0:0:0:20:
109,192,101179,1,0,0:0:0:20:
256,192,101179,1,0,0:0:0:20:
182,192,101270,1,0,0:0:0:20:
402,192,101270,1,0,0:0:0:20:
36,192,101361,1,0,0:0:0:20:
329,192,101361,1,0,0:0:0:20:
256,192,101452,1,0,0:0:0:20:
109,192,101452,1,0,0:0:0:20:
182,192,101543,1,0,0:0:0:30:drums.wav
402,192,101543,1,0,0:0:0:20:
475,192,101543,1,0,0:0:0:20:
36,192,101543,1,0,0:0:0:20:
329,192,101543,1,0,0:0:0:20:
182,192,101725,1,0,0:0:0:20:
109,192,101725,1,0,0:0:0:20:
329,192,101725,1,0,0:0:0:20:
402,192,101725,1,0,0:0:0:20:
256,192,101815,1,0,0:0:0:20:
36,192,101906,1,0,0:0:0:20:
475,192,101906,1,0,0:0:0:20:
402,192,101952,1,0,0:0:0:20:
109,192,101952,1,0,0:0:0:20:
182,192,101997,1,0,0:0:0:20:
329,192,101997,1,0,0:0:0:20:
256,192,102043,1,0,0:0:0:20:
109,192,102088,1,0,0:0:0:30:crash.wav
475,192,102088,1,0,0:0:0:20:
36,192,102088,1,0,0:0:0:20:
402,192,102088,1,0,0:0:0:20:
109,192,102270,1,0,0:0:0:20:
402,192,102270,1,0,0:0:0:20:
329,192,102452,1,0,0:0:0:20:
182,192,102452,1,0,0:0:0:20:
256,192,102634,1,0,0:0:0:20:
402,192,102634,1,0,0:0:0:20:
109,192,102634,1,0,0:0:0:20:
329,192,102785,1,0,0:0:0:20:
475,192,102815,1,0,0:0:0:20:
182,192,102815,1,0,0:0:0:20:
36,192,102997,1,0,0:0:0:20:
182,192,102997,1,0,0:0:0:20:
256,192,102997,1,0,0:0:0:30:drums.wav
402,192,102997,1,0,0:0:0:20:
36,192,103179,1,0,0:0:0:20:
109,192,103179,1,0,0:0:0:20:
329,192,103179,1,0,0:0:0:20:
402,192,103270,1,0,0:0:0:20:
182,192,103270,1,0,0:0:0:20:
475,192,103361,1,0,0:0:0:20:
256,192,103361,1,0,0:0:0:20:
402,192,103543,1,0,0:0:0:30:drums.wav
109,192,103543,1,0,0:0:0:20:
36,192,103543,1,0,0:0:0:20:
475,192,103543,1,0,0:0:0:20:
182,192,103634,1,0,0:0:0:20:
256,192,103634,1,0,0:0:0:20:
329,192,103725,1,0,0:0:0:20:
36,192,103725,1,0,0:0:0:20:
402,192,103815,1,0,0:0:0:20:
109,192,103815,1,0,0:0:0:20:
182,192,103906,1,0,0:0:0:20:
475,192,103906,1,0,0:0:0:20:
256,192,103906,1,0,0:0:0:20:
36,192,103997,1,0,0:0:0:20:
329,192,103997,1,0,0:0:0:20:
109,192,104088,1,0,0:0:0:20:
402,192,104088,1,0,0:0:0:20:
256,192,104088,1,0,0:0:0:20:
182,192,104179,1,0,0:0:0:20:
475,192,104179,1,0,0:0:0:20:
36,192,104270,1,0,0:0:0:20:
329,192,104270,1,0,0:0:0:20:
256,192,104270,1,0,0:0:0:20:
109,192,104361,1,0,0:0:0:20:
402,192,104361,1,0,0:0:0:20:
329,192,104452,1,4,0:0:0:30:
475,192,104452,1,0,0:0:0:20:
182,192,104452,1,0,0:0:0:30:drums.wav
256,192,104452,1,0,0:0:0:20:
36,192,104452,1,0,0:0:0:20:
36,192,104634,1,0,0:0:0:20:
475,192,104634,1,0,0:0:0:20:
182,192,104725,1,0,0:0:0:20:
329,192,104725,1,0,0:0:0:20:
109,192,104815,1,0,0:0:0:20:
475,192,104815,1,0,0:0:0:20:
36,192,104815,1,0,0:0:0:20:
402,192,104815,1,0,0:0:0:20:
36,192,105179,1,0,0:0:0:20:
109,192,105179,1,0,0:0:0:20:
256,192,105179,1,0,0:0:0:30:drums.wav
402,192,105179,1,0,0:0:0:20:
475,192,105179,1,0,0:0:0:20:
329,192,105361,1,0,0:0:0:20:
109,192,105361,1,0,0:0:0:20:
402,192,105452,1,0,0:0:0:20:
182,192,105452,1,0,0:0:0:20:
475,192,105543,1,0,0:0:0:20:
256,192,105543,1,0,0:0:0:20:
36,192,105543,1,0,0:0:0:20:
402,192,105634,1,0,0:0:0:20:
182,192,105634,1,0,0:0:0:20:
329,192,105725,1,0,0:0:0:20:
109,192,105725,1,0,0:0:0:20:
256,192,105815,1,0,0:0:0:20:
36,192,105815,1,0,0:0:0:20:
109,192,105906,1,0,0:0:0:20:
182,192,105906,1,4,0:0:0:30:
329,192,105906,1,0,0:0:0:30:drums.wav
475,192,105906,1,0,0:0:0:20:
402,192,105906,1,0,0:0:0:20:
109,192,106088,1,0,0:0:0:20:
402,192,106088,1,0,0:0:0:20:
182,192,106179,1,0,0:0:0:20:
329,192,106179,1,0,0:0:0:20:
36,192,106270,1,0,0:0:0:20:
109,192,106270,1,0,0:0:0:20:
402,192,106270,1,0,0:0:0:20:
475,192,106270,1,0,0:0:0:20:
109,192,106634,1,0,0:0:0:20:
182,192,106634,1,0,0:0:0:20:
256,192,106634,1,0,0:0:0:30:drums.wav
402,192,106634,1,0,0:0:0:20:
475,192,106634,1,0,0:0:0:20:
36,192,106815,1,0,0:0:0:20:
329,192,106815,1,0,0:0:0:20:
109,192,106906,1,0,0:0:0:20:
402,192,106906,1,0,0:0:0:20:
36,192,106997,1,0,0:0:0:20:
329,192,106997,1,0,0:0:0:20:
256,192,106997,1,0,0:0:0:20:
109,192,107088,1,0,0:0:0:20:
402,192,107088,1,0,0:0:0:20:
182,192,107179,1,0,0:0:0:20:
475,192,107179,1,0,0:0:0:20:
256,192,107270,1,0,0:0:0:20:
402,192,107270,1,0,0:0:0:20:
329,192,107361,1,0,0:0:0:30:drums.wav
182,192,107361,1,4,0:0:0:30:
109,192,107361,1,0,0:0:0:20:
36,192,107361,1,0,0:0:0:20:
475,192,107361,1,0,0:0:0:20:
36,192,107543,1,0,0:0:0:20:
475,192,107543,1,0,0:0:0:20:
182,192,107634,1,0,0:0:0:20:
329,192,107634,1,0,0:0:0:20:
36,192,107725,1,0,0:0:0:20:
109,192,107725,1,0,0:0:0:20:
402,192,107725,1,0,0:0:0:20:
475,192,107725,1,0,0:0:0:20:
182,192,107906,1,0,0:0:0:20:
329,192,107906,1,0,0:0:0:20:
109,192,107997,1,0,0:0:0:20:
402,192,107997,1,0,0:0:0:20:
256,192,108088,1,0,0:0:0:30:drums.wav
475,192,108088,1,0,0:0:0:20:
36,192,108088,1,0,0:0:0:20:
182,192,108088,1,0,0:0:0:20:
329,192,108088,1,0,0:0:0:20:
256,192,108361,1,0,0:0:0:20:
109,192,108361,1,0,0:0:0:20:
402,192,108361,1,0,0:0:0:20:
182,192,108452,1,0,0:0:0:20:
329,192,108452,1,0,0:0:0:20:
36,192,108634,1,0,0:0:0:20:
109,192,108634,1,0,0:0:0:20:
475,192,108634,1,0,0:0:0:20:
402,192,108634,1,0,0:0:0:20:
256,192,108725,1,0,0:0:0:20:
36,192,108815,1,0,0:0:0:20:
109,192,108815,1,0,0:0:0:20:
402,192,108815,1,0,0:0:0:20:
475,192,108815,1,0,0:0:0:20:
182,192,108815,1,0,0:0:0:30:drums.wav
329,192,108815,1,4,0:0:0:30:
109,192,108937,1,0,0:0:0:20:
182,192,108937,1,0,0:0:0:20:
329,192,108937,1,0,0:0:0:20:
402,192,108937,1,0,0:0:0:20:
109,192,109058,1,0,0:0:0:20:
182,192,109058,1,0,0:0:0:20:
402,192,109058,1,0,0:0:0:20:
329,192,109058,1,0,0:0:0:20:
256,192,109179,1,0,0:0:0:20:
402,192,109300,1,0,0:0:0:20:
475,192,109300,1,0,0:0:0:20:
36,192,109300,1,0,0:0:0:20:
109,192,109300,1,0,0:0:0:20:
402,192,109421,1,0,0:0:0:20:
475,192,109421,1,0,0:0:0:20:
36,192,109421,1,0,0:0:0:20:
109,192,109421,1,0,0:0:0:20:
182,192,109543,1,0,0:0:0:20:
329,192,109543,1,0,0:0:0:20:
256,192,109543,1,0,0:0:0:30:drums.wav
36,192,109543,1,0,0:0:0:20:
475,192,109543,1,0,0:0:0:20:
36,192,109664,1,0,0:0:0:20:
109,192,109664,1,0,0:0:0:20:
402,192,109664,1,0,0:0:0:20:
475,192,109664,1,0,0:0:0:20:
36,192,109785,1,0,0:0:0:20:
109,192,109785,1,0,0:0:0:20:
475,192,109785,1,0,0:0:0:20:
402,192,109785,1,0,0:0:0:20:
256,192,109906,1,0,0:0:0:20:
329,192,110028,1,0,0:0:0:20:
475,192,110028,1,0,0:0:0:20:
36,192,110028,1,0,0:0:0:20:
182,192,110028,1,0,0:0:0:20:
329,192,110149,1,0,0:0:0:20:
475,192,110149,1,0,0:0:0:20:
36,192,110149,1,0,0:0:0:20:
182,192,110149,1,0,0:0:0:20:
36,192,110270,1,0,0:0:0:20:
109,192,110270,1,0,0:0:0:30:drums.wav
182,192,110270,1,0,0:0:0:20:
402,192,110270,1,4,0:0:0:30:
475,192,110270,1,0,0:0:0:20:
329,192,110270,1,0,0:0:0:20:
36,192,110452,1,0,0:0:0:20:
109,192,110452,1,0,0:0:0:30:drums.wav
256,192,110452,1,0,0:0:0:20:
402,192,110452,1,4,0:0:0:30:
475,192,110452,1,0,0:0:0:20:
36,192,110634,128,0,110815:0:0:0:20:
256,192,110634,128,0,110815:0:0:0:20:
109,192,110634,128,0,110815:0:0:0:20:
329,192,110815,1,0,0:0:0:20:
182,192,110997,128,0,111179:0:0:0:20:
402,192,110997,128,0,111179:0:0:0:20:
256,192,110997,128,0,111179:0:0:0:20:
475,192,111179,1,0,0:0:0:20:
36,192,111361,128,0,111543:0:0:0:20:
475,192,111361,128,0,111543:0:0:0:20:
402,192,111361,128,0,111543:0:0:0:20:
182,192,111543,1,0,0:0:0:20:
329,192,111588,1,0,0:0:0:20:
182,192,111634,1,0,0:0:0:20:
329,192,111679,1,0,0:0:0:20:
402,192,111725,1,4,0:0:0:30:
475,192,111725,1,0,0:0:0:20:
109,192,111725,1,0,0:0:0:30:drums.wav
36,192,111725,1,0,0:0:0:20:
36,192,111906,1,0,0:0:0:20:
109,192,111906,1,0,0:0:0:30:drums.wav
402,192,111906,1,4,0:0:0:30:
475,192,111906,1,0,0:0:0:20:
256,192,111906,1,0,0:0:0:20:
109,192,112088,128,0,112270:0:0:0:20:
256,192,112088,128,0,112270:0:0:0:20:
402,192,112088,128,0,112270:0:0:0:20:
329,192,112270,1,0,0:0:0:20:
182,192,112452,128,0,112634:0:0:0:20:
329,192,112452,128,0,112634:0:0:0:20:
475,192,112452,128,0,112634:0:0:0:20:
402,192,112634,1,0,0:0:0:20:
475,192,112815,128,0,112997:0:0:0:20:
36,192,112815,128,0,112997:0:0:0:20:
402,192,112815,128,0,112997:0:0:0:20:
182,192,112997,1,0,0:0:0:20:
329,192,113043,1,0,0:0:0:20:
182,192,113088,1,0,0:0:0:20:
329,192,113134,1,0,0:0:0:20:
402,192,113179,1,4,0:0:0:30:
475,192,113179,1,0,0:0:0:20:
109,192,113179,1,0,0:0:0:30:drums.wav
36,192,113179,1,0,0:0:0:20:
36,192,113361,1,0,0:0:0:20:
109,192,113361,1,0,0:0:0:30:drums.wav
256,192,113361,1,0,0:0:0:20:
402,192,113361,1,4,0:0:0:30:
475,192,113361,1,0,0:0:0:20:
36,192,113543,128,0,113725:0:0:0:20:
256,192,113543,128,0,113725:0:0:0:20:
182,192,113543,128,0,113725:0:0:0:20:
402,192,113725,1,0,0:0:0:20:
329,192,113906,128,0,114088:0:0:0:20:
109,192,113906,128,0,114088:0:0:0:20:
256,192,113906,128,0,114088:0:0:0:20:
475,192,114088,1,0,0:0:0:20:
36,192,114270,128,0,114452:0:0:0:20:
402,192,114270,128,0,114452:0:0:0:20:
109,192,114270,128,0,114452:0:0:0:20:
182,192,114452,1,0,0:0:0:20:
329,192,114497,1,0,0:0:0:20:
182,192,114543,1,0,0:0:0:20:
329,192,114588,1,0,0:0:0:20:
402,192,114634,1,4,0:0:0:30:
475,192,114634,1,0,0:0:0:20:
109,192,114634,1,0,0:0:0:30:drums.wav
36,192,114634,1,0,0:0:0:20:
36,192,114815,1,0,0:0:0:20:
109,192,114815,1,0,0:0:0:30:drums.wav
256,192,114815,1,0,0:0:0:20:
402,192,114815,1,4,0:0:0:30:
475,192,114815,1,0,0:0:0:20:
109,192,114997,128,0,115179:0:0:0:20:
475,192,114997,128,0,115179:0:0:0:20:
256,192,114997,128,0,115179:0:0:0:20:
329,192,115179,1,0,0:0:0:20:
36,192,115361,1,0,0:0:0:20:
182,192,115361,1,0,0:0:0:20:
402,192,115361,1,0,0:0:0:20:
256,192,115452,1,0,0:0:0:20:
475,192,115452,1,0,0:0:0:20:
402,192,115543,1,0,0:0:0:20:
182,192,115543,1,0,0:0:0:20:
109,192,115634,1,0,0:0:0:20:
329,192,115634,1,0,0:0:0:20:
36,192,115725,1,0,0:0:0:20:
256,192,115725,1,0,0:0:0:20:
475,192,115725,1,0,0:0:0:20:
182,192,115815,1,0,0:0:0:20:
402,192,115815,1,0,0:0:0:20:
109,192,115906,1,0,0:0:0:20:
329,192,115906,1,0,0:0:0:20:
256,192,115997,1,0,0:0:0:20:
109,192,116088,1,0,0:0:0:20:
182,192,116088,1,0,0:0:0:30:drums.wav
402,192,116088,1,0,0:0:0:20:
329,192,116088,1,4,0:0:0:30:
475,192,116088,1,0,0:0:0:20:
36,192,116088,1,0,0:0:0:20:
182,192,116209,1,0,0:0:0:20:
109,192,116209,1,0,0:0:0:20:
329,192,116209,1,0,0:0:0:20:
402,192,116209,1,0,0:0:0:20:
182,192,116331,1,0,0:0:0:20:
109,192,116331,1,0,0:0:0:20:
329,192,116331,1,0,0:0:0:20:
402,192,116331,1,0,0:0:0:20:
256,192,116452,1,0,0:0:0:20:
329,192,116573,1,0,0:0:0:20:
475,192,116573,1,0,0:0:0:20:
109,192,116573,1,0,0:0:0:20:
36,192,116573,1,0,0:0:0:20:
329,192,116694,1,0,0:0:0:20:
475,192,116694,1,0,0:0:0:20:
109,192,116694,1,0,0:0:0:20:
36,192,116694,1,0,0:0:0:20:
182,192,116815,1,0,0:0:0:20:
329,192,116815,1,0,0:0:0:20:
36,192,116937,1,0,0:0:0:20:
182,192,116937,1,0,0:0:0:20:
475,192,116937,1,0,0:0:0:20:
402,192,116937,1,0,0:0:0:20:
36,192,117058,1,0,0:0:0:20:
402,192,117058,1,0,0:0:0:20:
182,192,117058,1,0,0:0:0:20:
475,192,117058,1,0,0:0:0:20:
256,192,117179,1,0,0:0:0:20:
402,192,117300,1,0,0:0:0:20:
475,192,117300,1,0,0:0:0:20:
36,192,117300,1,0,0:0:0:20:
109,192,117300,1,0,0:0:0:20:
402,192,117421,1,0,0:0:0:20:
475,192,117421,1,0,0:0:0:20:
36,192,117421,1,0,0:0:0:20:
109,192,117421,1,0,0:0:0:20:
36,192,117543,1,0,0:0:0:20:
109,192,117543,1,0,0:0:0:20:
182,192,117543,1,0,0:0:0:30:drums.wav
329,192,117543,1,4,0:0:0:30:
402,192,117543,1,0,0:0:0:20:
475,192,117543,1,0,0:0:0:20:
109,192,117664,1,0,0:0:0:20:
182,192,117664,1,0,0:0:0:20:
329,192,117664,1,0,0:0:0:20:
402,192,117664,1,0,0:0:0:20:
109,192,117785,1,0,0:0:0:20:
182,192,117785,1,0,0:0:0:20:
402,192,117785,1,0,0:0:0:20:
329,192,117785,1,0,0:0:0:20:
256,192,117906,1,0,0:0:0:20:
36,192,118028,1,0,0:0:0:20:
182,192,118028,1,0,0:0:0:20:
329,192,118028,1,0,0:0:0:20:
475,192,118028,1,0,0:0:0:20:
36,192,118149,1,0,0:0:0:20:
182,192,118149,1,0,0:0:0:20:
329,192,118149,1,0,0:0:0:20:
475,192,118149,1,0,0:0:0:20:
109,192,118270,1,0,0:0:0:20:
402,192,118270,1,0,0:0:0:20:
109,192,118391,1,0,0:0:0:20:
329,192,118391,1,0,0:0:0:20:
402,192,118391,1,0,0:0:0:20:
36,192,118391,1,0,0:0:0:20:
109,192,118512,1,0,0:0:0:20:
402,192,118512,1,0,0:0:0:20:
329,192,118512,1,0,0:0:0:20:
36,192,118512,1,0,0:0:0:20:
256,192,118634,1,0,0:0:0:20:
402,192,118755,1,0,0:0:0:20:
475,192,118755,1,0,0:0:0:20:
109,192,118755,1,0,0:0:0:20:
182,192,118755,1,0,0:0:0:20:
402,192,118876,1,0,0:0:0:20:
475,192,118876,1,0,0:0:0:20:
109,192,118876,1,0,0:0:0:20:
182,192,118876,1,0,0:0:0:20:
182,192,118997,1,2,0:0:0:20:
36,192,118997,1,0,0:0:0:20:
329,192,119020,1,0,0:0:0:20:
475,192,119043,1,0,0:0:0:20:
329,192,119361,1,0,0:0:0:20:
182,192,119361,1,0,0:0:0:20:
36,192,119452,1,0,0:0:0:20:
109,192,119543,1,0,0:0:0:20:
182,192,119634,1,0,0:0:0:20:
256,192,119725,1,0,0:0:0:20:
329,192,119815,1,0,0:0:0:20:
402,192,119906,1,0,0:0:0:20:
475,192,119997,1,0,0:0:0:20:
109,192,120088,1,0,0:0:0:20:
36,192,120088,1,0,0:0:0:20:
182,192,120179,1,0,0:0:0:20:
256,192,120270,1,0,0:0:0:20:
329,192,120361,1,0,0:0:0:20:
109,192,120452,1,0,0:0:0:20:
182,192,120543,1,0,0:0:0:20:
256,192,120634,1,0,0:0:0:20:
329,192,120725,1,0,0:0:0:20:
402,192,120815,1,0,0:0:0:20:
182,192,120815,1,0,0:0:0:20:
256,192,120906,1,0,0:0:0:20:
329,192,120997,1,0,0:0:0:20:
402,192,121088,1,0,0:0:0:20:
182,192,121179,1,0,0:0:0:20:
256,192,121270,1,0,0:0:0:20:
329,192,121361,1,0,0:0:0:20:
402,192,121452,1,0,0:0:0:20:
475,192,121543,1,0,0:0:0:20:
109,192,121543,1,0,0:0:0:20:
329,192,121543,1,0,0:0:0:20:
256,192,121634,1,0,0:0:0:20:
36,192,121634,1,0,0:0:0:20:
329,192,121725,1,0,0:0:0:20:
109,192,121725,1,0,0:0:0:20:
402,192,121815,1,0,0:0:0:20:
182,192,121815,1,0,0:0:0:20:
475,192,121906,1,0,0:0:0:20:
329,192,121906,1,4,0:0:0:30:
36,192,121906,1,0,0:0:0:20:
256,192,121906,128,0,122088:0:0:0:20:
109,192,121906,1,0,0:0:0:30:drums.wav
36,192,122088,1,0,0:0:0:20:
182,192,122088,1,2,0:0:0:20:
402,192,122088,1,0,0:0:0:20:
36,192,122270,1,0,0:0:0:20:
182,192,122270,1,0,0:0:0:20:
329,192,122270,1,0,0:0:0:20:
36,192,122452,1,0,0:0:0:20:
182,192,122452,1,2,0:0:0:20:
475,192,122452,1,0,0:0:0:20:
402,192,122452,1,0,0:0:0:20:
109,192,122634,1,0,0:0:0:20:
475,192,122634,1,0,0:0:0:20:
402,192,122634,1,0,0:0:0:20:
36,192,122815,1,0,0:0:0:20:
182,192,122815,1,2,0:0:0:20:
256,192,122815,1,0,0:0:0:20:
402,192,122906,1,0,0:0:0:20:
36,192,122997,1,0,0:0:0:20:
182,192,122997,1,0,0:0:0:20:
329,192,122997,1,0,0:0:0:20:
36,192,123179,1,0,0:0:0:20:
182,192,123179,1,2,0:0:0:20:
256,192,123179,1,0,0:0:0:20:
402,192,123179,1,0,0:0:0:20:
256,192,123361,128,0,123543:0:0:0:20:
329,192,123361,1,0,0:0:0:20:
475,192,123361,1,0,0:0:0:20:
36,192,123361,1,0,0:0:0:20:
109,192,123543,1,0,0:0:0:20:
182,192,123543,1,2,0:0:0:20:
329,192,123543,1,0,0:0:0:20:
109,192,123725,1,0,0:0:0:20:
182,192,123725,1,0,0:0:0:20:
256,192,123725,1,0,0:0:0:20:
402,192,123725,1,0,0:0:0:20:
109,192,123906,1,0,0:0:0:20:
182,192,123906,1,2,0:0:0:20:
329,192,123906,1,0,0:0:0:20:
475,192,123906,1,0,0:0:0:20:
36,192,124088,1,0,0:0:0:20:
475,192,124088,1,0,0:0:0:20:
109,192,124270,1,0,0:0:0:20:
182,192,124270,1,2,0:0:0:20:
402,192,124270,1,0,0:0:0:20:
109,192,124452,1,0,0:0:0:20:
182,192,124452,1,0,0:0:0:20:
329,192,124452,1,0,0:0:0:20:
109,192,124634,1,0,0:0:0:20:
182,192,124634,1,2,0:0:0:20:
256,192,124634,1,0,0:0:0:20:
329,192,124725,1,0,0:0:0:20:
256,192,124815,128,0,124997:0:0:0:20:
109,192,124815,1,0,0:0:0:20:
402,192,124815,1,0,0:0:0:20:
475,192,124815,1,0,0:0:0:20:
36,192,124997,1,0,0:0:0:20:
182,192,124997,1,2,0:0:0:20:
402,192,124997,1,0,0:0:0:20:
36,192,125179,1,0,0:0:0:20:
182,192,125179,1,0,0:0:0:20:
256,192,125179,1,0,0:0:0:20:
36,192,125361,1,0,0:0:0:20:
182,192,125361,1,2,0:0:0:20:
329,192,125361,1,0,0:0:0:20:
256,192,125361,1,0,0:0:0:20:
402,192,125452,1,0,0:0:0:20:
256,192,125543,128,0,125725:0:0:0:20:
475,192,125543,1,0,0:0:0:20:
182,192,125543,1,0,0:0:0:20:
329,192,125543,1,0,0:0:0:20:
36,192,125725,1,0,0:0:0:20:
109,192,125725,1,2,0:0:0:20:
402,192,125725,1,0,0:0:0:20:
36,192,125906,1,0,0:0:0:20:
109,192,125906,1,0,0:0:0:20:
402,192,125906,1,0,0:0:0:20:
475,192,125906,1,0,0:0:0:20:
36,192,126088,1,0,0:0:0:20:
109,192,126088,1,2,0:0:0:20:
329,192,126088,1,0,0:0:0:20:
256,192,126179,1,0,0:0:0:20:
36,192,126270,1,0,0:0:0:20:
475,192,126270,1,0,0:0:0:20:
182,192,126270,1,0,0:0:0:30:drums.wav
402,192,126270,1,0,0:0:0:20:
329,192,126452,1,0,0:0:0:20:
182,192,126452,1,0,0:0:0:20:
475,192,126634,1,0,0:0:0:20:
256,192,126634,1,0,0:0:0:20:
36,192,126634,1,0,0:0:0:20:
109,192,126815,1,0,0:0:0:20:
475,192,126815,1,0,0:0:0:20:
36,192,126815,1,0,0:0:0:20:
329,192,126815,1,0,0:0:0:30:drums.wav
182,192,126906,1,0,0:0:0:20:
256,192,126997,1,0,0:0:0:20:
329,192,126997,1,0,0:0:0:20:
36,192,126997,128,0,127361:0:0:0:20:
182,192,127179,1,0,0:0:0:20:
402,192,127179,1,0,0:0:0:20:
256,192,127270,1,0,0:0:0:20:
402,192,127361,1,0,0:0:0:20:
329,192,127361,1,0,0:0:0:20:
475,192,127361,128,0,127725:0:0:0:20:
109,192,127543,1,0,0:0:0:20:
329,192,127543,1,0,0:0:0:20:
182,192,127634,1,0,0:0:0:20:
256,192,127725,1,0,0:0:0:30:drums.wav
109,192,127725,1,0,0:0:0:20:
36,192,127725,1,0,0:0:0:20:
402,192,127725,1,4,0:0:0:30:
182,192,127906,1,0,0:0:0:20:
329,192,127906,1,0,0:0:0:20:
256,192,127906,1,0,0:0:0:20:
109,192,127997,1,0,0:0:0:20:
402,192,127997,1,0,0:0:0:20:
182,192,128088,1,0,0:0:0:20:
256,192,128088,1,0,0:0:0:20:
329,192,128088,1,0,0:0:0:20:
109,192,128270,1,0,0:0:0:20:
256,192,128270,1,0,0:0:0:30:drums.wav
475,192,128270,1,0,0:0:0:20:
36,192,128270,1,0,0:0:0:20:
329,192,128452,1,0,0:0:0:20:
182,192,128452,1,0,0:0:0:20:
36,192,128634,1,0,0:0:0:20:
109,192,128634,1,0,0:0:0:20:
329,192,128634,1,0,0:0:0:20:
256,192,128725,1,0,0:0:0:20:
182,192,128815,1,0,0:0:0:20:
402,192,128815,1,0,0:0:0:20:
475,192,128815,1,0,0:0:0:20:
402,192,128997,1,0,0:0:0:20:
256,192,128997,1,0,0:0:0:20:
109,192,128997,1,0,0:0:0:20:
36,192,129179,1,0,0:0:0:20:
109,192,129179,1,0,0:0:0:20:
329,192,129179,1,0,0:0:0:30:drums.wav
475,192,129179,1,0,0:0:0:20:
182,192,129270,1,0,0:0:0:20:
256,192,129361,1,0,0:0:0:20:
36,192,129361,1,0,0:0:0:20:
329,192,129452,1,0,0:0:0:20:
109,192,129452,1,0,0:0:0:20:
402,192,129543,1,0,0:0:0:20:
475,192,129543,1,0,0:0:0:20:
182,192,129543,1,0,0:0:0:20:
329,192,129725,1,0,0:0:0:30:drums.wav
475,192,129725,1,0,0:0:0:20:
109,192,129725,1,0,0:0:0:20:
36,192,129725,1,0,0:0:0:20:
182,192,129815,1,0,0:0:0:20:
402,192,129815,1,0,0:0:0:20:
256,192,129906,1,0,0:0:0:20:
475,192,129906,1,0,0:0:0:20:
402,192,129997,1,0,0:0:0:20:
329,192,130088,1,0,0:0:0:20:
109,192,130088,1,0,0:0:0:20:
36,192,130088,1,0,0:0:0:20:
256,192,130179,1,0,0:0:0:20:
109,192,130270,1,0,0:0:0:20:
36,192,130270,1,0,0:0:0:20:
329,192,130270,1,0,0:0:0:20:
256,192,130361,1,0,0:0:0:20:
182,192,130452,1,0,0:0:0:20:
402,192,130452,1,0,0:0:0:20:
109,192,130543,1,0,0:0:0:20:
475,192,130543,1,0,0:0:0:20:
402,192,130634,1,0,0:0:0:20:
329,192,130634,1,4,0:0:0:30:
182,192,130634,1,0,0:0:0:20:
36,192,130634,1,0,0:0:0:20:
256,192,130634,1,0,0:0:0:30:drums.wav
109,192,130815,1,0,0:0:0:20:
329,192,130815,1,0,0:0:0:20:
475,192,130815,1,0,0:0:0:20:
256,192,130906,1,0,0:0:0:20:
182,192,130997,1,0,0:0:0:20:
36,192,130997,1,0,0:0:0:20:
402,192,130997,1,0,0:0:0:20:
36,192,131179,1,0,0:0:0:20:
182,192,131179,1,0,0:0:0:20:
256,192,131179,1,0,0:0:0:30:crash.wav
475,192,131179,1,0,0:0:0:20:
329,192,131179,1,0,0:0:0:20:
402,192,131361,1,0,0:0:0:20:
109,192,131361,1,0,0:0:0:20:
182,192,131543,1,0,0:0:0:20:
36,192,131543,1,0,0:0:0:20:
402,192,131543,1,0,0:0:0:20:
109,192,131725,1,0,0:0:0:20:
256,192,131725,1,0,0:0:0:20:
475,192,131725,1,0,0:0:0:20:
402,192,131906,1,0,0:0:0:20:
182,192,131906,1,0,0:0:0:20:
36,192,131906,1,0,0:0:0:20:
36,192,132088,1,0,0:0:0:20:
329,192,132088,1,0,0:0:0:30:drums.wav
475,192,132088,1,0,0:0:0:20:
109,192,132088,1,0,0:0:0:20:
182,192,132179,1,0,0:0:0:20:
256,192,132270,1,0,0:0:0:20:
36,192,132270,1,0,0:0:0:20:
329,192,132361,1,0,0:0:0:20:
109,192,132361,1,0,0:0:0:20:
402,192,132452,1,0,0:0:0:20:
475,192,132452,1,0,0:0:0:20:
182,192,132452,1,0,0:0:0:20:
329,192,132634,1,0,0:0:0:30:drums.wav
36,192,132634,1,0,0:0:0:20:
109,192,132634,1,0,0:0:0:20:
475,192,132634,1,0,0:0:0:20:
402,192,132725,1,0,0:0:0:20:
182,192,132725,1,0,0:0:0:20:
475,192,132815,1,0,0:0:0:20:
256,192,132815,1,0,0:0:0:20:
402,192,132906,1,0,0:0:0:20:
329,192,132997,1,0,0:0:0:20:
109,192,132997,1,0,0:0:0:20:
256,192,133088,1,0,0:0:0:20:
36,192,133088,1,0,0:0:0:20:
182,192,133179,1,0,0:0:0:20:
109,192,133179,1,0,0:0:0:20:
402,192,133179,1,0,0:0:0:20:
329,192,133270,1,0,0:0:0:20:
256,192,133361,1,0,0:0:0:20:
475,192,133361,1,0,0:0:0:20:
182,192,133452,1,0,0:0:0:20:
402,192,133452,1,0,0:0:0:20:
329,192,133543,1,4,0:0:0:30:
256,192,133543,1,0,0:0:0:30:drums.wav
109,192,133543,1,0,0:0:0:20:
36,192,133543,1,0,0:0:0:20:
475,192,133543,1,0,0:0:0:20:
182,192,133634,1,0,0:0:0:20:
109,192,133725,1,0,0:0:0:20:
36,192,133815,1,0,0:0:0:20:
329,192,133815,1,0,0:0:0:20:
402,192,133906,1,0,0:0:0:20:
182,192,133906,1,0,0:0:0:20:
329,192,133997,1,0,0:0:0:20:
109,192,133997,1,0,0:0:0:20:
256,192,134088,1,0,0:0:0:30:drums.wav
402,192,134088,1,0,0:0:0:20:
36,192,134088,1,0,0:0:0:20:
475,192,134088,1,0,0:0:0:20:
109,192,134179,1,0,0:0:0:20:
182,192,134179,1,0,0:0:0:20:
256,192,134270,1,0,0:0:0:20:
475,192,134270,1,0,0:0:0:20:
402,192,134361,1,0,0:0:0:20:
182,192,134361,1,0,0:0:0:20:
109,192,134452,1,0,0:0:0:20:
329,192,134452,1,0,0:0:0:20:
36,192,134543,1,0,0:0:0:20:
402,192,134543,1,0,0:0:0:20:
182,192,134634,1,0,0:0:0:20:
256,192,134634,1,0,0:0:0:20:
475,192,134634,1,0,0:0:0:20:
109,192,134725,1,0,0:0:0:20:
402,192,134725,1,0,0:0:0:20:
36,192,134815,1,0,0:0:0:20:
329,192,134815,1,0,0:0:0:20:
256,192,134906,1,0,0:0:0:20:
109,192,134997,1,0,0:0:0:20:
36,192,134997,1,0,0:0:0:20:
329,192,134997,1,4,0:0:0:30:
402,192,134997,1,0,0:0:0:20:
475,192,134997,1,0,0:0:0:20:
182,192,134997,1,0,0:0:0:30:drums.wav
36,192,135270,1,0,0:0:0:20:
329,192,135270,1,0,0:0:0:20:
109,192,135315,1,0,0:0:0:20:
402,192,135315,1,0,0:0:0:20:
182,192,135361,1,0,0:0:0:20:
475,192,135361,1,0,0:0:0:20:
256,192,135361,1,0,0:0:0:20:
36,192,135482,1,0,0:0:0:20:
109,192,135482,1,0,0:0:0:20:
182,192,135482,1,0,0:0:0:20:
36,192,135603,1,0,0:0:0:20:
109,192,135603,1,0,0:0:0:20:
182,192,135603,1,0,0:0:0:20:
182,192,135725,1,0,0:0:0:20:
329,192,135725,1,0,0:0:0:20:
402,192,135725,1,0,0:0:0:20:
109,192,135725,128,0,136088:0:0:0:20:
329,192,135846,1,0,0:0:0:20:
402,192,135846,1,0,0:0:0:20:
475,192,135846,1,0,0:0:0:20:
329,192,135967,1,0,0:0:0:20:
402,192,135967,1,0,0:0:0:20:
475,192,135967,1,0,0:0:0:20:
36,192,136088,1,0,0:0:0:20:
256,192,136088,1,0,0:0:0:20:
182,192,136088,1,0,0:0:0:30:drums.wav
329,192,136088,1,4,0:0:0:30:
402,192,136088,1,0,0:0:0:20:
475,192,136088,1,0,0:0:0:20:
182,192,136361,1,0,0:0:0:20:
475,192,136361,1,0,0:0:0:20:
109,192,136406,1,0,0:0:0:20:
402,192,136406,1,0,0:0:0:20:
36,192,136452,1,0,0:0:0:20:
329,192,136452,1,0,0:0:0:20:
256,192,136452,1,0,0:0:0:20:
182,192,136573,1,0,0:0:0:20:
109,192,136573,1,0,0:0:0:20:
36,192,136573,1,0,0:0:0:20:
182,192,136694,1,0,0:0:0:20:
109,192,136694,1,0,0:0:0:20:
36,192,136694,1,0,0:0:0:20:
402,192,136815,1,0,0:0:0:20:
182,192,136815,1,0,0:0:0:20:
329,192,136815,1,0,0:0:0:20:
36,192,136815,128,0,137179:0:0:0:20:
329,192,136937,1,0,0:0:0:20:
475,192,136937,1,0,0:0:0:20:
402,192,136937,1,0,0:0:0:20:
109,192,136997,1,0,0:0:0:20:
329,192,137058,1,0,0:0:0:20:
475,192,137058,1,0,0:0:0:20:
402,192,137058,1,0,0:0:0:20:
182,192,137088,1,0,0:0:0:20:
402,192,137179,1,0,0:0:0:20:
475,192,137179,1,0,0:0:0:20:
329,192,137179,1,4,0:0:0:30:
109,192,137179,1,0,0:0:0:20:
256,192,137179,1,0,0:0:0:30:drums.wav
36,192,137361,1,0,0:0:0:20:
36,192,137543,1,0,0:0:0:20:
475,192,137725,1,0,0:0:0:20:
36,192,137906,1,0,0:0:0:20:
109,192,137906,1,0,0:0:0:20:
182,192,137906,1,0,0:0:0:30:drums.wav
329,192,137906,1,4,0:0:0:30:
402,192,137906,1,0,0:0:0:20:
475,192,137906,1,0,0:0:0:20:
256,192,137997,1,0,0:0:0:20:
475,192,138088,1,0,0:0:0:20:
182,192,138088,1,0,0:0:0:20:
109,192,138179,1,0,0:0:0:20:
402,192,138179,1,0,0:0:0:20:
36,192,138270,1,0,0:0:0:20:
256,192,138270,1,0,0:0:0:20:
329,192,138270,1,0,0:0:0:20:
36,192,138452,1,0,0:0:0:20:
109,192,138452,1,0,0:0:0:20:
256,192,138452,1,0,0:0:0:30:drums.wav
475,192,138452,1,0,0:0:0:20:
329,192,138543,1,0,0:0:0:20:
475,192,138634,1,0,0:0:0:20:
182,192,138634,1,0,0:0:0:20:
402,192,138634,1,0,0:0:0:20:
109,192,138725,1,0,0:0:0:20:
36,192,138815,1,0,0:0:0:20:
329,192,138815,1,0,0:0:0:20:
402,192,138815,1,0,0:0:0:20:
109,192,138906,1,0,0:0:0:20:
475,192,138906,1,0,0:0:0:20:
182,192,138997,1,0,0:0:0:20:
402,192,138997,1,0,0:0:0:20:
329,192,138997,1,0,0:0:0:20:
109,192,139088,1,0,0:0:0:20:
36,192,139179,1,0,0:0:0:20:
329,192,139179,1,0,0:0:0:20:
475,192,139179,1,0,0:0:0:20:
256,192,139270,1,0,0:0:0:20:
36,192,139361,1,0,0:0:0:20:
182,192,139361,1,0,0:0:0:30:drums.wav
402,192,139361,1,0,0:0:0:20:
475,192,139361,1,0,0:0:0:20:
329,192,139452,1,0,0:0:0:20:
109,192,139543,1,0,0:0:0:20:
329,192,139634,1,0,0:0:0:20:
182,192,139725,1,0,0:0:0:20:
36,192,139725,1,0,0:0:0:20:
475,192,139725,1,0,0:0:0:20:
36,192,139906,1,0,0:0:0:20:
402,192,139906,1,0,0:0:0:20:
329,192,139906,1,0,0:0:0:30:drums.wav
109,192,139906,1,0,0:0:0:20:
182,192,139997,1,0,0:0:0:20:
475,192,140088,1,0,0:0:0:20:
256,192,140088,1,0,0:0:0:20:
402,192,140179,1,0,0:0:0:20:
329,192,140270,1,0,0:0:0:20:
36,192,140270,1,0,0:0:0:20:
109,192,140270,1,0,0:0:0:20:
182,192,140361,1,0,0:0:0:20:
329,192,140452,1,0,0:0:0:20:
36,192,140452,1,0,0:0:0:20:
109,192,140452,1,0,0:0:0:20:
256,192,140543,1,0,0:0:0:20:
182,192,140634,1,0,0:0:0:20:
402,192,140634,1,0,0:0:0:20:
475,192,140634,1,0,0:0:0:20:
256,192,140725,1,0,0:0:0:20:
36,192,140815,1,0,0:0:0:20:
109,192,140815,1,0,0:0:0:30:drums.wav
329,192,140815,1,0,0:0:0:20:
475,192,140815,1,0,0:0:0:20:
256,192,140906,1,0,0:0:0:20:
329,192,140997,1,0,0:0:0:20:
182,192,140997,1,0,0:0:0:20:
402,192,141088,1,0,0:0:0:20:
109,192,141088,1,0,0:0:0:20:
475,192,141179,1,0,0:0:0:20:
36,192,141179,1,0,0:0:0:20:
256,192,141179,1,0,0:0:0:20:
36,192,141361,1,0,0:0:0:20:
475,192,141361,1,0,0:0:0:20:
109,192,141361,1,0,0:0:0:20:
329,192,141361,1,0,0:0:0:30:crash.wav
402,192,141361,1,0,0:0:0:20:
256,192,141452,1,0,0:0:0:20:
182,192,141543,1,0,0:0:0:20:
402,192,141543,1,0,0:0:0:20:
475,192,141543,1,0,0:0:0:20:
109,192,141543,1,0,0:0:0:20:
36,192,141634,1,0,0:0:0:20:
182,192,141725,1,0,0:0:0:20:
329,192,141725,1,0,0:0:0:20:
402,192,141725,1,0,0:0:0:20:
109,192,141815,1,0,0:0:0:20:
475,192,141815,1,0,0:0:0:20:
36,192,141906,1,0,0:0:0:20:
329,192,141906,1,0,0:0:0:20:
402,192,141906,1,0,0:0:0:20:
109,192,141997,1,0,0:0:0:20:
329,192,142088,1,0,0:0:0:20:
182,192,142088,1,0,0:0:0:20:
475,192,142088,1,0,0:0:0:20:
256,192,142179,1,0,0:0:0:20:
475,192,142270,1,0,0:0:0:20:
36,192,142270,1,0,0:0:0:20:
109,192,142270,1,0,0:0:0:20:
329,192,142270,1,0,0:0:0:30:drums.wav
182,192,142361,1,0,0:0:0:20:
256,192,142452,1,0,0:0:0:20:
36,192,142452,1,0,0:0:0:20:
329,192,142543,1,0,0:0:0:20:
109,192,142543,1,0,0:0:0:20:
402,192,142634,1,0,0:0:0:20:
475,192,142634,1,0,0:0:0:20:
182,192,142634,1,0,0:0:0:20:
36,192,142815,1,0,0:0:0:20:
329,192,142815,1,0,0:0:0:30:drums.wav
475,192,142815,1,0,0:0:0:20:
109,192,142815,1,0,0:0:0:20:
402,192,142906,1,0,0:0:0:20:
475,192,142997,1,0,0:0:0:20:
256,192,142997,1,0,0:0:0:20:
402,192,143088,1,0,0:0:0:20:
182,192,143088,1,0,0:0:0:20:
329,192,143179,1,0,0:0:0:20:
109,192,143179,1,0,0:0:0:20:
256,192,143270,1,0,0:0:0:20:
36,192,143270,1,0,0:0:0:20:
109,192,143361,1,0,0:0:0:20:
182,192,143361,1,0,0:0:0:20:
402,192,143361,1,0,0:0:0:20:
475,192,143361,1,0,0:0:0:20:
256,192,143452,1,0,0:0:0:20:
109,192,143543,1,0,0:0:0:20:
402,192,143543,1,0,0:0:0:20:
329,192,143634,1,0,0:0:0:20:
182,192,143725,1,4,0:0:0:30:
36,192,143725,1,0,0:0:0:20:
402,192,143725,1,0,0:0:0:30:drums.wav
475,192,143725,1,0,0:0:0:20:
256,192,143725,1,0,0:0:0:20:
329,192,143815,1,0,0:0:0:20:
402,192,143906,1,0,0:0:0:20:
475,192,143997,1,0,0:0:0:20:
182,192,143997,1,0,0:0:0:20:
329,192,144088,1,0,0:0:0:20:
109,192,144088,1,0,0:0:0:20:
36,192,144088,1,0,0:0:0:20:
182,192,144179,1,0,0:0:0:20:
36,192,144270,1,0,0:0:0:20:
256,192,144270,1,0,0:0:0:30:drums.wav
475,192,144270,1,0,0:0:0:20:
109,192,144361,1,0,0:0:0:20:
329,192,144361,1,0,0:0:0:20:
475,192,144452,1,0,0:0:0:20:
402,192,144452,1,0,0:0:0:20:
182,192,144452,1,0,0:0:0:20:
109,192,144634,1,0,0:0:0:20:
402,192,144634,1,0,0:0:0:20:
256,192,144634,1,0,0:0:0:20:
182,192,144815,1,0,0:0:0:20:
329,192,144815,1,0,0:0:0:20:
475,192,144815,1,0,0:0:0:20:
109,192,144815,1,0,0:0:0:20:
402,192,144997,1,0,0:0:0:20:
182,192,144997,1,0,0:0:0:20:
329,192,144997,1,0,0:0:0:20:
36,192,145179,1,0,0:0:0:20:
109,192,145179,1,0,0:0:0:20:
256,192,145179,1,0,0:0:0:30:drums.wav
402,192,145179,1,0,0:0:0:20:
182,192,145270,1,0,0:0:0:20:
256,192,145361,1,0,0:0:0:20:
36,192,145361,1,0,0:0:0:20:
109,192,145452,1,0,0:0:0:20:
329,192,145452,1,0,0:0:0:20:
182,192,145543,1,0,0:0:0:20:
402,192,145543,1,0,0:0:0:20:
475,192,145543,1,0,0:0:0:20:
256,192,145634,1,0,0:0:0:20:
329,192,145725,1,0,0:0:0:30:drums.wav
109,192,145725,1,0,0:0:0:20:
36,192,145725,1,0,0:0:0:20:
475,192,145725,1,0,0:0:0:20:
182,192,145815,1,0,0:0:0:20:
256,192,145861,1,0,0:0:0:20:
329,192,145906,1,0,0:0:0:20:
402,192,145906,1,0,0:0:0:20:
109,192,145906,1,0,0:0:0:20:
36,192,145906,1,0,0:0:0:20:
475,192,145997,1,0,0:0:0:20:
402,192,146088,1,0,0:0:0:20:
256,192,146179,1,0,0:0:0:20:
182,192,146179,1,0,0:0:0:20:
109,192,146179,1,0,0:0:0:20:
329,192,146179,1,0,0:0:0:20:
475,192,146270,1,0,0:0:0:20:
402,192,146361,1,0,0:0:0:20:
182,192,146452,1,0,0:0:0:20:
36,192,146452,1,0,0:0:0:20:
329,192,146452,1,0,0:0:0:20:
256,192,146543,1,0,0:0:0:20:
36,192,146634,1,0,0:0:0:20:
109,192,146634,1,0,0:0:0:20:
329,192,146634,1,0,0:0:0:30:drums.wav
475,192,146634,1,0,0:0:0:20:
182,192,146725,1,0,0:0:0:20:
256,192,146815,1,0,0:0:0:20:
182,192,146906,1,0,0:0:0:20:
475,192,146906,1,0,0:0:0:20:
402,192,146997,1,0,0:0:0:20:
329,192,146997,1,0,0:0:0:20:
109,192,146997,1,0,0:0:0:20:
256,192,147088,1,0,0:0:0:20:
475,192,147179,1,0,0:0:0:20:
36,192,147179,1,0,0:0:0:20:
182,192,147179,1,0,0:0:0:20:
402,192,147179,1,0,0:0:0:30:crash.wav
109,192,147179,1,0,0:0:0:20:
256,192,147270,1,0,0:0:0:20:
329,192,147315,1,0,0:0:0:20:
402,192,147361,1,0,0:0:0:20:
475,192,147361,1,0,0:0:0:20:
109,192,147361,1,0,0:0:0:20:
36,192,147361,1,0,0:0:0:20:
182,192,147452,1,0,0:0:0:20:
256,192,147543,1,0,0:0:0:20:
182,192,147634,1,0,0:0:0:20:
475,192,147634,1,0,0:0:0:20:
329,192,147634,1,0,0:0:0:20:
402,192,147634,1,0,0:0:0:20:
36,192,147725,1,0,0:0:0:20:
109,192,147725,1,0,0:0:0:20:
475,192,147815,1,0,0:0:0:20:
402,192,147815,1,0,0:0:0:20:
36,192,147906,1,0,0:0:0:20:
109,192,147906,1,0,0:0:0:20:
256,192,147906,1,0,0:0:0:20:
182,192,148088,1,4,0:0:0:30:
475,192,148088,128,0,148906:0:0:0:20:
402,192,148088,1,0,0:0:0:20:
36,192,148088,128,0,148179:0:0:0:20:
329,192,148088,1,0,0:0:0:30:drums.wav
256,192,148179,1,0,0:0:0:20:
109,192,148179,128,0,148270:0:0:0:20:
329,192,148270,1,0,0:0:0:20:
182,192,148270,128,0,148361:0:0:0:20:
36,192,148361,128,0,148906:0:0:0:20:
402,192,148361,1,0,0:0:0:20:
256,192,148361,128,0,148452:0:0:0:20:
329,192,148452,128,0,148543:0:0:0:20:
109,192,148452,1,0,0:0:0:20:
402,192,148543,128,0,148634:0:0:0:20:
182,192,148543,1,0,0:0:0:20:
109,192,148634,128,0,148906:0:0:0:20:
256,192,148634,1,0,0:0:0:20:
329,192,148725,1,0,0:0:0:20:
402,192,148815,128,0,148906:0:0:0:20:
182,192,148815,128,0,148906:0:0:0:20:
256,192,148815,128,0,148906:0:0:0:20:
329,192,148997,1,0,0:0:0:20:
475,192,149179,1,0,0:0:0:20:
36,192,149179,1,0,0:0:0:30:
109,192,149225,1,0,0:0:0:30:
182,192,149270,1,0,0:0:0:30:
256,192,149315,1,0,0:0:0:30:
329,192,149361,1,0,0:0:0:30:
475,192,149361,1,0,0:0:0:30:
182,192,149452,1,0,0:0:0:20:
36,192,149543,1,0,0:0:0:20:
109,192,149543,1,0,0:0:0:20:
256,192,149543,1,0,0:0:0:30:drums.wav
329,192,149543,1,4,0:0:0:30:
402,192,149543,1,0,0:0:0:20:
475,192,149543,1,0,0:0:0:20:
182,192,149634,1,0,0:0:0:20:
256,192,149725,1,0,0:0:0:20:
329,192,149815,1,0,0:0:0:20:
109,192,149906,1,0,0:0:0:20:
402,192,149906,1,0,0:0:0:20:
475,192,149906,1,0,0:0:0:20:
256,192,150088,1,0,0:0:0:30:drums.wav
475,192,150088,1,0,0:0:0:20:
36,192,150088,1,0,0:0:0:20:
329,192,150088,1,0,0:0:0:20:
109,192,150179,1,0,0:0:0:20:
182,192,150270,1,0,0:0:0:20:
329,192,150270,1,0,0:0:0:20:
475,192,150270,1,0,0:0:0:20:
109,192,150361,1,0,0:0:0:20:
36,192,150452,1,0,0:0:0:20:
402,192,150452,1,0,0:0:0:20:
329,192,150452,1,0,0:0:0:20:
475,192,150543,1,0,0:0:0:20:
182,192,150543,1,0,0:0:0:20:
402,192,150634,1,0,0:0:0:20:
36,192,150634,1,0,0:0:0:20:
329,192,150634,1,0,0:0:0:20:
109,192,150725,1,0,0:0:0:20:
182,192,150815,1,0,0:0:0:20:
475,192,150815,1,0,0:0:0:20:
329,192,150815,1,0,0:0:0:20:
256,192,150906,1,0,0:0:0:20:
475,192,150997,1,0,0:0:0:20:
109,192,150997,1,0,0:0:0:20:
36,192,150997,1,0,0:0:0:20:
329,192,150997,1,0,0:0:0:30:drums.wav
182,192,151088,1,0,0:0:0:20:
256,192,151179,1,0,0:0:0:20:
36,192,151179,1,0,0:0:0:20:
109,192,151270,1,0,0:0:0:20:
329,192,151270,1,0,0:0:0:20:
182,192,151361,1,0,0:0:0:20:
475,192,151361,1,0,0:0:0:20:
402,192,151361,1,0,0:0:0:20:
36,192,151543,1,0,0:0:0:20:
109,192,151543,1,0,0:0:0:20:
256,192,151543,1,0,0:0:0:30:drums.wav
475,192,151543,1,0,0:0:0:20:
329,192,151634,1,0,0:0:0:20:
402,192,151725,1,0,0:0:0:20:
109,192,151725,1,0,0:0:0:20:
329,192,151815,1,0,0:0:0:20:
36,192,151906,1,0,0:0:0:20:
182,192,151906,1,0,0:0:0:20:
475,192,151906,1,0,0:0:0:20:
402,192,151997,1,0,0:0:0:20:
329,192,152088,1,0,0:0:0:20:
182,192,152088,1,0,0:0:0:20:
36,192,152088,1,0,0:0:0:20:
109,192,152179,1,0,0:0:0:20:
36,192,152270,1,0,0:0:0:20:
256,192,152270,1,0,0:0:0:20:
475,192,152270,1,0,0:0:0:20:
182,192,152361,1,0,0:0:0:20:
36,192,152452,1,0,0:0:0:20:
109,192,152452,1,0,0:0:0:30:drums.wav
329,192,152452,1,0,0:0:0:20:
475,192,152452,1,0,0:0:0:20:
256,192,152543,1,0,0:0:0:20:
329,192,152634,1,0,0:0:0:20:
109,192,152634,1,0,0:0:0:20:
182,192,152725,1,0,0:0:0:20:
402,192,152725,1,0,0:0:0:20:
256,192,152815,1,0,0:0:0:20:
475,192,152815,1,0,0:0:0:20:
36,192,152815,1,0,0:0:0:20:
109,192,152997,1,0,0:0:0:20:
36,192,152997,1,0,0:0:0:20:
182,192,152997,1,0,0:0:0:20:
402,192,152997,1,0,0:0:0:30:crash.wav
475,192,152997,1,0,0:0:0:20:
256,192,153088,1,0,0:0:0:20:
36,192,153179,1,0,0:0:0:20:
182,192,153179,1,0,0:0:0:20:
402,192,153179,1,0,0:0:0:20:
256,192,153270,1,0,0:0:0:20:
329,192,153361,1,0,0:0:0:20:
109,192,153361,1,0,0:0:0:20:
182,192,153452,1,0,0:0:0:20:
402,192,153452,1,0,0:0:0:20:
256,192,153543,1,0,0:0:0:20:
36,192,153543,1,0,0:0:0:20:
475,192,153543,1,0,0:0:0:20:
182,192,153634,1,0,0:0:0:20:
329,192,153725,1,0,0:0:0:20:
475,192,153725,1,0,0:0:0:20:
109,192,153725,1,0,0:0:0:20:
182,192,153815,1,0,0:0:0:20:
36,192,153906,1,0,0:0:0:20:
256,192,153906,1,0,0:0:0:30:drums.wav
402,192,153906,1,0,0:0:0:20:
475,192,153906,1,0,0:0:0:20:
182,192,153997,1,0,0:0:0:20:
256,192,154088,1,0,0:0:0:20:
36,192,154088,1,0,0:0:0:20:
109,192,154179,1,0,0:0:0:20:
329,192,154179,1,0,0:0:0:20:
182,192,154270,1,0,0:0:0:20:
402,192,154270,1,0,0:0:0:20:
475,192,154270,1,0,0:0:0:20:
36,192,154452,1,0,0:0:0:20:
109,192,154452,1,0,0:0:0:20:
256,192,154452,1,0,0:0:0:30:drums.wav
475,192,154452,1,0,0:0:0:20:
329,192,154543,1,0,0:0:0:20:
475,192,154634,1,0,0:0:0:20:
182,192,154634,1,0,0:0:0:20:
402,192,154725,1,0,0:0:0:20:
109,192,154725,1,0,0:0:0:20:
329,192,154815,1,0,0:0:0:20:
36,192,154815,1,0,0:0:0:20:
256,192,154815,1,0,0:0:0:20:
402,192,154906,1,0,0:0:0:20:
109,192,154906,1,0,0:0:0:20:
182,192,154997,1,0,0:0:0:20:
256,192,154997,1,0,0:0:0:20:
475,192,154997,1,0,0:0:0:20:
402,192,155088,1,0,0:0:0:20:
329,192,155179,1,0,0:0:0:20:
36,192,155179,1,0,0:0:0:20:
109,192,155179,1,0,0:0:0:20:
256,192,155270,1,0,0:0:0:20:
36,192,155361,1,0,0:0:0:20:
182,192,155361,1,0,0:0:0:30:drums.wav
109,192,155361,1,4,0:0:0:30:
402,192,155361,1,0,0:0:0:20:
475,192,155361,1,0,0:0:0:20:
256,192,155452,1,0,0:0:0:20:
329,192,155543,1,0,0:0:0:20:
402,192,155634,1,0,0:0:0:20:
182,192,155725,1,0,0:0:0:20:
475,192,155725,1,0,0:0:0:20:
36,192,155725,1,0,0:0:0:20:
329,192,155906,1,0,0:0:0:30:drums.wav
36,192,155906,1,0,0:0:0:20:
475,192,155906,1,0,0:0:0:20:
109,192,155906,1,0,0:0:0:20:
182,192,155997,1,0,0:0:0:20:
256,192,156088,1,0,0:0:0:20:
329,192,156088,1,0,0:0:0:20:
475,192,156088,1,0,0:0:0:20:
475,192,156270,1,0,0:0:0:20:
256,192,156270,1,0,0:0:0:20:
402,192,156361,1,0,0:0:0:20:
182,192,156361,1,0,0:0:0:20:
329,192,156452,1,0,0:0:0:20:
109,192,156452,1,0,0:0:0:20:
36,192,156452,1,0,0:0:0:20:
36,192,156634,1,0,0:0:0:20:
402,192,156634,1,0,0:0:0:20:
109,192,156725,1,0,0:0:0:20:
329,192,156725,1,0,0:0:0:20:
402,192,156815,1,0,0:0:0:20:
475,192,156815,1,0,0:0:0:20:
256,192,156815,1,0,0:0:0:30:drums.wav
182,192,156815,1,4,0:0:0:30:
36,192,156815,1,0,0:0:0:20:
182,192,156997,1,0,0:0:0:20:
329,192,156997,1,0,0:0:0:20:
36,192,157179,1,0,0:0:0:20:
109,192,157179,1,0,0:0:0:20:
256,192,157179,1,0,0:0:0:30:drums.wav
402,192,157179,1,4,0:0:0:30:
475,192,157179,1,0,0:0:0:20:
182,192,157361,1,0,0:0:0:20:
329,192,157361,1,0,0:0:0:20:
36,192,157543,1,0,0:0:0:20:
182,192,157543,1,0,0:0:0:30:drums.wav
402,192,157543,1,4,0:0:0:30:
475,192,157543,1,0,0:0:0:20:
329,192,157543,1,0,0:0:0:20:
109,192,157543,1,0,0:0:0:20:
256,192,157725,1,0,0:0:0:20:
329,192,157906,1,0,0:0:0:20:
36,192,157906,1,0,0:0:0:20:
109,192,158088,1,0,0:0:0:20:
402,192,158088,1,0,0:0:0:20:
36,192,158270,128,0,158634:0:0:0:20:
109,192,158270,128,0,158634:0:0:0:20:
256,192,158270,128,0,158634:0:0:0:30:drums.wav
329,192,158270,128,4,158634:0:0:0:30:
402,192,158270,128,0,158634:0:0:0:20:
475,192,158270,128,0,158634:0:0:0:20:
182,192,158815,1,0,0:0:0:20:
329,192,158906,1,0,0:0:0:20:
109,192,158997,128,0,159361:0:0:0:20:
182,192,158997,128,4,159361:0:0:0:30:
256,192,158997,128,0,159361:0:0:0:30:drums.wav
402,192,158997,128,0,159361:0:0:0:20:
475,192,158997,128,0,159361:0:0:0:20:
36,192,158997,128,0,159361:0:0:0:20:
36,192,159543,1,0,0:0:0:20:
256,192,159634,1,0,0:0:0:20:
36,192,159725,128,0,160088:0:0:0:20:
109,192,159725,128,0,160088:0:0:0:20:
182,192,159725,128,0,160452:0:0:0:30:drums.wav
329,192,159725,128,4,160452:0:0:0:30:
402,192,159725,128,0,160088:0:0:0:20:
475,192,159725,128,0,160088:0:0:0:20:
256,192,160088,128,0,160452:0:0:0:20:
36,192,160815,1,0,0:0:0:20:
475,192,160815,1,0,0:0:0:20:
109,192,160906,1,0,0:0:0:20:
402,192,160906,1,0,0:0:0:20:
182,192,160997,1,0,0:0:0:20:
329,192,160997,1,0,0:0:0:20:
256,192,161088,1,0,0:0:0:20:
36,192,161179,1,0,0:0:0:20:
109,192,161179,1,0,0:0:0:20:
182,192,161179,1,0,0:0:0:30:drums.wav
329,192,161179,1,4,0:0:0:30:
402,192,161179,1,0,0:0:0:20:
475,192,161179,1,0,0:0:0:20:
256,192,161361,1,0,0:0:0:20:
402,192,161361,1,0,0:0:0:20:
109,192,161361,1,0,0:0:0:20:
329,192,161543,1,0,0:0:0:20:
36,192,161543,1,0,0:0:0:20:
182,192,161543,1,0,0:0:0:20:
475,192,161543,1,0,0:0:0:20:
256,192,161543,1,0,0:0:0:20:
256,192,161725,1,0,0:0:0:20:
402,192,161725,1,0,0:0:0:20:
109,192,161725,1,0,0:0:0:20:
182,192,161906,1,0,0:0:0:20:
36,192,161906,1,0,0:0:0:20:
475,192,161906,1,0,0:0:0:20:
329,192,161906,1,0,0:0:0:20:
402,192,161906,1,0,0:0:0:20:
402,192,162088,1,0,0:0:0:20:
109,192,162088,1,0,0:0:0:20:
256,192,162088,1,0,0:0:0:20:
109,192,162270,1,0,0:0:0:20:
182,192,162270,1,0,0:0:0:20:
36,192,162270,1,0,0:0:0:20:
402,192,162270,1,0,0:0:0:20:
475,192,162270,1,0,0:0:0:20:
402,192,162452,1,0,0:0:0:20:
256,192,162452,1,0,0:0:0:20:
109,192,162452,1,0,0:0:0:20:
36,192,162634,1,0,0:0:0:20:
109,192,162634,1,0,0:0:0:20:
182,192,162634,1,0,0:0:0:30:drums.wav
402,192,162634,1,0,0:0:0:20:
475,192,162634,1,0,0:0:0:20:
329,192,162634,1,4,0:0:0:30:
36,192,162815,1,0,0:0:0:20:
256,192,162815,1,0,0:0:0:20:
475,192,162815,1,0,0:0:0:20:
402,192,162997,1,0,0:0:0:20:
329,192,162997,1,0,0:0:0:20:
256,192,162997,1,0,0:0:0:20:
182,192,162997,1,0,0:0:0:20:
109,192,162997,1,0,0:0:0:20:
36,192,163179,1,0,0:0:0:20:
475,192,163179,1,0,0:0:0:20:
256,192,163179,1,0,0:0:0:20:
36,192,163361,1,0,0:0:0:20:
109,192,163361,1,0,0:0:0:20:
182,192,163361,1,0,0:0:0:30:drums.wav
402,192,163361,1,0,0:0:0:20:
329,192,163361,1,4,0:0:0:30:
475,192,163361,1,0,0:0:0:20:
182,192,163543,1,0,0:0:0:20:
329,192,163543,1,0,0:0:0:20:
256,192,163543,1,0,0:0:0:20:
475,192,163725,1,0,0:0:0:20:
256,192,163725,1,0,0:0:0:20:
402,192,163725,1,0,0:0:0:20:
109,192,163725,1,0,0:0:0:20:
36,192,163725,1,0,0:0:0:20:
329,192,163906,1,0,0:0:0:20:
182,192,163906,1,0,0:0:0:20:
256,192,163906,1,0,0:0:0:20:
36,192,164088,1,0,0:0:0:20:
109,192,164088,1,0,0:0:0:20:
329,192,164088,1,4,0:0:0:30:
402,192,164088,1,0,0:0:0:20:
475,192,164088,1,0,0:0:0:20:
182,192,164088,1,0,0:0:0:30:drums.wav
109,192,164209,1,0,0:0:0:20:
182,192,164209,1,0,0:0:0:20:
329,192,164209,1,0,0:0:0:20:
402,192,164209,1,0,0:0:0:20:
109,192,164331,1,0,0:0:0:20:
182,192,164331,1,0,0:0:0:20:
402,192,164331,1,0,0:0:0:20:
329,192,164331,1,0,0:0:0:20:
256,192,164452,1,0,0:0:0:20:
329,192,164573,1,0,0:0:0:20:
475,192,164573,1,0,0:0:0:20:
36,192,164573,1,0,0:0:0:20:
109,192,164573,1,0,0:0:0:20:
329,192,164694,1,0,0:0:0:20:
475,192,164694,1,0,0:0:0:20:
109,192,164694,1,0,0:0:0:20:
36,192,164694,1,0,0:0:0:20:
182,192,164815,1,0,0:0:0:20:
329,192,164815,1,0,0:0:0:20:
475,192,164937,1,0,0:0:0:20:
402,192,164937,1,0,0:0:0:20:
36,192,164937,1,0,0:0:0:20:
182,192,164937,1,0,0:0:0:20:
475,192,165058,1,0,0:0:0:20:
402,192,165058,1,0,0:0:0:20:
36,192,165058,1,0,0:0:0:20:
182,192,165058,1,0,0:0:0:20:
256,192,165179,1,0,0:0:0:20:
475,192,165300,1,0,0:0:0:20:
36,192,165300,1,0,0:0:0:20:
109,192,165300,1,0,0:0:0:20:
402,192,165300,1,0,0:0:0:20:
402,192,165421,1,0,0:0:0:20:
36,192,165421,1,0,0:0:0:20:
109,192,165421,1,0,0:0:0:20:
475,192,165421,1,0,0:0:0:20:
475,192,165543,1,0,0:0:0:20:
182,192,165543,1,0,0:0:0:30:drums.wav
109,192,165543,1,0,0:0:0:20:
36,192,165543,1,0,0:0:0:20:
329,192,165543,1,4,0:0:0:30:
402,192,165543,1,0,0:0:0:20:
109,192,165664,1,0,0:0:0:20:
402,192,165664,1,0,0:0:0:20:
182,192,165664,1,0,0:0:0:20:
329,192,165664,1,0,0:0:0:20:
109,192,165785,1,0,0:0:0:20:
402,192,165785,1,0,0:0:0:20:
182,192,165785,1,0,0:0:0:20:
329,192,165785,1,0,0:0:0:20:
256,192,165906,1,0,0:0:0:20:
329,192,166028,1,0,0:0:0:20:
36,192,166028,1,0,0:0:0:20:
182,192,166028,1,0,0:0:0:20:
402,192,166028,1,0,0:0:0:20:
329,192,166149,1,0,0:0:0:20:
182,192,166149,1,0,0:0:0:20:
36,192,166149,1,0,0:0:0:20:
402,192,166149,1,0,0:0:0:20:
109,192,166270,1,0,0:0:0:20:
402,192,166270,1,0,0:0:0:20:
109,192,166391,1,0,0:0:0:20:
182,192,166391,1,0,0:0:0:20:
329,192,166391,1,0,0:0:0:20:
475,192,166391,1,0,0:0:0:20:
109,192,166512,1,0,0:0:0:20:
182,192,166512,1,0,0:0:0:20:
329,192,166512,1,0,0:0:0:20:
475,192,166512,1,0,0:0:0:20:
256,192,166634,1,0,0:0:0:20:
36,192,166755,1,0,0:0:0:20:
182,192,166755,1,0,0:0:0:20:
329,192,166755,1,0,0:0:0:20:
475,192,166755,1,0,0:0:0:20:
36,192,166876,1,0,0:0:0:20:
182,192,166876,1,0,0:0:0:20:
329,192,166876,1,0,0:0:0:20:
475,192,166876,1,0,0:0:0:20:
475,192,166997,1,0,0:0:0:20:
402,192,166997,1,0,0:0:0:20:
329,192,166997,1,4,0:0:0:30:
182,192,166997,1,0,0:0:0:30:drums.wav
109,192,166997,1,0,0:0:0:20:
36,192,166997,1,0,0:0:0:20:
36,192,168361,1,0,0:0:0:20:
109,192,168406,1,0,0:0:0:20:
256,192,168452,128,0,168634:0:0:0:20:
329,192,168452,128,4,168634:0:0:0:30:
402,192,168452,128,0,168634:0:0:0:20:
475,192,168452,128,0,168634:0:0:0:20:
182,192,168452,128,0,168634:0:0:0:30:drums.wav
36,192,168967,1,0,0:0:0:20:
182,192,168997,128,0,169179:0:0:0:30:drums.wav
256,192,168997,128,0,169179:0:0:0:20:
329,192,168997,128,4,169179:0:0:0:30:
402,192,168997,128,0,169179:0:0:0:20:
475,192,168997,128,0,169179:0:0:0:20:
36,192,169512,128,0,173543:0:0:0:20:
475,192,169512,128,0,173543:0:0:0:20:
109,192,169543,128,0,173543:0:0:0:0:
182,192,169543,128,0,173543:0:0:0:30:drums.wav
402,192,169543,128,0,173543:0:0:0:0:
329,192,169543,128,4,173543:0:0:0:30:
