osu file format v6

[General]
AudioFilename: CVPoR - 04 - The Gears Go Awry.mp3
AudioLeadIn: 0
PreviewTime: 72003
Countdown: 1
SampleSet: Soft
StackLeniency: 0.4
Mode: 0
LetterboxInBreaks: 1

[Editor]
DistanceSpacing: 1.10000002384186
BeatDivisor: 8
GridSize: 8

[Metadata]
Title:The Gears Go Awry
Artist:Michiru Yamane & Yuzo Koshiro
Creator:Mukku
Version:Hard
Source:Castlevania: Portrait of Ruin
Tags:ignorethis

[Difficulty]
HPDrainRate:7
CircleSize:5
OverallDifficulty:6
SliderMultiplier:1.5
SliderTickRate:1

[Events]
//Background and Video events
0,0,"PoRuin.jpg"
//Break Periods
2,63619,70943
2,88078,101201
//Storyboard Layer 0 (Background)
//Storyboard Layer 1 (Fail)
//Storyboard Layer 2 (Pass)
//Storyboard Layer 3 (Foreground)
//Storyboard Sound Samples
//Background Colour Transformations
3,100,163,162,255

[TimingPoints]
25597,504.307627652868,4,2,0,60,1,0
33539,-100,4,1,0,59,0,0
42881,-50,4,1,0,51,0,0
43637,-100,4,1,0,61,0,0
44898,-50,4,1,0,51,0,0
45592,-100,4,1,0,50,0,0
46840,-50,4,1,0,51,0,0
47673,-200,4,2,0,70,0,0
49564,-100,4,2,0,80,0,0
56248,-100,4,2,0,65,0,0
57004,-100,4,2,0,39,0,0
57130,-100,4,2,0,45,0,0
57256,-100,4,2,0,65,0,0
57383,-100,4,2,0,61,0,0
58013,-100,4,2,0,56,0,0
58139,-100,4,2,0,65,0,0
58391,-100,4,2,0,73,0,0
59400,-100,4,2,0,82,0,0
71758,-100,4,1,0,60,0,0
80459,-100,4,1,0,57,0,0
80964,-100,4,1,0,60,0,0
81468,-100,4,1,0,58,0,0
81973,-100,4,1,0,60,0,0
84369,-100,4,2,0,60,0,0
84495,-100,4,1,0,60,0,0
85251,-100,4,2,0,60,0,0
86008,-100,4,1,0,60,0,0
86512,-100,4,2,0,60,0,0
109967,-100,4,1,0,60,0,0
123460,-50,4,1,0,60,0,0
124343,-100,4,1,0,60,0,0
139476,-100,4,1,0,33,0,0
140232,-100,4,1,0,55,0,0
149060,-100,4,2,0,78,0,0
150069,-100,4,1,0,57,0,0
152591,-100,4,2,0,79,0,0
153347,-100,4,1,0,63,0,0
153852,-100,4,2,0,79,0,0
154104,-100,4,1,0,60,0,0
155113,-100,4,2,0,80,0,0
156374,-100,4,1,0,60,0,0
157383,-100,4,2,0,80,0,0
158644,-100,4,1,0,59,0,0
170750,-50,4,1,0,59,0,0
173642,-100,4,1,0,27,0,0

[Colours]
Combo1 : 137,69,69
Combo2 : 184,12,12
Combo3 : 78,11,7
Combo4 : 210,105,0

[HitObjects]
160,96,25597,6,0,B|80:96,2,75
240,96,26353,1,0
320,96,26605,2,0,B|416:96,1,75
352,160,27109,1,0
272,176,27362,1,0
368,224,27614,5,0
288,240,27866,1,0
208,256,28118,2,0,B|208:176,1,75
144,224,28622,2,0,B|144:144|144:144|64:144,1,150
208,80,29631,5,0
208,80,29757,1,0
208,80,29883,1,0
288,80,30135,1,0
368,80,30387,1,0
448,80,30640,5,0
448,80,30766,1,0
448,80,30892,1,0
416,144,31144,2,0,B|304:144,1,75
272,144,31648,5,0
144,144,31900,1,0
272,144,32152,1,0
208,240,32405,1,0
208,240,32657,2,0,B|208:208|240:192|256:224|256:272|240:288|192:288|176:256|160:224|160:256,1,150
320,192,33665,5,8
320,80,33918,1,0
320,80,34044,1,0
320,80,34170,1,4
192,80,34422,1,0
192,208,34674,5,8
320,208,34926,1,0
320,208,35052,1,0
320,208,35178,1,4
256,144,35430,1,0
256,256,35683,5,8
256,256,35809,1,0
144,144,36061,1,0
144,144,36187,1,4
256,32,36439,1,0
368,144,36691,5,8
256,144,36943,1,0
256,144,37196,1,0
320,208,37448,1,4
320,208,37574,1,0
192,208,37826,1,4
192,208,37952,1,0
192,80,38204,2,0,B|208:64|224:48|288:48|320:64|336:96,1,150
416,112,38961,5,0
384,192,39213,1,0
416,272,39465,1,0
448,192,39717,1,0
416,112,39969,1,0
416,112,40095,1,0
416,112,40221,2,0,B|304:112,1,75
240,112,40726,5,0
240,112,40852,1,0
240,112,40978,1,0
144,112,41230,1,0
256,256,41734,5,0
256,256,41860,1,0
160,256,42113,1,0
160,256,42239,2,0,B|192:224|240:208|272:208|320:224,1,150
384,216,42995,6,0,B|384:120,1,75
428,141,43247,2,0,B|428:221,2,75,0|0|0
416,48,43752,5,0
416,48,43878,1,0
320,80,44130,1,0
320,80,44256,2,0,B|288:128|224:128|192:80,1,150
192,160,45012,6,0,B|192:240,1,75
237,235,45264,2,0,B|237:155,1,75
336,160,45643,6,0,B|400:160,2,37.5
336,256,46147,1,0
336,256,46273,2,0,B|160:256,1,150
200,200,46903,6,0,B|296:200,1,75
248,152,47156,2,0,B|152:152,1,75
201,102,47408,2,0,B|281:102,1,75
352,96,47786,6,0,B|352:208,1,75,0|0
224,160,48795,2,0,B|224:272,1,75
400,240,49803,5,2
304,240,50055,1,0
304,240,50181,1,0
304,240,50308,1,0
208,240,50560,1,2
304,240,50812,1,0
304,144,51064,1,0
304,144,51190,1,0
304,144,51316,1,0
400,144,51568,1,2
304,48,51820,5,0
224,96,52073,2,0,B|224:176,1,75
144,144,52577,2,0,B|144:256,1,75
224,272,53081,1,0
224,272,53333,2,0,B|224:192,1,75
304,160,53838,5,2
352,80,54090,1,0
352,80,54216,1,0
352,80,54342,1,0
400,160,54594,1,2
400,160,54720,1,0
448,248,54972,1,0
448,248,55098,1,0
352,248,55351,1,2
256,248,55603,1,0
352,248,55855,1,2
288,320,56107,5,0
192,320,56359,2,0,B|160:304|144:272|160:224|192:208|192:176,1,150
211,153,56990,1,0
244,128,57116,1,0
283,115,57242,1,0
324,111,57368,6,0,B|356:111|388:143|404:175|404:223,1,150
392,261,57998,2,0,B|359:285,1,37.5
327,290,58250,1,0
327,290,58376,2,0,B|271:269|254:220|255:165,1,150
263,180,59007,5,0
263,180,59133,1,0
263,180,59259,1,0
263,180,59385,2,0,B|256:112|219:91|180:81|145:80,1,150
120,155,60142,5,0
142,242,60394,2,0,B|211:294|296:306|367:299|432:254,1,300
427,167,61654,1,0
427,167,61781,1,0
428,166,61907,2,0,B|390:96|336:60|229:54|146:76|84:100|64:120|26:196,1,450
256,48,71993,5,0
256,144,72245,1,8
288,224,72497,1,0
256,304,72749,1,0
256,304,72875,1,0
256,304,73001,1,0
224,224,73254,5,8
96,224,73506,1,0
224,224,73758,1,0
256,144,74010,2,0,B|304:144,2,37.5,0|0|8
432,112,74766,5,0
341,148,75019,1,0
414,211,75271,1,8
321,240,75523,1,0
383,164,75775,1,8
298,138,76027,1,0
323,96,76153,1,0
367,76,76279,1,0
208,192,76784,5,0
304,192,77036,1,4
191,192,77288,1,8
318,192,77540,1,4
171,192,77792,1,8
331,192,78044,2,0,B|379:192,2,37.5
160,96,78801,5,0
208,96,78927,1,0
256,96,79053,1,8
352,64,79305,1,0
448,96,79557,1,8
352,128,79810,1,4
256,96,80062,5,0
208,96,80188,1,0
160,96,80314,1,0
64,96,80566,2,0,B|64:48,2,37.5
64,192,81070,1,0
64,192,81196,1,0
64,192,81322,1,0
160,192,81575,2,0,B|112:192,2,37.5
250,154,82079,5,4
338,114,82331,1,4
311,207,82583,1,0
280,114,82835,1,0
362,166,83088,1,4
281,205,83340,1,0
274,297,83592,2,0,B|275:243|275:243|320:253|353:206|253:203,1,150
282,209,84222,5,0
282,209,84348,1,2
200,152,84600,1,0
200,152,84727,1,0
288,104,84979,1,0
288,104,85105,1,0
360,168,85357,1,2
264,160,85609,1,8
328,232,85861,1,0
228,234,86113,5,0
185,210,86239,1,0
152,173,86366,1,0
134,76,86618,2,0,B|81:76|77:76,2,37.5,2|0|8
232,80,87122,1,0
328,96,87374,1,2
328,96,87500,1,0
328,96,87626,1,8
368,184,87878,1,0
336,256,102251,6,0,B|416:256,2,75
256,256,103008,1,2
176,256,103260,2,0,B|96:256,1,75
160,192,103764,1,0
62,180,104016,1,2
159,171,104268,1,0
62,164,104521,1,0
112,96,104773,6,0,B|208:96,1,75,0|2
272,96,105277,1,0
352,96,105529,1,0
352,96,105655,1,0
352,96,105781,1,0
432,96,106034,1,2
391,167,106286,6,0,B|448:160,2,37.5
309,180,106790,1,4
227,193,107042,1,0
309,199,107294,2,0,B|376:205,2,37.5
390,206,107799,1,4
308,219,108051,1,0
226,234,108303,5,8
226,234,108429,1,0
226,234,108555,1,0
144,246,108807,1,4
225,254,109059,1,8
225,254,109185,1,0
225,254,109312,1,2
306,262,109564,1,0
306,262,109816,1,4
144,128,110320,5,4
224,96,110572,1,4
304,128,110824,1,0
384,96,111077,1,0
304,64,111329,1,4
224,96,111581,5,4
144,64,111833,1,0
64,96,112085,1,0
144,128,112337,1,4
224,96,112590,1,0
224,96,112716,5,0
224,96,112842,1,0
304,128,113094,1,0
224,96,113346,1,4
304,64,113598,1,0
384,96,113850,1,0
304,128,114102,1,0
224,160,114355,5,0
224,160,114481,1,0
224,240,114733,1,0
224,240,114859,1,0
152,199,115111,2,0,B|322:199|322:199|320:192,1,150
384,199,115868,1,0
466,200,116120,1,0
425,271,116372,5,0
425,271,116498,1,0
425,271,116624,1,0
336,272,116876,1,0
256,272,117128,1,0
176,272,117380,1,0
176,272,117507,1,0
176,272,117633,1,0
96,272,117885,2,0,B|60:244|50:178|56:148|71:120,1,150
416,80,118893,6,0,B|452:108|462:174|456:204|441:232,1,150
416,240,119524,1,0
375,247,119650,1,0
333,245,119776,1,0
294,230,119902,1,0
224,160,120154,1,0
168,56,120406,6,0,B|196:20|262:10|292:16|320:31,1,150
256,176,121415,1,0
256,176,121919,1,0
256,176,122424,1,0
352,304,122928,6,0,B|324:340|258:350|228:344|200:329,1,150
192,304,123558,6,0,B|112:288,1,75
128,240,123810,2,0,B|208:256,1,75
208,208,124063,2,0,B|128:192,1,75
144,112,124441,6,2,B|188:82|221:76|259:78|293:83,1,150
272,144,125197,1,0
208,192,125449,2,2,B|252:222|291:220|329:209|360:184,1,150
96,192,126458,5,2
162,143,126710,1,0
198,123,126836,1,0
238,115,126962,1,8
320,121,127214,1,2
393,159,127467,1,2
413,194,127593,1,0
413,235,127719,1,0
355,293,127971,1,8
355,293,128223,5,2
277,297,128475,1,0
277,255,128601,1,0
276,213,128727,1,0
217,270,128980,2,0,B|217:111,1,150,4|0
227,130,129610,1,8
227,130,129736,1,0
227,130,129862,1,0
227,130,129988,2,0,B|192:130|162:182|166:250|166:269,1,150,4|4
230,306,130745,5,2
297,250,130997,1,0
355,191,131249,1,8
272,190,131501,5,0
332,133,131753,1,2
381,66,132005,1,0
298,61,132258,5,8
242,122,132510,1,0
181,178,132762,1,2
123,119,133014,6,0,B|122:81|140:82|160:82|160:111|160:144|132:143|92:143|89:107,1,150
87,219,133770,1,2
212,220,134023,2,0,B|212:179|238:180|261:180|262:208|264:233|261:258|221:259|196:258,1,150
226,267,134653,1,0
226,267,134779,5,0
226,267,134905,1,0
226,267,135031,2,0,B|274:298|323:287|361:270|383:238,1,150
376,160,135788,1,0
320,80,136040,2,0,B|288:112|240:128|192:112|160:64,1,150
96,112,137048,2,0,B|128:144|144:192|128:240|80:272,1,150
304,192,138309,5,0
256,192,138435,1,0
208,192,138561,2,0,B|260:226|302:226|360:182,1,150
256,80,139570,1,0
256,80,140074,1,0
256,160,140326,5,2
288,160,140453,1,0
320,160,140579,2,0,B|160:160,1,150
145,238,141335,5,8
185,227,141461,1,0
224,238,141587,2,0,B|259:216|314:211|352:227|386:256,1,150
403,167,142344,6,0,B|419:118,1,37.5,2|0
416,80,142596,2,0,B|410:36|382:6|331:-10|279:13,2,150,0|0|8
96,128,144109,1,0
96,288,144613,6,0,B|240:176,1,150
288,144,145370,1,2
320,128,145496,1,0
352,112,145622,2,0,B|369:153|386:188|372:240|351:273|351:273|352:272,1,150,8|2
288,304,146378,5,0
253,281,146504,1,0
227,248,146630,2,0,B|208:214|199:172|200:136|207:92,1,150,8|0
288,64,147387,5,2
329,64,147513,1,0
376,64,147639,2,0,B|301:8,2,75,0|0|12
432,224,148648,5,0
399,197,148774,1,0
364,175,148900,1,0
287,143,149152,1,2
204,138,149404,1,0
204,138,149530,1,0
204,138,149656,5,4
125,164,149908,1,2
75,227,150160,1,8
75,227,150413,1,2
132,286,150665,2,0,B|168:257|222:252|253:264|285:296,1,150
350,285,151421,5,8
344,244,151547,1,0
344,244,151673,1,0
331,204,151799,1,0
331,204,151926,1,0
267,152,152178,2,0,B|229:117|176:117,1,75,8|0
258,60,152682,5,2
258,60,152808,1,2
258,60,152934,1,2
400,64,153186,2,0,B|448:80|464:128,2,75,8|0|0
258,60,153943,5,2
112,64,154195,2,0,B|80:80|48:128,1,75,8|0
80,192,154699,1,0
121,192,154825,1,0
162,192,154951,1,8
240,192,155204,2,0,B|214:229|156:230,1,75,0|2
240,192,155708,5,0
320,192,155960,1,0
361,191,156086,1,2
402,191,156212,1,0
440,192,156338,1,0
480,192,156464,1,0
422,132,156716,6,0,B|480:132,2,37.5
343,107,157221,1,0
261,95,157473,1,2
179,107,157725,1,8
179,107,157851,1,0
104,152,158103,1,2
104,152,158229,1,0
181,192,158482,1,2
256,248,158734,5,0
352,248,158986,1,0
224,248,159238,1,0
376,248,159490,1,0
200,248,159742,1,0
264,70,160247,6,0,B|320:96|371:97|419:70,1,150
427,239,161255,2,0,B|426:194|426:194|385:194|385:194|384:237|384:237|384:267,1,150
301,258,162012,1,0
218,261,162264,2,0,B|218:198|218:198|316:198,1,150
58,55,163272,6,0,B|140:55|140:55|140:152,1,150
276,124,164029,1,0
422,129,164281,2,0,B|422:211|422:211|330:211,1,150
112,192,165542,5,0
144,176,165668,1,0
176,160,165794,2,0,B|222:136|263:128|302:128|332:132,1,150,2|0
384,192,166550,1,0
350,215,166677,1,0
311,232,166803,2,0,B|273:251|230:258|194:260|151:257,2,150,8|0|0
257,75,168316,1,8
415,120,168820,6,0,B|451:172|456:212|440:258|426:278,1,150,2|0
378,323,169576,1,0
338,335,169702,1,0
296,336,169828,2,0,B|249:328|217:317|187:293|158:265,1,150,2|0
144,96,170837,6,0,B|176:80|176:80|208:112|208:112|240:80|240:80|272:112|272:112|304:80|304:80|336:112|336:112|368:80,1,300
400,288,171846,6,0,B|368:272|368:272|336:304|336:304|304:272|304:272|272:304|272:304|240:272|240:272|208:304|208:304|176:272,1,300
64,192,172854,6,0,B|96:176|96:176|128:208|128:208|160:176|160:176|192:208|192:208|224:176|224:176|256:208|256:208|288:176,1,300
256,208,173863,12,0,178402
