osu file format v5

[General]
AudioFilename: 119 Ancient Civilization Exhibition.mp3
AudioLeadIn: 2000
PreviewTime: 477
Countdown: 1
SampleSet: Normal
StackLeniency: 0.7
Mode: 0
LetterboxInBreaks: 1
EditorDistanceSpacing: 1

[Metadata]
Title:Ancient Civilization Exhibition
Artist:Michiko Naruke
Creator:James2250
Version:Zeikfried
Source:Wild Arms
Tags:

[Difficulty]
HPDrainRate:7
CircleSize:6
OverallDifficulty:8
SliderMultiplier:1.4
SliderTickRate:1

[Events]
//Background and Video events
0,0,"wild_arms_wallpaper(jojo_stix).jpg"
//Break Periods
2,58068,62596
//Storyboard Layer 0 (Background)
//Storyboard Layer 1 (Fail)
//Storyboard Layer 2 (Pass)
//Storyboard Layer 3 (Foreground)
//Storyboard Sound Samples
//Background Colour Transformations
3,100,163,162,255

[TimingPoints]
477,521.739130434783,4,1,0,70,1,0
78737,-100,4,1,0,18,0,0

[HitObjects]
72,56,477,1,8
208,56,998,1,0
208,128,1259,1,0
208,200,1520,1,8
344,200,2042,1,0
344,272,2303,1,0
344,344,2563,1,8
480,344,3085,1,8
480,272,3346,1,0
480,200,3607,1,8
480,56,4129,5,4
336,56,4650,1,8
336,128,4911,1,0
336,200,5172,1,0
192,200,5694,1,8
192,128,5955,1,0
192,56,6216,1,0
48,56,6737,1,8
48,128,6998,1,0
48,200,7259,1,8
48,336,7781,1,8
120,336,8042,5,0
152,336,8172,1,0
184,336,8303,1,0
184,304,8433,1,0
184,272,8563,1,0
184,240,8694,1,0
184,208,8824,1,4
184,80,9346,1,2
112,80,9607,1,0
184,80,9868,1,2
256,80,10129,1,0
464,80,10911,5,4
368,192,11433,1,2
320,240,11694,1,0
272,288,11955,1,2
216,336,12216,1,0
48,208,12998,5,0
96,160,13259,1,0
144,112,13520,1,0
192,64,13781,1,2
224,64,13911,1,2
256,64,14042,1,2
328,64,14303,1,0
400,64,14563,2,0,B|440:128|456:80,2,70,0|0|0
392,200,15607,1,0
392,336,16129,1,0
136,360,17172,5,0
104,360,17303,1,0
72,360,17433,1,0
72,328,17563,1,0
72,288,17694,1,0
72,256,17824,1,0
72,216,17955,1,0
72,184,18085,1,0
104,184,18216,1,4
176,184,18477,1,0
176,112,18737,1,0
104,112,18998,1,0
176,112,19259,1,0
248,112,19520,2,0,B|312:112,6,35
440,320,21346,5,0
400,256,21607,1,0
352,200,21868,1,2
328,224,21998,1,2
304,248,22129,1,2
304,320,22390,1,0
232,320,22650,1,0
232,248,22911,1,2
208,224,23042,1,2
184,200,23172,1,0
112,200,23433,1,0
112,56,23955,1,0
248,56,24477,1,0
384,56,24998,1,4
384,264,25781,5,0
312,264,26042,1,0
384,264,26303,1,0
384,336,26563,1,8
312,336,26824,1,0
240,336,27085,1,0
240,264,27346,1,0
168,264,27607,5,8
168,336,27868,1,0
96,336,28129,1,0
96,264,28390,1,0
96,336,28650,1,8
24,336,28911,1,0
24,264,29172,1,0
24,192,29433,1,0
24,120,29694,2,0,B|72:40|96:24|136:16|176:16|216:16,1,210,0|0
328,16,30998,1,0
400,16,31259,1,0
400,152,31781,5,0
328,152,32042,1,2
296,152,32172,1,2
264,152,32303,1,2
192,152,32563,1,0
120,152,32824,1,0
120,288,33346,6,0,B|120:368,2,70,0|0|8
192,288,34129,1,2
224,288,34259,1,2
256,288,34390,1,2
328,288,34650,1,0
400,288,34911,1,8
472,288,35172,1,2
472,256,35303,1,2
472,224,35433,1,2
472,152,35694,1,0
408,112,35955,5,0
368,48,36216,1,2
352,80,36346,1,2
336,112,36477,1,2
192,112,36998,5,0
120,112,37259,1,2
96,80,37390,1,2
72,48,37520,1,2
64,184,38042,5,8
112,232,38303,1,0
136,256,38433,1,0
160,280,38563,1,0
208,232,38824,1,0
248,288,39085,1,8
312,320,39346,1,0
336,296,39477,1,0
360,272,39607,1,0
408,320,39868,5,0
456,272,40129,1,8
408,224,40390,1,2
456,176,40650,1,2
456,104,40911,1,2
256,192,41172,12,8,42216
480,40,42477,5,0
408,40,42737,1,0
408,112,42998,2,0,B|368:112,2,35
408,184,43520,1,0
336,184,43781,1,0
336,256,44042,2,0,B|288:256,2,35
336,328,44563,1,2
264,328,44824,1,2
192,328,45085,1,2
192,256,45346,1,2
192,112,45868,6,0,B|248:112,4,35
48,112,46911,1,0
48,184,47172,1,0
48,256,47433,1,0
48,328,47694,1,0
256,328,48477,5,0
392,328,48998,1,0
392,256,49259,1,0
392,184,49520,1,0
392,112,49781,1,0
184,112,50563,5,0
112,112,50824,1,2
112,112,50955,1,2
112,112,51085,1,2
112,184,51346,1,0
40,184,51607,1,0
40,256,51868,1,2
40,256,51998,1,2
40,256,52129,1,2
40,328,52390,1,0
112,328,52650,1,0
248,328,53172,1,0
384,328,53694,1,0
384,256,53955,5,2
352,232,54085,1,2
320,208,54216,1,2
248,208,54477,1,2
216,184,54607,1,2
184,160,54737,1,2
176,88,54998,6,0,B|232:88,6,35
104,88,56042,1,0
104,160,56303,2,2,B|104:232,1,70
104,296,56824,1,0
184,296,57085,2,2,B|264:296,1,70
312,296,57607,1,0
384,296,57868,1,4
88,64,63346,5,0
160,64,63607,1,0
160,136,63868,1,0
160,208,64129,1,8
160,280,64390,1,0
160,352,64650,1,0
232,352,64911,1,0
304,352,65172,5,8
304,280,65433,1,0
304,208,65694,1,0
376,208,65955,1,0
448,208,66216,1,8
448,136,66477,1,0
448,64,66737,1,0
376,64,66998,1,0
304,64,67259,1,4
160,64,67781,1,0
88,64,68042,1,0
88,200,68563,1,0
160,200,68824,1,0
160,336,69346,5,0
232,336,69607,1,0
304,336,69868,1,0
304,264,70129,1,0
304,192,70390,1,0
304,56,70911,1,0
256,192,71433,12,4,73520
280,40,74563,5,4
232,88,74824,1,2
208,112,74955,1,2
184,136,75085,1,2
128,184,75346,1,2
152,208,75477,1,2
176,232,75607,1,2
232,272,75868,5,8
288,224,76129,1,0
336,168,76390,1,0
376,112,76650,1,8
424,160,76911,1,0
384,216,77172,1,0
448,248,77433,1,0
408,304,77694,1,8
368,360,77955,1,0
312,312,78216,1,0
264,360,78477,1,0
256,192,78737,12,0,79781
