osu file format v5

[General]
AudioFilename: 119 Ancient Civilization Exhibition.mp3
AudioLeadIn: 2000
PreviewTime: 477
Countdown: 1
SampleSet: Normal
StackLeniency: 0.7
Mode: 0
LetterboxInBreaks: 1
EditorDistanceSpacing: 0.800000011920929

[Metadata]
Title:Ancient Civilization Exhibition
Artist:Michiko Naruke
Creator:James2250
Version:Harken
Source:Wild Arms
Tags:

[Difficulty]
HPDrainRate:5
CircleSize:5
OverallDifficulty:5
SliderMultiplier:1.4
SliderTickRate:1

[Events]
//Background and Video events
0,0,"wild_arms_wallpaper(jojo_stix).jpg"
//Break Periods
//Storyboard Layer 0 (Background)
//Storyboard Layer 1 (Fail)
//Storyboard Layer 2 (Pass)
//Storyboard Layer 3 (Foreground)
//Storyboard Sound Samples
//Background Colour Transformations
3,100,163,162,255

[TimingPoints]
477,521.739130434783,4,1,0,71,1,0
78737,-100,4,1,0,20,0,0

[HitObjects]
32,208,477,1,8
144,208,998,2,0,B|144:360,1,140,0|8
256,344,2042,2,0,B|256:192,1,140,0|8
368,208,3085,2,8,B|368:360,1,140,8|4
480,344,4129,6,0,B|480:192,1,140,0|8
368,184,5172,2,0,B|368:32,1,140,0|8
256,48,6216,2,0,B|256:200,1,140,0|8
144,184,7259,2,0,B|144:32,1,140,8|4
32,48,8303,6,0,B|32:136,2,70
32,160,9346,1,0
32,216,9607,1,0
32,272,9868,2,0,B|112:272,1,70,0|2
272,272,10911,1,0
384,272,11433,1,0
384,216,11694,1,0
384,160,11955,2,0,B|288:160,1,70,0|2
448,64,12998,6,0,B|288:64,2,140,8|0|8
448,120,14303,1,0
448,176,14563,1,0
448,232,14824,1,0
448,288,15085,2,0,B|280:288,1,140,8|0
304,176,16129,1,8
120,24,17172,5,2
64,24,17433,2,0,B|64:112,1,70,0|0
120,96,17955,1,0
120,152,18216,1,2
120,208,18477,2,2,B|200:208,1,70,0|0
192,264,18998,1,0
248,264,19259,1,2
304,264,19520,1,0
360,264,19781,2,2,B|360:336,2,70,0|0|2
360,40,21346,5,0
304,40,21607,1,0
304,96,21868,1,8
304,152,22129,2,0,B|208:152,3,70,0|0|0|8
176,152,23172,1,0
120,152,23433,1,0
120,264,23955,1,0
232,264,24477,1,0
344,264,24998,1,0
344,40,26042,6,0,B|184:40,2,140,8|0|8
344,96,27346,1,0
296,128,27607,1,0
256,168,27868,1,0
296,208,28129,1,8
296,264,28390,2,0,B|296:344,2,70
240,264,29172,1,8
240,208,29433,1,0
232,152,29694,6,0,B|168:112|128:72|24:96|24:120,2,210,0|0|0
120,160,31781,1,0
120,216,32042,1,0
120,272,32303,1,8
176,272,32563,1,0
176,328,32824,1,0
288,328,33346,2,0,B|448:328,1,140
256,192,34129,12,4,35955
248,72,36998,5,0
24,72,38042,5,0
24,128,38303,1,0
80,128,38563,1,0
80,184,38824,2,0,B|160:184,2,70,0|8|0
80,240,39607,1,0
80,296,39868,1,0
136,296,40129,1,8
192,296,40390,1,0
192,240,40650,1,8
248,240,40911,2,8,B|328:240,1,70,0|8
312,16,42216,5,0
256,16,42477,1,0
200,16,42737,2,0,B|200:112,2,70,0|0|8
144,16,43520,1,0
88,16,43781,2,0,B|88:96,2,70,0|0|8
32,16,44563,1,0
32,72,44824,1,8
32,128,45085,1,8
32,184,45346,1,4
144,184,45868,6,0,B|240:184,2,70,0|0|0
144,296,46911,1,0
200,296,47172,1,0
256,296,47433,2,0,B|256:376,1,70,0|2
416,368,48477,1,0
416,256,48998,2,0,B|416:184,1,70
416,128,49520,1,0
360,128,49781,1,2
192,128,50563,5,0
136,128,50824,1,0
192,128,51085,1,0
192,184,51346,2,0,B|192:272,3,70
136,256,52390,1,0
80,256,52650,1,0
80,144,53172,1,0
80,32,53694,1,0
360,32,54737,6,0,B|360:120,4,70
416,32,56042,1,0
472,32,56303,1,0
472,88,56563,1,0
472,144,56824,2,0,B|400:144,4,70
304,296,58911,5,0
248,296,59172,1,0
192,296,59433,2,0,B|192:200,1,70,0|8
136,224,59955,1,0
136,168,60216,1,0
192,168,60477,2,0,B|192:88,1,70,0|8
192,40,60998,2,0,B|368:40,3,140
496,88,63346,5,0
456,128,63607,1,0
488,168,63868,1,0
448,208,64129,1,8
488,240,64390,2,0,B|488:328,2,70
432,240,65172,1,8
392,280,65433,1,0
352,240,65694,1,0
312,280,65955,6,0,B|216:280,2,70,0|8|0
272,232,66737,1,0
232,192,66998,1,0
192,152,67259,1,8
152,48,67781,1,0
208,48,68042,1,0
320,48,68563,1,0
376,48,68824,1,0
488,48,69346,6,0,B|488:216,2,140
376,48,70911,1,0
376,160,71433,1,0
256,192,71694,12,0,73520
256,320,74563,5,0
40,320,75607,5,8
72,272,75868,1,0
104,224,76129,1,0
136,272,76390,1,0
168,224,76650,1,8
200,176,76911,1,0
232,224,77172,1,0
256,176,77433,1,0
288,128,77694,1,8
320,176,77955,1,0
352,128,78216,1,0
376,80,78477,1,0
256,192,78737,12,0,79781
