osu file format v7

[General]
AudioFilename: KITTO_ASHITA_WA_HARERU_KARA.mp3
AudioLeadIn: 0
PreviewTime: -1
Countdown: 0
SampleSet: Normal
StackLeniency: 0.2
Mode: 0
LetterboxInBreaks: 1
StoryFireInFront: 0
SkinPreference:Default

[Editor]
DistanceSpacing: 0.800000011920929
BeatDivisor: 4
GridSize: 32

[Metadata]
Title:Kitto Ashita Wa Hareru Kara Full ver.
Artist:Michiko Kawai
Creator:nonny43055
Version:Nuclear
Source:
Tags:

[Difficulty]
HPDrainRate:4
CircleSize:5
OverallDifficulty:7
SliderMultiplier:1.4
SliderTickRate:2

[Events]
//Background and Video events
0,0,"Bomberman.jpg"
//Break Periods
//Storyboard Layer 0 (Background)
//Storyboard Layer 1 (Fail)
//Storyboard Layer 2 (Pass)
//Storyboard Layer 3 (Foreground)
//Storyboard Sound Samples
//Background Colour Transformations
3,100,255,255,255

[TimingPoints]
4070,428.873253671175,4,1,1,74,1,0
69463,-100,4,1,1,74,0,1
99514,-50,4,1,1,74,0,1

[Colours]
Combo1 : 0,0,0
Combo2 : 255,255,255
Combo3 : 0,128,255
Combo4 : 255,0,0
Combo5 : 255,255,0

[HitObjects]
256,64,4071,1,4
320,64,4285,1,0
352,64,4392,1,0
384,64,4499,1,8
448,64,4714,5,0
448,64,4928,1,0
448,128,5143,1,0
448,160,5250,1,0
416,160,5357,1,8
352,160,5572,5,0
288,160,5786,1,0
224,160,6000,1,0
192,160,6108,1,0
224,160,6215,1,8
224,224,6429,5,0
224,256,6537,1,0
256,256,6644,1,0
320,256,6858,5,2
384,256,7073,1,4
320,256,7287,1,2
320,192,7501,5,4
384,192,7716,1,0
384,160,7823,1,0
384,128,7930,1,8
384,64,8145,5,0
320,64,8359,1,0
320,128,8574,1,0
320,160,8681,1,0
320,192,8788,1,8
256,192,9003,5,0
256,256,9217,1,0
256,320,9431,1,0
288,320,9539,1,0
256,320,9646,1,8
192,320,9860,5,0
192,288,9968,1,0
160,288,10075,1,0
96,288,10289,5,2
96,224,10504,1,4
96,288,10718,1,2
96,224,10932,5,4
160,224,11147,1,0
160,192,11254,1,0
160,160,11361,1,8
160,96,11576,5,0
224,96,11790,1,0
224,160,12005,1,0
256,160,12112,1,0
288,160,12219,1,8
352,160,12434,5,0
352,96,12648,1,0
416,96,12862,1,0
416,128,12970,1,0
416,160,13077,1,8
416,224,13291,5,0
384,224,13398,1,0
352,224,13506,1,4
288,224,13720,5,2
288,288,13935,1,4
288,224,14149,1,2
224,224,14363,5,4
224,288,14578,1,2
160,288,14792,1,0
96,288,15007,1,2
96,224,15221,5,4
160,192,15436,1,2
96,160,15650,1,0
160,128,15865,1,2
96,96,16079,5,4
128,64,16186,1,0
160,40,16293,1,10
200,24,16401,1,0
240,24,16508,1,0
280,32,16615,1,0
312,56,16722,1,10
344,80,16829,1,0
368,112,16937,1,4
416,160,17151,5,2
416,224,17366,1,4
416,160,17580,1,2
416,224,17794,5,4
416,288,18009,1,0
384,288,18116,1,0
352,288,18223,1,8
352,224,18438,5,0
288,224,18652,1,0
224,224,18867,1,0
224,256,18974,1,0
224,288,19081,1,8
160,288,19296,5,0
160,224,19510,1,0
160,160,19724,1,0
192,128,19832,1,0
224,96,19939,1,8
256,128,20046,1,0
288,160,20153,1,0
352,160,20368,5,0
352,96,20582,1,0
384,96,20689,1,0
416,96,20797,1,8
416,160,21011,1,8
416,224,21225,5,4
416,288,21440,1,0
384,288,21547,1,0
352,288,21654,1,8
288,288,21869,5,0
288,224,22083,1,0
224,224,22298,1,0
224,256,22405,1,0
192,256,22512,1,8
128,256,22726,5,0
64,256,22941,1,0
64,192,23155,1,0
96,192,23263,1,0
96,160,23370,1,8
96,96,23584,5,0
128,96,23691,1,0
160,96,23799,1,0
224,96,24013,5,0
224,128,24120,1,0
256,128,24228,1,8
320,128,24442,5,8
384,128,24656,5,4
448,128,24871,1,0
448,160,24978,1,0
448,192,25085,1,8
448,256,25300,5,0
448,320,25514,1,0
384,320,25729,1,0
352,320,25836,1,0
320,320,25943,1,8
256,320,26157,5,0
192,320,26372,1,0
128,320,26586,1,0
96,288,26694,1,0
64,256,26801,1,8
96,224,26908,1,0
128,192,27015,1,0
192,192,27230,5,0
256,192,27444,1,0
256,160,27551,1,0
256,128,27659,1,8
256,64,27873,1,8
320,64,28087,5,4
384,64,28302,1,0
384,96,28409,1,0
416,96,28516,1,8
416,160,28731,5,0
480,160,28945,1,0
480,224,29160,1,0
480,256,29267,1,0
480,288,29374,1,8
416,288,29588,5,0
352,288,29803,1,0
288,288,30017,1,0
288,256,30125,1,0
288,224,30232,1,8
224,224,30446,5,0
224,192,30553,1,0
224,160,30661,1,0
224,96,30875,5,0
256,96,30982,1,0
288,96,31090,1,8
352,96,31304,1,8
416,96,31518,5,4
480,96,31733,1,0
480,128,31840,1,0
480,160,31947,1,8
480,224,32162,5,0
480,288,32376,1,0
416,288,32591,1,0
384,288,32698,1,0
384,320,32805,1,8
320,320,33019,5,0
320,256,33234,1,0
256,256,33448,1,0
224,256,33556,1,0
192,256,33663,1,8
128,256,33877,5,0
128,224,33984,1,0
128,192,34092,1,0
128,128,34306,5,2
192,128,34521,1,4
128,128,34735,1,2
128,64,34949,5,4
192,64,35164,1,0
192,32,35271,1,0
224,32,35378,1,8
288,32,35593,5,0
288,96,35807,1,0
352,96,36022,1,0
352,128,36129,1,0
352,160,36236,1,8
416,160,36450,5,0
416,96,36665,1,0
480,96,36879,1,0
480,128,36987,1,0
480,160,37094,1,8
480,224,37308,5,0
448,224,37415,1,0
416,224,37523,1,0
352,224,37737,5,2
352,288,37951,1,4
352,224,38166,1,2
288,224,38380,5,4
288,288,38595,1,0
256,288,38702,1,0
224,288,38809,1,8
160,288,39024,5,0
160,224,39238,1,0
224,224,39453,1,0
256,192,39560,1,0
224,160,39667,1,8
160,160,39881,5,0
160,96,40096,1,0
160,32,40310,1,0
128,32,40418,1,0
96,32,40525,1,8
96,64,40632,1,0
96,96,40739,1,0
96,160,40954,5,0
96,224,41168,1,0
128,224,41275,1,0
160,224,41382,1,8
224,224,41597,1,8
288,224,41811,5,4
288,160,42026,1,0
256,160,42133,1,0
224,160,42240,1,8
160,160,42455,5,0
160,96,42669,1,0
160,32,42884,1,0
192,32,42991,1,0
224,32,43098,1,8
288,32,43312,5,0
288,96,43527,1,0
352,96,43741,1,0
384,96,43848,1,0
416,96,43956,1,8
416,160,44170,5,0
416,192,44277,1,0
416,224,44385,1,0
416,288,44599,5,0
416,320,44706,1,0
416,288,44813,1,8
352,288,45028,1,8
288,288,45242,5,4
224,288,45457,1,0
224,320,45564,1,0
192,320,45671,1,8
128,320,45886,5,0
64,320,46100,1,0
64,256,46315,1,0
64,224,46422,1,0
64,192,46529,1,8
128,192,46743,5,0
128,128,46958,1,0
192,128,47172,1,0
224,128,47279,1,0
256,128,47387,1,8
224,128,47494,1,0
192,128,47601,1,0
192,192,47816,5,0
256,192,48030,1,0
256,224,48137,1,0
256,256,48244,1,8
256,320,48459,1,8
320,320,48673,5,4
256,320,48888,1,0
224,320,48995,1,0
192,320,49102,1,8
128,320,49317,5,0
64,320,49531,1,0
64,256,49746,1,0
96,256,49853,1,0
96,224,49960,1,8
96,160,50174,5,0
160,160,50389,1,0
160,96,50603,1,0
160,64,50710,1,0
160,96,50818,1,8
224,96,51032,5,0
224,64,51139,1,0
224,96,51247,1,0
288,96,51461,5,0
288,64,51568,1,0
288,96,51675,1,8
352,96,51890,1,8
416,96,52104,6,0,B|416:32,2,35,0|0|8
416,128,52426,2,0,B|480:128,2,35
416,160,52748,2,0,B|352:160,2,35,8|0|0
416,192,53069,2,0,B|480:192,2,35,0|8|0
384,192,53391,2,0,B|320:192,4,35,0|0|8|0|4
128,192,54678,6,4,B|192:256|272:176,2,140,4|14|4
96,192,55643,2,0,B|96:240,2,35,0|8|0
96,160,55964,2,0,B|48:160,2,35,0|0|8
128,160,56286,2,0,B|128:112,2,35
160,160,56607,2,0,B|208:160,2,35,8|0|0
160,192,56929,2,0,B|208:192,2,35,0|8|4
448,192,58109,6,4,B|384:128|312:200,2,140,4|14|4
448,224,59073,2,0,B|384:224,2,35,0|8|0
448,256,59395,2,0,B|512:256,2,35,0|0|8
416,256,59717,2,0,B|352:256,2,35
416,288,60038,2,0,B|480:288,2,35,8|0|0
416,320,60360,2,0,B|480:320,2,35,0|8|4
128,320,61540,5,4
128,320,61968,1,4
128,320,62397,1,4
128,256,62612,5,0
128,192,62826,1,8
128,128,63041,1,0
160,128,63148,1,0
192,128,63255,1,0
256,128,63469,5,0
256,64,63684,1,8
256,128,63898,1,4
320,128,64113,5,4
384,128,64327,1,0
416,128,64434,1,0
448,128,64542,1,8
448,192,64756,5,0
384,192,64971,1,0
320,192,65185,1,0
320,224,65292,1,0
320,256,65399,1,8
320,320,65614,6,0,B|224:320,9,70,0|4|0|12|0|4|0|12|0|4
224,320,67651,2,0,B|224:288,14,17.5
160,320,68616,5,0
160,320,68830,1,0
160,320,69045,1,0
160,128,69474,6,0,B|96:128,2,35,2|2|0
160,64,69903,1,14
288,64,70331,6,0,B|288:0,2,35,2|2|0
288,128,70760,1,14
416,128,71189,6,0,B|480:128,2,35,2|2|0
416,192,71618,1,14
288,192,72047,6,0,B|288:256,2,35,2|2|0
288,128,72476,1,12
160,128,72905,5,0
160,192,73119,1,8
160,256,73334,1,0
224,256,73548,1,0
288,256,73762,1,0
288,224,73870,1,0
288,256,73977,1,8
352,256,74191,5,0
416,256,74406,1,0
416,192,74620,1,0
384,160,74727,1,0
352,128,74835,1,8
320,160,74942,1,0
288,192,75049,1,0
224,192,75263,5,0
160,192,75478,1,0
128,192,75585,1,0
160,192,75692,1,8
160,256,75907,5,4
288,256,76336,6,0,B|288:320,2,35,2|2|0
352,256,76765,1,14
352,128,77193,6,0,B|352:64,2,35,2|2|0
288,128,77622,1,14
416,128,78051,6,0,B|480:128,2,35,2|2|0
416,192,78480,2,14,B|256:192,1,140
32,192,79767,5,0
96,192,79981,1,10
160,192,80196,1,0
160,128,80410,1,0
160,64,80624,1,0
224,64,80839,1,10
288,64,81053,1,0
352,64,81268,5,10
352,104,81375,1,0
392,104,81482,1,0
432,104,81589,1,0
432,144,81697,1,10
432,184,81804,1,0
432,144,81911,1,0
432,184,82018,1,0
432,144,82125,1,14
320,256,83198,6,0,B|256:256,2,35,2|2|0
384,256,83626,1,14
384,128,84055,6,0,B|448:128,2,35,2|2|0
320,128,84484,1,14
192,128,84913,6,0,B|192:64,2,35,2|2|0
192,192,85342,1,14
192,320,85771,6,0,B|128:320,2,35,2|2|0
256,320,86200,1,14
384,320,86629,5,0
384,256,86843,1,8
384,320,87057,1,0
384,256,87272,1,0
384,192,87486,1,0
352,192,87594,1,0
320,192,87701,1,8
320,128,87915,5,0
256,128,88130,1,0
256,192,88344,1,0
224,192,88451,1,0
224,224,88559,1,8
192,224,88666,1,0
192,256,88773,1,0
192,320,88987,5,0
256,320,89202,1,0
288,320,89309,1,0
320,320,89416,1,8
384,320,89631,5,4
384,192,90060,6,0,B|448:192,2,35,2|2|0
320,192,90488,1,14
320,64,90917,6,0,B|384:64,2,35
256,64,91346,1,14
128,64,91775,6,0,B|64:64,2,35,2|2|0
192,64,92204,2,14,B|192:224,1,140
448,192,93491,5,0
448,128,93705,1,10
384,128,93919,1,0
384,64,94134,1,0
320,64,94348,1,0
320,128,94563,1,10
256,128,94777,1,0
192,128,94992,5,10
192,160,95099,1,0
160,160,95206,1,0
160,128,95313,1,0
192,128,95421,1,10
192,160,95528,1,0
160,160,95635,1,0
160,128,95742,1,0
192,128,95849,1,14
448,352,96814,5,0
384,352,97029,1,10
320,352,97243,1,0
320,288,97458,1,0
384,288,97672,1,0
448,288,97887,1,10
448,224,98101,1,0
384,224,98315,5,10
352,192,98423,1,0
320,160,98530,1,0
288,128,98637,1,0
256,96,98744,1,10
224,128,98851,1,0
192,160,98959,1,0
160,192,99066,1,0
128,224,99173,1,14
160,224,99279,1,0
288,224,99495,5,14
288,96,99709,1,14
