osu file format v5

[General]
AudioFilename: Craze.mp3
AudioLeadIn: 0
PreviewTime: -1
Countdown: 1
SampleSet: Soft
StackLeniency: 0.7
Mode: 0
LetterboxInBreaks: 1

[Metadata]
Title:Craze-Michael425, starting newb song
Artist:Michael425
Creator:yacob1010
Version:playground
Source:newgrounds
Tags:craze

[Difficulty]
HPDrainRate:2
CircleSize:3
OverallDifficulty:4
SliderMultiplier:1.4
SliderTickRate:1

[Events]
//Background and Video events
0,0,"air-quality-clouds.jpg"
//Break Periods
2,61700,72450
2,121700,123450
//Storyboard Layer 0 (Background)
//Storyboard Layer 1 (Failing)
//Storyboard Layer 2 (Passing)
//Storyboard Layer 3 (Foreground)
//Storyboard Sound Samples
//Background Colour Transformations
3,100,163,162,255

[TimingPoints]
0,750,4,2,0,100,1

[HitObjects]
256,192,1312,12,0,6000
192,192,7500,5,0
256,192,8250,1,0
352,192,9000,2,0,B|480:192,2,105
192,288,10500,5,0
256,288,11250,1,0
352,288,12000,2,0,B|480:288,2,105
192,192,13500,5,0
288,192,14250,1,0
384,192,15000,2,0,B|384:96,4,70
256,192,17250,1,0
160,192,18000,6,0,B|160:96,4,70
256,192,20250,1,0
352,192,21000,2,0,B|352:96,4,70
288,256,23250,1,0
192,320,24000,5,0
192,288,24375,1,0
192,256,24750,1,0
192,224,25125,1,0
256,192,25500,12,0,27000
192,160,28500,5,0
256,160,29250,1,0
320,160,30000,1,0
320,192,30375,1,0
320,224,30750,1,0
320,256,31125,1,0
256,192,31312,12,0,33000
160,192,34500,5,0
192,192,35250,1,0
192,192,36000,2,0,B|288:192,4,70
128,192,38250,5,0
96,160,39000,1,0
160,160,39750,1,0
320,160,40500,5,0
352,192,41250,1,0
384,160,42000,1,0
320,160,42750,1,0
96,160,43500,5,0
128,192,44250,1,0
160,160,45000,1,0
96,160,45750,1,0
320,160,46500,5,0
352,192,47250,1,0
384,160,48000,1,0
320,160,48750,1,0
256,192,49500,12,0,51000
256,192,52500,12,0,54000
256,192,55312,6,0,B|32:320,1,245
96,288,57000,1,0
160,192,58500,1,0
224,192,59250,1,0
256,192,60000,12,0,61500
256,192,73500,5,0
256,128,74250,1,0
192,128,75000,1,0
192,192,75750,1,0
128,192,76500,5,0
128,128,77250,1,0
64,128,78000,1,0
64,192,78750,1,0
128,192,79500,6,0,B|192:192,8,35,0|0|0|0|0|0|0|0|0
192,224,81750,1,0
96,192,82500,6,0,B|160:192,8,35
160,192,84750,1,0
192,192,85500,6,0,B|256:192,24,35
224,160,90750,1,0
96,128,91500,2,0,B|160:128,8,35
160,128,93750,1,0
352,96,94500,6,0,B|416:96,8,35
288,96,96750,1,0
96,160,97500,5,0
192,160,97875,1,0
288,160,98250,1,0
288,160,99000,5,0
352,160,99375,1,0
416,160,99750,1,0
160,224,100500,5,0
256,224,101250,1,0
352,224,102000,1,0
352,320,102750,1,0
256,192,103500,5,0
256,128,103875,2,0,B|192:128,5,35
352,128,105000,5,0
352,192,105375,2,0,B|288:192,5,35
256,192,106500,5,0
256,128,106875,2,0,B|192:128,6,35
320,128,109500,5,0
384,128,110250,1,0
384,192,111000,1,0
384,256,111750,1,0
320,192,112500,5,0
384,192,113250,1,0
384,256,114000,1,0
320,256,114750,1,0
160,192,115500,5,0
96,192,116250,1,0
32,192,117000,1,0
32,128,117750,1,0
192,224,118500,1,0
160,224,118875,1,0
128,224,119250,1,0
96,224,119625,1,0
64,224,120000,1,0
64,192,120750,1,0
128,160,121500,1,0
256,128,124500,5,0
256,64,126000,1,0
192,64,127500,1,0
192,128,129000,5,0
224,128,129375,1,0
256,128,129750,1,0
288,128,130125,1,0
256,192,130500,1,0
224,192,132000,1,0
256,256,133500,5,0
256,192,135000,12,4,136500
