osu file format v5

[General]
AudioFilename: Craze.mp3
AudioLeadIn: 0
PreviewTime: -1
Countdown: 1
SampleSet: Soft
StackLeniency: 0.7
Mode: 0
LetterboxInBreaks: 1

[Metadata]
Title:Craze-Michael425, starting newb song
Artist:Michael425
Creator:yacob1010
Version:junior osu player
Source:newgrounds
Tags:craze

[Difficulty]
HPDrainRate:4
CircleSize:5
OverallDifficulty:5
SliderMultiplier:1.4
SliderTickRate:1

[Events]
//Background and Video events
0,0,"air-quality-clouds.jpg"
//Break Periods
2,62200,66300
//Storyboard Layer 0 (Background)
//Storyboard Layer 1 (Failing)
//Storyboard Layer 2 (Passing)
//Storyboard Layer 3 (Foreground)
//Storyboard Sound Samples
//Background Colour Transformations
3,100,163,162,255

[TimingPoints]
0,750,4,2,0,100,1

[HitObjects]
64,96,1500,2,0,B,1,46.6666666666667
64,160,2875,2,0,B|128:160,1,116.666666666667
128,160,4500,2,0,B,1,70
320,96,6000,2,0,B|384:96|384:160,1,116.666666666667
384,256,7500,2,0,B|384:224,5,46.6666666666667
384,128,9625,1,0
352,160,10375,1,0
352,160,10750,1,0
352,160,11125,1,0
352,160,11500,1,0
192,192,11875,1,0
160,192,12625,1,0
160,128,13500,5,0
160,64,14250,1,0
256,64,15000,1,0
256,128,15750,1,0
256,192,16000,12,0,16500
128,192,17000,6,0,B|224:192,2,93.3333333333333
64,192,19500,1,0
128,160,20250,1,0
96,192,21125,2,0,B|128:192,5,23.3333333333333
128,160,22500,6,0,B|288:192,7,140
128,128,28125,2,0,B|448:224|384:320,1,350
256,160,30625,1,0
256,160,31500,2,0,B|256:192,23,23.3333333333333
160,160,35125,5,0
160,192,35625,1,0
160,224,36000,1,0
160,256,36750,1,0
256,192,37000,12,0,37500
256,192,38625,12,0,39000
96,160,40500,5,0
128,160,40875,1,0
160,160,41250,1,0
192,160,41625,1,0
192,192,42000,5,0
160,192,42375,1,0
128,192,42750,1,0
96,192,43125,1,0
288,192,43500,1,4
288,256,44250,1,0
128,96,44625,2,0,B|288:96,2,140
256,96,46500,5,0
256,160,48000,1,0
160,192,48750,2,0,B|256:192,2,93.3333333333333
160,192,50500,1,0
192,160,50875,5,0
96,160,51625,1,0
128,192,52375,2,0,B|256:192,2,116.666666666667
128,192,54000,1,0
128,288,54750,5,0
128,288,55500,2,0,B|224:288,3,93.3333333333333
64,160,58500,1,0
160,192,58875,1,0
192,192,59000,1,0
160,224,60000,1,0
160,160,60750,1,0
160,128,61500,5,0
256,192,66375,12,4,67500
160,160,69000,5,0
192,160,69375,1,0
256,160,70500,1,0
256,192,70875,1,0
256,224,71250,1,0
192,192,72000,1,0
192,192,72375,1,0
192,192,72750,1,0
128,192,73500,5,0
128,224,73875,1,0
128,256,74250,1,0
192,256,75000,1,0
160,256,75375,1,0
64,256,75750,2,0,B|128:256,12,46.6666666666667
96,192,79500,5,0
160,192,79875,1,0
96,128,80625,1,0
128,128,81000,1,0
192,64,82125,1,0
192,96,82500,1,0
192,128,82875,1,0
192,160,83250,5,0
192,192,83625,1,0
192,224,84000,1,0
192,256,84375,1,0
224,256,84750,1,0
256,256,85125,1,0
288,192,85500,2,0,B|352:192,6,46.6666666666667
256,192,88500,1,0
224,192,89250,1,0
192,192,90000,1,0
192,160,90375,1,0
160,160,90750,1,0
128,160,91125,1,0
64,160,91500,6,0,B|320:160,1,233.333333333333
256,160,93500,5,0
192,160,94125,1,0
128,160,94500,2,0,B|448:160,1,303.333333333333
320,160,96875,1,0
224,160,97500,2,0,B|224:224,12,46.6666666666667
192,160,100875,1,0
160,160,101250,1,0
160,192,101625,1,0
224,192,102000,1,0
224,160,102375,1,0
224,128,102750,1,0
128,160,103500,2,0,B|224:160,7,93.3333333333333
384,64,108000,1,0
384,32,108375,1,0
352,32,108750,1,0
320,32,109125,1,0
288,32,109500,1,0
256,160,111000,5,0
256,64,111375,1,0
192,160,112500,1,0
192,96,112875,1,0
160,160,114000,5,0
160,128,114375,1,0
128,160,115500,1,0
128,128,115875,1,0
128,96,116250,1,0
96,160,117000,1,0
96,128,117375,1,0
64,128,117750,1,0
64,160,118500,5,0
64,128,118875,1,0
32,160,119250,1,0
256,192,120000,12,4,121500
256,192,124750,12,4,128875
128,160,130500,5,0
160,160,130875,1,0
192,160,131250,1,0
224,160,131625,1,0
224,192,132000,1,0
96,192,133250,6,0,B|224:192,2,116.666666666667
192,128,134875,2,0,B|224:128,12,23.3333333333333
256,128,136500,5,4
