osu file format v14

[General]
AudioFilename: guang liang - yue ding.mp3
AudioLeadIn: 1000
PreviewTime: 131573
Countdown: 0
SampleSet: Soft
StackLeniency: 0.7
Mode: 0
LetterboxInBreaks: 0
WidescreenStoryboard: 1

[Editor]
Bookmarks: 1709,73428,89522,92960,112905
DistanceSpacing: 1
BeatDivisor: 4
GridSize: 4
TimelineZoom: 1

[Metadata]
Title:Yue Ding
TitleUnicode:约定
Artist:Michael Wong
ArtistUnicode:光良
Creator:Xinely
Version:Our Promise
Source:
Tags:Guang Liang Karen Commitment
BeatmapID:865461
BeatmapSetID:397976

[Difficulty]
HPDrainRate:5.5
CircleSize:3.8
OverallDifficulty:6
ApproachRate:7
SliderMultiplier:1.6
SliderTickRate:1

[Events]
//Background and Video events
0,0,"yueding.jpg",0,0
//Break Periods
//Storyboard Layer 0 (Background)
//Storyboard Layer 1 (Fail)
//Storyboard Layer 2 (Pass)
//Storyboard Layer 3 (Foreground)
//Storyboard Sound Samples

[TimingPoints]
276,631.578947368421,4,2,1,50,1,0
591,659.340659340659,4,2,1,50,1,0
1250,612.244897959184,4,2,1,50,1,0
1862,631.578947368421,4,2,1,50,1,0
1862,-133.333333333333,4,2,1,50,0,0
3125,638.297872340426,4,2,1,50,1,0
3125,-133.333333333333,4,2,1,50,0,0
4082,666.666666666667,4,2,1,50,1,0
4415,631.578947368421,4,2,1,50,1,0
4415,-133.333333333333,4,2,1,50,0,0
5046,659.340659340659,4,2,1,50,1,0
5046,-133.333333333333,4,2,1,50,0,0
5705,631.578947368421,4,2,1,50,1,0
5705,-133.333333333333,4,2,1,50,0,0
6968,638.297872340426,4,2,1,50,1,0
6968,-133.333333333333,4,2,1,50,0,0
8244,652.173913043478,4,2,1,50,1,0
9548,666.666666666667,4,2,1,50,1,0
10881,652.173913043478,4,2,1,50,1,0
11533,555.555555555556,4,2,1,50,1,0
12088,631.578947368421,4,2,1,50,1,0
13035,-166.666666666667,4,2,1,40,0,0
14614,652.173913043478,4,2,1,40,1,0
16244,600,4,2,1,40,1,0
17144,652.173913043478,4,2,1,40,1,0
17144,-166.666666666667,4,2,1,40,0,0
19752,631.578947368421,4,2,1,40,1,0
19752,-166.666666666667,4,2,1,40,0,0
22278,645.161290322581,4,2,1,40,1,0
22278,-166.666666666667,4,2,1,40,0,0
26148,631.578947368421,4,2,1,40,1,0
26463,652.173913043478,4,2,1,40,1,0
27115,545.454545454546,4,2,1,40,1,0
27387,638.297872340426,4,2,1,40,1,0
28663,-100,4,2,1,20,0,0
28982,-166.666666666667,4,2,1,30,0,0
29301,-166.666666666667,4,2,1,45,0,0
29940,-166.666666666667,4,2,1,25,0,0
31216,-166.666666666667,4,2,1,40,0,0
32493,638.297872340426,4,2,1,50,1,0
32493,-125,4,2,1,50,0,0
37599,625,4,2,1,50,1,0
37599,-125,4,2,1,50,0,0
39786,731.707317073171,4,2,1,50,1,0
40151,631.578947368421,4,2,1,50,1,0
40151,-125,4,2,1,50,0,0
41414,600,4,2,1,50,1,0
42014,681.818181818182,4,2,1,50,1,0
42695,631.578947368421,4,2,1,50,1,0
42695,-125,4,2,1,50,0,0
44589,652.173913043478,4,2,1,50,1,0
45241,612.244897959184,4,2,1,50,1,0
45853,666.666666666667,4,2,1,50,1,0
46519,631.578947368421,4,2,1,50,1,0
46519,-125,4,2,1,50,0,0
47150,652.173913043479,4,2,1,50,1,0
47802,645.161290322581,4,2,1,50,1,0
47802,-125,4,2,1,50,0,0
50382,631.578947368421,4,2,1,50,1,0
50382,-125,4,2,1,50,0,0
52908,638.297872340426,4,2,1,55,1,0
52908,-125,4,2,1,55,0,0
55142,582.52427184466,4,2,1,55,1,0
55433,612.244897959184,4,2,1,55,1,0
55433,-125,4,2,1,55,0,0
56657,631.578947368421,4,2,1,55,1,0
57920,631.578947368421,4,2,1,55,1,0
58551,625,4,2,1,55,1,0
59176,625.000000000001,4,2,1,55,1,0
59176,-125,4,2,1,55,0,0
60426,625,4,2,1,55,1,0
60426,-125,4,2,1,55,0,0
62926,618.556701030928,4,2,1,55,1,0
62926,-125,4,2,1,55,0,0
64163,631.578947368421,4,2,1,55,1,0
65426,631.578947368421,4,2,1,55,1,0
65426,-125,4,2,1,55,0,0
66057,618.556701030928,4,2,1,55,1,0
66675,-125,4,2,1,55,0,0
67294,631.578947368421,4,2,1,55,1,0
67925,600,4,2,1,55,1,0
67925,-125,4,2,1,55,0,0
68525,631.578947368421,4,2,1,55,1,0
68525,-125,4,2,1,55,0,0
70419,625,4,2,1,55,1,0
70419,-125,4,2,1,55,0,0
72919,618.556701030928,4,2,1,55,1,0
72919,-125,4,2,1,55,0,0
74465,652.173913043478,4,2,1,55,1,0
74465,-125,4,2,1,55,0,0
75443,588.235294117647,4,2,1,55,1,0
75443,-125,4,2,1,55,0,0
76031,625,4,2,1,55,1,0
76031,-125,4,2,1,55,0,0
77906,631.578947368421,4,2,1,55,1,0
77906,-125,4,2,1,55,0,0
80432,612.244897959184,4,2,1,55,1,0
80432,-125,4,2,1,55,0,0
81044,631.578947368421,4,2,1,55,1,0
81044,-125,4,2,1,55,0,0
81675,600,4,2,1,55,1,0
81675,-125,4,2,1,55,0,0
82275,652.173913043478,4,2,1,55,1,0
82927,612.244897959184,4,2,1,55,1,0
82927,-125,4,2,1,55,0,0
83845,638.297872340426,4,2,1,55,1,0
84164,606.060606060606,4,2,1,55,1,0
84164,-125,4,2,1,55,0,0
84770,681.818181818182,4,2,1,55,1,0
85110,571.428571428571,4,2,1,55,1,0
85395,588.235294117647,4,2,1,55,1,0
85395,-125,4,2,1,55,0,0
85983,631.578947368421,4,2,1,55,1,0
86614,638.297872340426,4,2,1,55,1,0
86614,-125,4,2,1,55,0,0
87890,645.161290322581,4,2,1,55,1,0
87890,-125,4,2,1,55,0,0
88857,606.060606060606,4,2,1,55,1,0
88857,-125,4,2,1,55,0,0
90069,697.674418604651,4,2,1,55,1,0
90417,600,4,2,1,55,1,0
90417,-125,4,2,1,55,0,0
91017,631.578947368421,4,2,1,55,1,0
91332,-125,4,2,1,55,0,0
91648,612.244897959184,4,2,1,55,1,0
91648,-125,4,2,1,55,0,0
92260,631.578947368421,4,2,1,55,1,0
92891,638.297872340426,4,2,1,50,1,0
92891,-125,4,2,1,50,0,0
94805,545.454545454546,4,2,1,50,1,0
94805,-125,4,2,1,50,0,0
95077,631.578947368421,4,2,1,50,1,0
95392,638.297872340426,4,2,1,50,1,0
95392,-125,4,2,1,50,0,0
96668,625,4,2,1,50,1,0
97293,652.173913043478,4,2,1,50,1,0
97293,-125,4,2,1,50,0,0
97945,618.556701030928,4,2,1,50,1,0
97945,-125,4,2,1,50,0,0
100419,625,4,2,1,50,1,0
100419,-125,4,2,1,50,0,0
105419,618.556701030928,4,2,1,50,1,0
105419,-125,4,2,1,50,0,0
107583,666.666666666667,4,2,1,50,1,0
107916,631.578947368421,4,2,1,50,1,0
107916,-125,4,2,1,50,0,0
109179,612.244897959184,4,2,1,50,1,0
109179,-125,4,2,1,50,0,0
109791,571.428571428571,4,2,1,50,1,0
110076,705.882352941176,4,2,1,50,1,0
110428,631.578947368421,4,2,1,50,1,0
110743,-125,4,2,1,50,0,0
111691,606.060606060606,4,2,1,100,1,0
112903,638.297872340426,4,2,1,55,1,0
131094,-100,4,2,1,45,0,0
133328,625,4,2,1,70,1,1
170828,-100,4,2,1,70,0,0
173328,-100,4,2,1,75,0,1
213328,-100,4,2,1,70,0,0
221453,681.818181818182,4,2,1,50,1,0
222134,800,4,2,1,50,1,0
222934,1071.42857142857,4,2,1,50,1,0
227219,-100,4,2,1,30,0,0
228291,-100,4,2,1,20,0,0
229362,-100,4,2,1,10,0,0

[Colours]
Combo1 : 255,128,128
Combo2 : 255,128,192
Combo3 : 166,166,210
Combo4 : 83,255,83

[HitObjects]
412,328,276,5,2,0:0:0:0:
412,328,591,1,2,0:0:0:0:
204,96,1250,1,2,0:0:0:0:
284,236,1862,6,0,P|292:300|288:320,1,60.0000022888184,2|0,0:0|0:0,0:0:0:0:
232,352,2493,1,0,0:0:0:0:
164,304,2809,1,0,0:0:0:0:
116,236,3125,6,0,P|111:205|116:160,1,60.0000022888184,2|0,0:0|0:0,0:0:0:0:
144,76,3763,1,2,0:0:0:0:
144,76,4082,1,2,0:0:0:0:
208,168,4415,6,0,L|267:165,1,60.0000022888184
372,136,5046,2,0,L|444:144,1,60.0000022888184,2|0,0:0|0:0,0:0:0:0:
504,272,5705,6,0,L|444:277,1,60.0000022888184,2|0,0:0|0:0,0:0:0:0:
336,280,6336,2,0,P|304:280|276:276,1,60.0000022888184,2|0,0:0|0:0,0:0:0:0:
168,176,6968,6,0,L|88:184,2,60.0000022888184,2|0|0,0:0|0:0|0:0,0:0:0:0:
224,104,7925,1,2,0:0:0:0:
368,304,9548,5,2,0:0:0:0:
336,364,12088,5,2,0:0:0:0:
224,108,13035,1,0,0:0:0:0:
292,160,13351,2,0,L|360:152,1,47.9999985351563
276,244,13982,2,0,L|344:236,1,47.9999985351563
204,328,14614,5,2,0:0:0:0:
204,328,16244,5,0,0:0:0:0:
124,296,16544,1,0,0:0:0:0:
84,220,16844,1,0,0:0:0:0:
92,128,17144,6,0,L|148:124,1,47.9999985351563
184,204,17796,2,0,L|231:200,1,47.9999985351563
304,148,18448,1,2,0:0:0:0:
304,148,19752,6,0,L|296:96,2,47.9999985351563,2|0|0,0:0|0:0|0:0,0:0:0:0:
316,228,20699,1,0,0:0:0:0:
368,292,21015,2,0,P|424:308|476:296,1,95.9999970703126
360,68,22278,5,2,0:0:0:0:
280,52,22600,2,0,L|232:48,1,47.9999985351563
152,48,23245,2,0,P|120:104|148:176,1,143.999995605469,2|0,0:0|0:0,0:0:0:0:
146,174,24858,6,0,L|154:238,1,47.9999985351563,2|0,0:0|0:0,0:0:0:0:
190,294,25503,1,0,0:0:0:0:
246,226,25826,1,0,0:0:0:0:
230,142,26148,1,0,0:0:0:0:
500,336,27387,5,2,0:0:0:0:
500,336,28663,1,0,0:0:0:0:
500,336,28982,1,0,0:0:0:0:
504,264,29301,1,2,0:0:0:0:
480,196,29621,1,0,0:0:0:0:
424,152,29940,5,0,0:0:0:0:
424,152,31216,2,0,P|377:163|330:156,1,95.9999970703126
330,156,32493,5,2,0:0:0:0:
272,88,32812,1,0,0:0:0:0:
176,72,33131,1,0,0:0:0:0:
104,136,33450,2,0,P|109:181|123:212,1,64,2|0,0:0|0:0,0:0:0:0:
212,192,34088,1,0,0:0:0:0:
128,284,34407,2,0,L|48:320,1,64,2|0,0:0|0:0,0:0:0:0:
164,368,35046,6,0,P|236:360|312:372,1,128,2|0,0:0|0:0,0:0:0:0:
386,362,36003,2,0,B|422:354|455:319|455:319|454:262|442:230|432:213,1,192,2|0,0:0|0:0,0:0:0:0:
432,213,37599,6,0,L|425:137,1,64,2|0,0:0|0:0,0:0:0:0:
380,52,38224,1,0,0:0:0:0:
308,116,38536,2,0,L|220:116,1,64,0|2,0:0|0:0,0:0:0:0:
152,84,39161,1,0,0:0:0:0:
76,144,39474,1,0,0:0:0:0:
176,308,40151,5,2,0:0:0:0:
244,240,40466,1,0,0:0:0:0:
292,364,40782,1,2,0:0:0:0:
152,220,41098,1,2,0:0:0:0:
352,272,41414,5,2,0:0:0:0:
296,48,42014,1,0,0:0:0:0:
296,48,42695,5,0,0:0:0:0:
360,120,43010,2,0,L|423:113,1,64
512,192,43642,2,0,B|520:288|520:288|484:336,1,128,2|0,0:0|0:0,0:0:0:0:
408,340,44589,2,0,L|312:352,1,80
160,344,45241,5,2,0:0:0:0:
152,56,46186,1,0,0:0:0:0:
152,56,46519,2,0,P|196:76|200:12,1,128
24,108,47802,6,0,P|19:171|24:248,1,128,2|0,0:0|0:0,0:0:0:0:
76,316,48769,1,0,0:0:0:0:
131,235,49092,2,0,P|193:222|257:230,1,128
257,230,50382,6,0,L|265:150,1,64,2|0,0:0|0:0,0:0:0:0:
408,212,51013,2,0,L|401:275,1,64,2|0,0:0|0:0,0:0:0:0:
316,352,51645,2,0,P|254:334|191:339,1,128,2|2,0:0|0:0,0:0:0:0:
191,339,52908,6,0,P|179:271|195:191,1,128,2|0,0:0|0:0,0:0:0:0:
236,132,53865,1,0,0:0:0:0:
140,144,54184,2,0,L|-4:144,1,128,2|0,0:0|0:0,0:0:0:0:
108,324,55433,6,0,L|252:324,1,128,2|0,0:0|0:0,0:0:0:0:
332,320,56351,1,0,0:0:0:0:
404,256,56657,1,2,0:0:0:0:
304,92,57288,1,0,0:0:0:0:
176,236,57920,5,0,0:0:0:0:
176,236,58863,1,0,0:0:0:0:
108,152,59176,2,0,L|124:80,1,64,2|0,0:0|0:0,0:0:0:0:
216,32,59801,2,0,L|232:124,1,64
360,128,60426,5,2,0:0:0:0:
476,280,61051,1,0,0:0:0:0:
396,332,61363,1,0,0:0:0:0:
328,268,61676,2,0,P|260:272|192:312,1,128,2|2,0:0|0:0,0:0:0:0:
128,352,62613,1,0,0:0:0:0:
44,304,62926,6,0,P|32:244|44:164,1,128,2|0,0:0|0:0,0:0:0:0:
64,36,63853,1,2,0:0:0:0:
180,44,64163,2,0,L|364:52,1,160
340,51,65426,6,0,L|376:123,1,64,2|0,0:0|0:0,0:0:0:0:
420,195,66057,1,0,0:0:0:0:
512,167,66366,1,0,0:0:0:0:
472,275,66675,2,0,P|408:291|352:263,1,128,2|0,0:0|0:0,0:0:0:0:
156,107,67925,6,0,P|220:83|284:111,1,128,2|0,0:0|0:0,0:0:0:0:
340,176,68840,1,2,0:0:0:0:
392,92,69156,2,0,L|389:28,1,64,2|0,0:0|0:0,0:0:0:0:
480,136,69788,1,2,0:0:0:0:
480,136,70419,6,0,L|476:208,1,64,2|0,0:0|0:0,0:0:0:0:
452,292,71044,1,2,0:0:0:0:
264,280,71356,1,2,0:0:0:0:
363,339,71669,2,0,L|347:199,1,128,0|2,0:0|0:0,0:0:0:0:
349,212,72919,6,0,P|288:208|200:216,1,128,2|0,0:0|0:0,0:0:0:0:
128,240,73846,1,0,0:0:0:0:
48,296,74156,1,2,0:0:0:0:
16,212,74465,2,0,L|24:140,1,64,0|2,0:0|0:0,0:0:0:0:
248,104,75443,6,0,L|324:100,1,64,2|0,0:0|0:0,0:0:0:0:
384,40,76031,2,0,P|360:98|376:159,1,128,2|2,0:0|0:0,0:0:0:0:
488,316,77281,1,0,0:0:0:0:
404,268,77593,1,0,0:0:0:0:
344,344,77906,6,0,P|284:340|208:344,1,128,2|0,0:0|0:0,0:0:0:0:
120,336,78853,2,0,P|132:280|124:204,1,128,2|0,0:0|0:0,0:0:0:0:
60,144,79800,1,0,0:0:0:0:
120,68,80116,1,0,0:0:0:0:
120,68,80274,1,0,0:0:0:0:
120,68,80432,6,0,L|192:48,1,64,2|0,0:0|0:0,0:0:0:0:
212,180,81044,2,0,L|264:126,1,64,2|0,0:0|0:0,0:0:0:0:
336,264,81675,2,0,L|368:136,1,128,2|0,0:0|0:0,0:0:0:0:
384,44,82601,1,0,0:0:0:0:
288,56,82927,6,0,L|132:60,1,128,2|0,0:0|0:0,0:0:0:0:
64,68,83845,1,0,0:0:0:0:
20,152,84164,2,0,B|-4:232|-4:232|7:275,1,128,2|0,0:0|0:0,0:0:0:0:
7,275,85395,6,0,L|76:280,1,64,2|0,0:0|0:0,0:0:0:0:
164,300,85983,1,0,0:0:0:0:
256,276,86298,1,0,0:0:0:0:
320,204,86614,2,0,L|308:60,1,128,2|0,0:0|0:0,0:0:0:0:
105,132,87890,6,0,P|165:152|228:136,1,128,2|0,0:0|0:0,0:0:0:0:
296,208,88857,2,0,P|310:236|312:276,1,64,2|0,0:0|0:0,0:0:0:0:
179,343,89463,2,0,P|164:314|163:275,1,64,2|0,0:0|0:0,0:0:0:0:
200,152,90069,1,0,0:0:0:0:
96,188,90417,6,0,P|48:172|12:84,1,128,2|0,0:0|0:0,0:0:0:0:
104,24,91332,1,2,0:0:0:0:
176,72,91648,2,0,L|248:64,1,64
324,68,92260,1,0,0:0:0:0:
324,68,92891,6,0,P|336:136|332:212,1,128,2|0,0:0|0:0,0:0:0:0:
288,280,93848,1,2,0:0:0:0:
204,236,94167,2,0,P|152:232|96:248,1,96,2|2,0:0|0:0,0:0:0:0:
68,268,94805,2,0,L|56:192,1,64,2|0,0:0|0:0,0:0:0:0:
96,116,95392,6,0,P|148:136|204:128,2,96,2|2|2,0:0|0:0|0:0,0:0:0:0:
96,116,97293,2,0,L|24:136,1,64,2|0,0:0|0:0,0:0:0:0:
0,216,97945,6,0,P|-6:258|37:334,1,128,2|0,0:0|0:0,0:0:0:0:
128,348,98872,1,2,0:0:0:0:
224,344,99182,2,0,L|332:344,2,96,2|2|2,0:0|0:0|0:0,0:0:0:0:
260,256,100419,6,0,L|400:256,1,128,2|0,0:0|0:0,0:0:0:0:
448,188,101356,2,0,P|425:248|445:320,1,128,2|0,0:0|0:0,0:0:0:0:
412,328,102137,1,0,0:0:0:0:
384,340,102294,1,0,0:0:0:0:
352,344,102450,1,0,0:0:0:0:
320,344,102606,1,0,0:0:0:0:
292,332,102762,1,0,0:0:0:0:
268,308,102919,6,0,L|260:160,1,128,2|0,0:0|0:0,0:0:0:0:
400,132,103856,1,2,0:0:0:0:
356,216,104169,2,0,L|364:332,1,96,2|2,0:0|0:0,0:0:0:0:
360,360,104794,2,0,P|324:376|284:376,1,64,2|0,0:0|0:0,0:0:0:0:
124,288,105419,6,0,P|116:236|148:160,1,128,2|0,0:0|0:0,0:0:0:0:
192,84,106346,1,0,0:0:0:0:
284,104,106656,2,0,L|379:90,2,96,2|2|2,0:0|0:0|0:0,0:0:0:0:
212,172,107916,6,0,P|228:228|196:304,1,128,2|0,0:0|0:0,0:0:0:0:
132,352,108863,1,2,0:0:0:0:
136,228,109179,2,0,L|272:228,1,128,2|0,0:0|0:0,0:0:0:0:
340,284,110076,1,2,0:0:0:0:
416,224,110428,5,2,0:0:0:0:
360,136,110743,1,0,0:0:0:0:
344,108,110901,1,2,0:0:0:0:
344,76,111059,1,0,0:0:0:0:
352,44,111217,1,0,0:0:0:0:
372,20,111375,1,2,0:0:0:0:
416,224,112903,6,0,P|376:219|338:205,1,80,2|0,0:3|0:0,0:0:0:0:
268,304,113541,2,0,P|242:272|226:236,1,80,2|0,0:0|0:0,0:0:0:0:
128,168,114179,2,0,P|204:183|270:142,1,160,8|2,0:0|0:0,0:0:0:0:
184,60,115137,1,0,0:0:0:0:
64,92,115456,6,0,P|36:164|72:256,1,160,6|0,0:3|0:0,0:0:0:0:
144,324,116413,1,2,0:0:0:0:
236,248,116732,2,0,P|324:224|388:240,1,160,8|0,0:0|0:0,0:0:0:0:
480,316,117690,1,2,0:3:0:0:
388,240,118009,6,0,P|368:168|408:88,1,160,6|0,0:3|0:0,0:0:0:0:
508,36,118966,1,0,0:0:0:0:
480,152,119285,1,8,0:0:0:0:
332,36,119605,1,0,0:0:0:0:
416,88,119924,1,2,0:0:0:0:
352,160,120243,1,0,0:0:0:0:
432,288,120562,6,0,P|472:284|520:260,2,80,2|0|0,0:3|0:0|0:0,0:0:0:0:
264,344,121520,1,2,0:0:0:0:
328,240,121839,2,0,L|317:160,1,80,8|0,0:0|0:0,0:0:0:0:
232,80,122477,2,0,P|192:77|153:85,1,80,0|2,0:0|0:0,0:0:0:0:
52,228,123115,6,0,P|48:267|56:306,1,80,2|0,0:3|0:0,0:0:0:0:
160,248,123754,1,0,0:0:0:0:
228,348,124073,1,2,0:0:0:0:
320,224,124392,2,0,L|327:112,1,80,8|0,0:0|0:0,0:0:0:0:
224,80,125030,2,0,L|218:159,1,80
140,256,125668,6,0,P|214:231|286:260,1,160,2|0,0:3|0:0,0:0:0:0:
424,340,126626,1,6,0:3:0:0:
504,252,126945,2,0,P|516:212|508:168,1,80,8|0,0:0|0:0,0:0:0:0:
400,124,127583,2,0,P|388:164|396:208,1,80,2|0,0:0|0:0,0:0:0:0:
364,316,128222,6,0,P|296:300|188:320,1,160,6|0,0:3|0:0,0:0:0:0:
92,348,129179,1,2,0:3:0:0:
8,264,129498,2,0,B|0:220|24:172,1,80,8|0,0:0|0:0,0:0:0:0:
124,128,130137,1,0,0:0:0:0:
20,64,130456,1,0,0:0:0:0:
176,344,131094,5,0,1:0:0:0:
76,196,131413,1,2,0:0:0:0:
76,196,131573,1,0,0:0:0:0:
76,196,131732,1,0,0:0:0:0:
220,48,132051,1,0,0:0:0:0:
100,72,132371,1,6,0:3:0:0:
264,244,132690,1,6,0:3:0:0:
264,244,133328,6,0,P|338:216|416:227,1,160,4|0,0:0|0:0,0:0:0:0:
480,328,134265,1,0,0:0:0:0:
512,180,134578,2,0,L|496:92,1,80,8|0,0:1|0:0,0:0:0:0:
380,124,135203,2,0,L|364:36,1,80
292,196,135828,6,0,P|218:225|142:206,1,160,6|0,0:3|0:0,0:0:0:0:
36,148,136765,1,2,0:3:0:0:
142,206,137078,2,0,L|144:304,1,80,8|0,0:1|0:0,0:0:0:0:
277,355,137703,2,0,L|276:276,1,80
268,108,138328,6,0,B|332:124|388:100|388:100|424:124,1,160,6|0,0:3|0:0,0:0:0:0:
504,208,139265,1,2,0:3:0:0:
332,252,139578,1,8,0:1:0:0:
440,312,139890,1,0,0:0:0:0:
504,208,140203,1,2,0:0:0:0:
424,88,140515,1,0,0:0:0:0:
412,72,140671,1,0,0:0:0:0:
396,60,140828,6,0,P|316:40|228:84,1,160,6|0,0:3|0:0,0:0:0:0:
196,176,141765,1,2,0:3:0:0:
296,336,142078,2,0,L|380:336,1,80,8|0,0:1|0:0,0:0:0:0:
456,248,142703,1,0,0:0:0:0:
492,364,143015,1,0,0:0:0:0:
344,252,143328,6,0,P|324:204|372:100,1,160,6|0,0:3|0:0,0:0:0:0:
440,188,144265,1,0,0:0:0:0:
256,92,144578,2,0,P|208:92|152:100,1,80,8|0,0:1|0:0,0:0:0:0:
112,200,145203,1,2,0:0:0:0:
232,188,145515,1,2,0:3:0:0:
24,144,145828,6,0,P|8:216|52:292,1,160,6|0,0:3|0:0,0:0:0:0:
160,332,146765,1,2,0:3:0:0:
232,188,147078,2,0,L|248:104,1,80,8|0,0:1|0:0,0:0:0:0:
336,240,147703,2,0,L|352:156,1,80
248,32,148328,6,0,P|208:32|152:48,1,80,6|0,0:3|0:0,0:0:0:0:
148,172,148953,1,0,0:0:0:0:
240,268,149265,1,0,0:0:0:0:
336,120,149578,2,0,P|296:120|240:136,1,80,8|0,0:1|0:0,0:0:0:0:
148,172,150203,2,0,L|140:80,1,80,2|0,0:0|0:0,0:0:0:0:
32,200,150828,6,0,L|36:292,1,80,2|2,0:0|0:3,0:0:0:0:
136,344,151453,2,0,P|169:336|236:340,1,80,0|2,0:0|0:3,0:0:0:0:
392,352,152078,1,8,0:1:0:0:
432,240,152390,1,8,0:3:0:0:
260,184,152703,1,2,0:0:0:0:
260,184,153328,6,0,P|252:256|256:360,1,160,4|0,0:0|0:0,0:0:0:0:
372,360,154265,1,0,0:0:0:0:
152,308,154578,1,8,0:1:0:0:
164,188,154890,1,2,0:3:0:0:
208,76,155203,1,0,0:0:0:0:
296,156,155515,1,0,0:0:0:0:
296,156,155671,1,0,0:0:0:0:
296,156,155828,6,0,L|396:160,1,80,6|0,0:3|0:0,0:0:0:0:
287,251,156453,2,0,L|387:255,1,80
208,160,157078,2,0,P|167:225|188:312,1,160,8|0,0:1|0:0,0:0:0:0:
287,251,158015,1,0,0:0:0:0:
104,180,158328,6,0,L|-4:184,1,80,6|0,0:3|0:0,0:0:0:0:
36,304,158953,2,0,L|144:308,1,80,0|2,0:0|0:3,0:0:0:0:
260,228,159578,2,0,P|264:192|288:136,2,80,8|2|2,0:1|0:0|0:0,0:0:0:0:
332,324,160515,1,0,0:0:0:0:
416,236,160828,6,0,L|500:236,1,80,2|0,0:0|0:0,0:0:0:0:
424,140,161453,2,0,L|340:140,1,80,2|2,0:0|0:3,0:0:0:0:
176,168,162078,2,0,B|156:224|172:264|172:264|208:256|240:276,1,160,8|2,0:1|0:0,0:0:0:0:
324,192,163015,1,0,0:0:0:0:
124,84,163328,6,0,P|96:124|87:154,1,80,4|0,0:0|0:0,0:0:0:0:
128,268,163953,2,0,P|159:292|198:304,1,80,0|2,0:0|0:3,0:0:0:0:
312,224,164578,2,0,P|388:200|468:232,1,160,8|0,0:1|0:0,0:0:0:0:
388,320,165515,1,2,0:3:0:0:
236,268,165828,6,0,P|228:220|240:176,1,80,6|0,0:3|0:0,0:0:0:0:
320,108,166453,2,0,P|328:60|316:16,1,80,0|6,0:0|0:3,0:0:0:0:
148,152,167078,1,8,0:1:0:0:
36,108,167390,1,0,0:0:0:0:
28,228,167703,1,2,0:0:0:0:
104,320,168015,1,0,0:0:0:0:
184,232,168328,6,0,P|252:256|352:208,1,160,2|2,0:0|0:0,0:0:0:0:
432,160,169265,1,2,0:3:0:0:
311,60,169578,2,0,P|306:100|312:140,1,80,8|0,0:1|0:0,0:0:0:0:
340,256,170203,1,0,0:0:0:0:
436,328,170515,1,0,0:0:0:0:
512,244,170828,1,2,0:3:0:0:
336,152,171140,5,2,0:0:0:0:
440,92,171453,1,8,0:1:0:0:
287,55,171765,1,0,0:0:0:0:
287,55,171921,1,0,3:0:0:0:
287,55,172078,2,0,P|215:87|140:67,1,160,8|0,0:1|0:0,0:0:0:0:
139,66,173328,6,0,P|166:140|143:219,1,160,4|0,0:0|0:0,0:0:0:0:
52,288,174265,1,2,0:3:0:0:
160,332,174578,2,0,L|252:332,1,80,8|2,0:1|0:3,0:0:0:0:
356,296,175203,2,0,L|448:296,1,80,0|2,0:0|0:3,0:0:0:0:
333,183,175828,6,0,P|260:153|184:172,1,160,6|2,0:3|0:0,0:0:0:0:
116,272,176765,1,2,0:3:0:0:
48,136,177078,2,0,L|56:40,1,80,8|0,0:1|0:0,0:0:0:0:
184,172,177703,2,0,L|192:76,1,80,2|0,0:0|0:0,0:0:0:0:
248,244,178328,6,0,P|174:268|104:228,1,160,6|0,0:3|0:0,0:0:0:0:
112,112,179265,1,2,0:3:0:0:
316,36,179578,1,8,0:1:0:0:
256,136,179890,1,0,0:0:0:0:
312,244,180203,1,2,0:0:0:0:
404,172,180515,1,0,0:0:0:0:
404,172,180671,1,0,0:0:0:0:
404,172,180828,6,0,P|428:248|376:344,1,160,2|2,0:0|0:0,0:0:0:0:
284,304,181765,1,6,0:3:0:0:
168,344,182078,2,0,B|128:356|128:356|88:344,1,80,8|0,0:1|0:0,0:0:0:0:
48,232,182703,2,2,B|88:220|88:220|128:232,1,80
284,304,183328,6,0,P|256:256|300:160,1,160,4|0,0:0|0:0,0:0:0:0:
384,92,184265,1,0,0:0:0:0:
216,48,184578,2,0,P|168:48|112:56,1,80,8|0,0:1|0:0,0:0:0:0:
92,164,185203,1,0,0:0:0:0:
128,280,185515,1,2,0:3:0:0:
280,140,185828,6,0,P|328:140|384:148,1,80,6|0,0:3|0:0,0:0:0:0:
480,248,186453,2,0,P|432:248|376:256,1,80,0|2,0:0|0:3,0:0:0:0:
180,296,187078,2,0,L|168:192,1,80,8|0,0:1|0:0,0:0:0:0:
56,188,187703,2,0,L|44:84,1,80
188,64,188328,6,0,P|227:67|267:65,1,80,2|0,0:0|0:0,0:0:0:0:
388,60,188953,1,4,0:3:0:0:
376,180,189265,1,0,0:0:0:0:
195,143,189578,2,0,L|188:64,1,80,8|0,0:1|0:0,0:0:0:0:
116,160,190203,2,0,L|108:80,1,80,2|0,0:0|0:0,0:0:0:0:
272,216,190828,6,0,L|279:295,1,80,6|0,0:3|0:0,0:0:0:0:
351,199,191453,2,0,L|358:278,1,80,2|2,0:0|0:3,0:0:0:0:
424,120,192078,1,8,0:1:0:0:
304,96,192390,1,2,0:3:0:0:
456,276,192703,1,6,0:3:0:0:
456,276,193328,6,0,P|368:280|288:300,1,160,4|0,0:0|0:0,0:0:0:0:
192,352,194265,1,0,0:0:0:0:
116,180,194578,1,8,0:1:0:0:
204,100,194890,1,2,0:3:0:0:
272,196,195203,1,2,0:0:0:0:
192,284,195515,1,0,0:0:0:0:
192,284,195828,6,0,L|92:288,1,80,2|0,0:0|0:0,0:0:0:0:
244,352,196453,2,0,L|344:356,1,80,2|2,0:0|0:3,0:0:0:0:
480,252,197078,2,0,P|460:188|400:112,1,160,8|2,0:1|0:0,0:0:0:0:
296,64,198015,1,2,0:3:0:0:
164,168,198328,6,0,P|124:176|56:172,1,80,2|0,0:0|0:0,0:0:0:0:
64,296,198953,2,0,P|30:273|-15:222,1,80,2|2,0:0|0:3,0:0:0:0:
152,80,199578,2,0,P|192:88|260:84,1,80,8|0,0:1|0:0,0:0:0:0:
252,208,200203,2,0,P|285:185|331:134,1,80,2|2,0:0|0:3,0:0:0:0:
400,64,200828,6,0,L|484:64,1,80,2|0,0:0|0:0,0:0:0:0:
512,184,201453,2,0,L|432:184,1,80,2|2,0:0|0:3,0:0:0:0:
252,208,202078,2,0,B|232:160|260:108|260:108|196:68,1,160,8|0,0:1|0:0,0:0:0:0:
104,128,203015,1,2,0:3:0:0:
172,272,203328,6,0,P|212:300|268:312,1,80,2|0,0:0|0:0,0:0:0:0:
360,292,203953,2,0,P|397:284|452:292,1,80,2|0,0:0|0:0,0:0:0:0:
496,140,204578,2,0,P|458:147|404:140,1,80,8|0,0:1|0:0,0:0:0:0:
312,84,205203,1,0,0:0:0:0:
424,40,205515,1,2,0:3:0:0:
222,41,205828,6,0,P|215:81|224:120,1,80,6|0,0:3|0:0,0:0:0:0:
288,220,206453,2,0,P|294:259|286:298,1,80,2|2,0:0|0:3,0:0:0:0:
96,272,207078,1,8,0:1:0:0:
228,348,207390,1,0,0:0:0:0:
196,236,207703,1,2,0:0:0:0:
88,360,208015,1,0,0:0:0:0:
100,132,208328,6,0,P|168:156|268:108,1,160,4|0,0:0|0:0,0:0:0:0:
360,84,209265,1,2,0:3:0:0:
316,224,209578,2,0,P|312:280|320:316,1,80,8|0,0:1|0:0,0:0:0:0:
436,300,210203,2,0,P|441:260|436:220,1,80,2|0,0:0|0:0,0:0:0:0:
324,104,210828,6,0,P|220:124|148:76,1,160,6|0,0:3|0:0,0:0:0:0:
56,88,211765,1,2,0:3:0:0:
120,240,212078,1,8,0:1:0:0:
76,352,212390,1,0,0:0:0:0:
284,304,212703,1,8,0:1:0:0:
176,352,213015,1,0,0:0:0:0:
248,160,213328,6,0,P|323:134|404:164,1,160,4|0,0:0|0:0,0:0:0:0:
484,240,214265,1,2,0:3:0:0:
403,327,214578,2,0,P|327:352|247:323,1,160,8|2,0:1|0:0,0:0:0:0:
254,328,215828,6,0,P|228:264|264:172,1,160,2|0,0:3|0:0,0:0:0:0:
348,256,216765,1,2,0:0:0:0:
336,135,217078,2,0,B|276:91|276:91|190:99,1,160,8|0,0:1|0:0,0:0:0:0:
190,99,218328,6,0,B|166:169|166:177|167:174,1,80,2|0,0:0|0:0,0:0:0:0:
308,280,218953,2,0,B|309:283|309:275|285:203,1,80,0|2,0:0|0:0,0:0:0:0:
248,40,219578,2,0,B|308:44|356:68|356:68|404:40,1,160,8|2,0:1|0:0,0:0:0:0:
440,308,220828,5,4,0:0:0:0:
172,296,221453,1,8,0:1:0:0:
140,176,221793,1,6,0:0:0:0:
464,208,222934,5,2,0:3:0:0:
256,192,224005,12,0,229362,0:0:0:0:
