osu file format v14

[General]
AudioFilename: Tong Hua.mp3
AudioLeadIn: 0
PreviewTime: 164829
Countdown: 0
SampleSet: Soft
StackLeniency: 0.7
Mode: 0
LetterboxInBreaks: 0
WidescreenStoryboard: 1

[Editor]
DistanceSpacing: 1
BeatDivisor: 4
GridSize: 4
TimelineZoom: 1

[Metadata]
Title:Tong Hua
TitleUnicode:童話
Artist:Michael Wong
ArtistUnicode:光良
Creator:Karen
Version:Normal <3
Source:
Tags:Guang Liang Fairytale 光芒 Guang Mang Xinely
BeatmapID:813910
BeatmapSetID:371502

[Difficulty]
HPDrainRate:4
CircleSize:4
OverallDifficulty:4
ApproachRate:5
SliderMultiplier:2.8
SliderTickRate:1

[Events]
//Background and Video events
0,0,"KareNely.jpg",0,0
//Break Periods
//Storyboard Layer 0 (Background)
//Storyboard Layer 1 (Fail)
//Storyboard Layer 2 (Pass)
//Storyboard Layer 3 (Foreground)
//Storyboard Sound Samples

[TimingPoints]
481,952.380952380952,4,2,1,35,1,0
481,-166.666666666667,4,2,1,35,0,0
957,882.352941176471,4,2,1,35,1,0
1398,833.333333333333,4,2,1,35,1,0
1814,869.565217391304,4,2,1,35,1,0
3118,857.142857142857,4,2,1,35,1,0
3118,-166.666666666667,4,2,1,35,0,0
3975,895.522388059701,4,2,1,35,1,0
3975,-166.666666666667,4,2,1,35,0,0
6661,869.565217391304,4,2,1,35,1,0
6661,-166.666666666667,4,2,1,35,0,0
7530,882.352941176471,4,2,1,35,1,0
7530,-166.666666666667,4,2,1,35,0,0
11059,923.076923076923,4,2,1,35,1,0
13366,779.220779220779,4,2,1,35,1,0
13366,-166.666666666667,4,2,1,35,0,0
14534,810.810810810811,4,2,1,35,1,0
14534,-166.666666666667,4,2,1,35,0,0
15344,1132.07547169811,4,2,1,35,1,0
15910,882.352941176471,4,2,1,35,1,0
16792,909.090909090909,4,2,1,35,1,0
16792,-166.666666666667,4,2,1,35,0,0
17701,821.917808219178,4,2,1,35,1,0
18111,833.333333333333,4,2,1,35,1,0
18111,-166.666666666667,4,2,1,35,0,0
18944,902.255639097744,4,2,1,35,1,0
20297,1000,4,2,1,35,1,0
20797,853.48506401138,4,2,1,35,1,0
21650,917.992656058752,4,2,1,35,1,0
21650,-166.666666666667,4,2,1,35,0,0
23485,821.917808219178,4,2,1,35,1,0
23485,-166.666666666667,4,2,1,35,0,0
24717,923.076923076923,4,2,1,35,1,0
25178,882.352941176471,4,2,1,35,1,0
26942,923.076923076923,4,2,1,35,1,0
28326,821.917808219178,4,2,1,35,1,0
28736,833.333333333333,4,2,1,35,1,0
28736,-166.666666666667,4,2,1,35,0,0
29569,923.076923076923,4,2,1,35,1,0
30492,882.352941176471,4,2,1,35,1,0
31374,1200,4,2,1,35,1,0
31374,-166.666666666667,4,2,1,35,0,0
31974,600,4,2,1,35,1,0
32274,857.142857142857,4,2,1,35,1,0
32274,-166.666666666667,4,2,1,35,0,0
33988,800,4,2,1,35,1,0
34388,882.352941176471,4,2,1,35,1,0
34388,-166.666666666667,4,2,1,35,0,0
35270,810.810810810811,4,2,1,35,1,0
35675,937.5,4,2,1,35,1,0
35675,-166.666666666667,4,2,1,35,0,0
37081,810.810810810811,4,2,1,35,1,0
37486,882.352941176471,4,2,1,35,1,0
37486,-166.666666666667,4,2,1,35,0,0
37927,1000,4,2,1,35,1,0
38427,857.142857142857,4,2,1,35,1,0
38855,909.090909090909,4,2,1,35,1,0
38855,-166.666666666667,4,2,1,35,0,0
39764,857.142857142857,4,2,1,35,1,0
39764,-166.666666666667,4,2,1,35,0,0
40621,882.352941176471,4,2,1,35,1,0
41503,779.220779220779,4,2,1,35,1,0
41503,-166.666666666667,4,2,1,35,0,0
42282,882.352941176471,4,2,1,35,1,0
42723,1000,4,2,1,35,1,0
42723,-166.666666666667,4,2,1,35,0,0
43723,857.142857142857,4,2,1,35,1,0
43723,-166.666666666667,4,2,1,35,0,0
46294,1034.48275862069,4,2,1,35,1,0
46294,-166.666666666667,4,2,1,35,0,0
46811,750,4,2,1,35,1,0
47186,967.741935483871,4,2,1,35,1,0
48153,833.333333333333,4,2,1,35,1,0
48153,-166.666666666667,4,2,1,35,0,0
49403,1029.15951972556,4,2,1,35,1,0
49917,857.142857142857,4,2,1,35,1,0
49917,-166.666666666667,4,2,1,35,0,0
52059,937.5,4,2,1,35,1,0
52527,882.352941176471,4,2,1,35,1,0
52527,-166.666666666667,4,2,1,35,0,0
53409,882.352941176471,4,2,1,35,1,0
53409,-166.666666666667,4,2,1,35,0,0
55173,909.090909090909,4,2,1,35,1,0
55173,-166.666666666667,4,2,1,35,0,0
56991,869.565217391304,4,2,1,35,1,0
56991,-166.666666666667,4,2,1,35,0,0
60469,882.352941176471,4,2,1,35,1,0
60469,-166.666666666667,4,2,1,35,0,0
62233,895.522388059701,4,2,1,35,1,0
62233,-166.666666666667,4,2,1,35,0,0
63576,882.352941176471,4,2,1,35,1,0
64017,857.142857142857,4,2,1,35,1,0
64017,-166.666666666667,4,2,1,35,0,0
64874,895.522388059701,4,2,1,35,1,0
66665,882.352941176471,4,2,1,35,1,0
66665,-166.666666666667,4,2,1,35,0,0
67547,882.352941176471,4,2,1,35,1,0
67547,-166.666666666667,4,2,1,35,0,0
69311,937.5,4,2,1,35,1,0
70248,810.810810810811,4,2,1,35,1,0
71058,882.352941176471,4,2,1,35,1,0
71058,-166.666666666667,4,2,1,35,0,0
109871,882.352941176471,4,2,1,40,1,0
109871,-142.857142857143,4,2,1,40,0,0
138106,-125,4,2,1,50,0,0
166341,-111.111111111111,4,2,1,55,0,0
193253,-111.111111111111,4,2,1,60,0,0
194576,-100,4,2,1,65,0,1
219282,-125,4,2,1,65,0,0
226342,1090.90909090909,4,2,1,65,1,0
228523,1558.44155844156,4,2,1,65,1,0
231639,1621.62162162162,4,2,1,65,1,0

[Colours]
Combo1 : 255,187,255
Combo2 : 179,102,102
Combo3 : 255,185,115
Combo4 : 238,0,119

[HitObjects]
174,251,481,5,2,0:0:0:0:
426,70,3118,2,0,P|373:49|304:65,1,125.999996154785,2|2,0:0|0:0,0:0:0:0:
331,95,3975,2,0,P|340:156|305:217,1,125.999996154785,2|2,0:0|0:0,0:0:0:0:
63,326,6661,6,0,P|116:347|185:332,1,125.999996154785,2|2,0:0|0:0,0:0:0:0:
154,303,7530,2,0,P|145:242|182:182,1,125.999996154785,2|2,0:0|0:0,0:0:0:0:
445,142,10177,2,0,L|442:271,1,125.999996154785,2|2,0:0|0:0,0:0:0:0:
451,313,11059,1,2,0:0:0:0:
50,194,13366,5,0,0:0:0:0:
133,182,13755,1,0,0:0:0:0:
204,226,14145,1,0,0:0:0:0:
215,306,14534,2,0,P|307:333|386:289,1,167.999994873047,0|0,3:0|0:0,0:0:0:0:
442,48,16792,5,0,0:0:0:0:
371,92,17246,2,0,L|282:94,1,83.9999974365235,2|0,0:0|0:0,0:0:0:0:
220,42,18111,2,0,P|203:110|264:176,1,167.999994873047,2|0,0:0|0:0,0:0:0:0:
489,290,20297,5,0,0:0:0:0:
407,269,20797,1,2,0:0:0:0:
336,314,21223,1,0,0:0:0:0:
407,353,21650,2,0,P|407:272|313:231,1,167.999994873047,0|0,3:0|0:0,0:0:0:0:
265,266,23026,1,0,0:0:0:0:
200,319,23485,2,0,L|108:330,1,83.9999974365235,0|0,0:0|0:0,0:0:0:0:
88,249,24306,2,0,L|171:239,1,83.9999974365235,2|0,0:0|0:0,0:0:0:0:
230,179,25178,1,2,0:0:0:0:
94,79,26060,5,2,0:0:0:0:
88,249,26942,1,2,0:0:0:0:
130,176,27403,1,0,0:0:0:0:
46,175,27865,1,0,0:0:0:0:
88,249,28326,1,0,0:0:0:0:
171,251,28736,2,0,P|249:218|336:256,1,167.999994873047,0|0,3:0|0:0,0:0:0:0:
381,305,30030,1,2,0:0:0:0:
473,164,30933,5,0,0:0:0:0:
473,164,31374,2,0,P|490:99|475:55,1,83.9999974365235,0|0,0:0|0:0,0:0:0:0:
444,48,32274,2,0,L|347:50,1,83.9999974365235,2|0,0:0|0:0,0:0:0:0:
276,75,33131,1,0,0:0:0:0:
201,35,33559,1,2,0:0:0:0:
56,119,34388,6,0,P|47:157|65:219,2,83.9999974365235,0|0|0,0:0|0:0|0:0,0:0:0:0:
126,72,35675,2,0,P|89:41|29:36,1,83.9999974365235,0|0,3:0|0:0,0:0:0:0:
134,180,37081,1,2,0:0:0:0:
190,242,37486,2,0,P|238:249|288:229,1,83.9999974365235
335,184,38427,5,2,0:0:0:0:
391,245,38855,2,0,L|396:339,1,83.9999974365235,0|2,0:0|0:0,0:0:0:0:
475,349,39764,1,0,0:0:0:0:
481,265,40192,2,0,L|477:177,1,83.9999974365235,2|2,0:0|0:0,0:0:0:0:
461,98,41062,1,2,0:0:0:0:
383,130,41503,2,0,P|338:141|290:124,1,83.9999974365235,0|0,0:0|0:0,0:0:0:0:
241,74,42282,1,0,0:0:0:0:
191,141,42723,6,0,L|190:248,1,83.9999974365235,0|0,3:0|0:0,0:0:0:0:
134,287,43723,1,0,0:0:0:0:
68,237,44151,1,2,0:0:0:0:
68,237,45008,2,0,L|62:140,2,83.9999974365235,0|0|0,0:0|0:0|0:0,0:0:0:0:
57,320,46294,2,0,P|84:356|140:374,1,83.9999974365235,2|0,0:0|0:0,0:0:0:0:
202,370,47186,1,0,0:0:0:0:
283,349,47669,1,2,0:0:0:0:
283,349,48986,2,0,L|376:339,1,83.9999974365235,0|0,0:0|0:0,0:0:0:0:
444,309,49917,6,0,P|470:231|433:153,1,167.999994873047,0|0,3:0|0:0,0:0:0:0:
353,142,51202,1,0,0:0:0:0:
281,186,51631,2,0,P|236:196|175:184,1,83.9999974365235,2|0,0:0|0:0,0:0:0:0:
190,102,52527,2,0,P|235:92|296:104,1,83.9999974365235,2|0,0:0|0:0,0:0:0:0:
346,136,53409,2,0,L|338:37,2,83.9999974365235,2|0|2,0:0|0:0|0:0,0:0:0:0:
340,219,54732,1,0,0:0:0:0:
310,295,55173,2,0,P|234:322|151:289,1,167.999994873047,2|0,0:0|0:0,0:0:0:0:
44,163,56991,6,0,P|95:152|137:160,1,83.9999974365235,0|0,3:0|0:0,0:0:0:0:
199,196,57860,1,0,0:0:0:0:
283,191,58295,1,2,0:0:0:0:
426,103,59164,2,0,L|429:16,2,83.9999974365235,0|2|0,0:0|0:0|0:0,0:0:0:0:
413,186,60469,2,0,P|412:223|434:281,1,83.9999974365235,2|0,0:0|0:0,0:0:0:0:
446,348,61351,2,0,L|334:351,1,83.9999974365235,0|2,0:0|0:0,0:0:0:0:
202,298,62680,2,0,P|160:291|114:308,2,83.9999974365235,0|2|0,0:0|0:0|0:0,0:0:0:0:
259,359,64017,6,0,P|286:296|227:218,1,167.999994873047,0|0,3:0|0:0,0:0:0:0:
150,207,65321,1,2,0:0:0:0:
91,146,65769,1,0,0:0:0:0:
85,62,66217,1,0,0:0:0:0:
155,15,66665,2,0,P|170:58|147:117,1,83.9999974365235,2|2,0:0|0:0,0:0:0:0:
91,146,67547,2,0,P|163:184|247:127,2,167.999994873047,2|2|2,0:0|0:0|0:0,0:0:0:0:
85,62,69779,1,0,0:0:0:0:
162,94,70248,1,2,0:0:0:0:
240,64,70653,1,0,0:0:0:0:
320,39,71058,6,0,B|419:39|419:39|420:117,1,167.999994873047,0|8,3:0|0:0,0:0:0:0:
400,189,72381,1,0,0:0:0:0:
360,263,72822,2,0,P|352:302|372:358,1,83.9999974365235,2|0,0:0|0:0,0:0:0:0:
447,341,73705,2,0,P|457:300|449:259,1,83.9999974365235,8|0,0:0|0:0,0:0:0:0:
400,189,74587,2,0,P|323:164|237:213,1,167.999994873047,2|8,0:0|0:0,0:0:0:0:
188,259,75910,1,0,0:0:0:0:
119,307,76352,2,0,L|11:314,1,83.9999974365235,2|0,0:0|0:0,0:0:0:0:
26,228,77234,2,0,L|109:222,1,83.9999974365235,8|0,0:0|0:0,0:0:0:0:
181,177,78116,6,0,B|202:118|170:51|170:51|126:104,1,167.999994873047,2|8,0:0|0:0,0:0:0:0:
87,140,79440,1,0,0:0:0:0:
109,221,79881,2,0,P|139:249|196:259,1,83.9999974365235,2|0,0:0|0:0,0:0:0:0:
263,261,80763,2,0,L|368:260,1,83.9999974365235,8|0,0:0|0:0,0:0:0:0:
421,220,81646,2,0,P|431:264|409:313,1,83.9999974365235,2|0,0:0|0:0,0:0:0:0:
353,351,82528,1,8,0:0:0:0:
268,355,82969,2,0,L|192:358,2,41.9999987182618,0|0|2,0:0|0:0|0:0,0:0:0:0:
353,351,83852,1,0,0:0:0:0:
419,300,84293,1,8,0:0:0:0:
421,220,84734,1,0,0:0:0:0:
383,144,85175,6,0,B|331:168|331:168|199:146,1,167.999994873047,2|8,0:0|0:0,0:0:0:0:
169,83,86499,1,0,0:0:0:0:
233,28,86940,2,0,P|273:19|322:27,1,83.9999974365235,2|0,0:0|0:0,0:0:0:0:
389,64,87822,1,8,0:0:0:0:
465,28,88263,1,0,0:0:0:0:
461,111,88705,2,0,P|431:181|480:268,1,167.999994873047,2|8,0:0|0:0,0:0:0:0:
444,340,90028,1,0,0:0:0:0:
368,303,90469,2,0,P|291:277|209:312,1,167.999994873047,2|8,0:0|0:0,0:0:0:0:
137,343,91793,1,0,0:0:0:0:
58,311,92234,6,0,B|86:261|85:226|57:191|57:191|74:123,1,167.999994873047,2|8,0:0|0:0,0:0:0:0:
96,74,93558,1,0,0:0:0:0:
150,137,93999,2,0,B|190:163|190:163|263:163|263:163|315:123,2,167.999994873047,2|8|2,0:0|0:0|0:0,0:0:0:0:
263,12,96646,1,8,0:0:0:0:
346,20,97087,2,0,B|404:45|465:20|465:20|439:80,1,167.999994873047,2|0,0:0|0:0,0:0:0:0:
402,133,98410,6,0,P|375:215|429:288,1,167.999994873047,10|2,0:0|0:0,0:0:0:0:
483,328,99734,1,0,0:0:0:0:
406,361,100175,2,0,L|315:358,1,83.9999974365235,10|0,0:0|0:0,0:0:0:0:
254,308,101058,1,2,0:0:0:0:
215,233,101499,1,2,0:0:0:0:
221,149,101940,1,10,0:0:0:0:
258,74,102381,1,2,0:0:0:0:
186,30,102822,2,0,B|146:58|146:58|118:19|68:5|16:31,1,167.999994873047,2|8,0:0|0:0,0:0:0:0:
74,101,104146,2,0,P|110:186|76:250,1,167.999994873047,2|0,0:0|0:0,0:0:0:0:
8,296,105469,6,0,L|201:283,1,167.999994873047,10|2,0:0|0:0,0:0:0:0:
253,255,106793,1,0,0:0:0:0:
325,212,107234,2,0,P|335:263|312:308,1,83.9999974365235,8|0,0:0|0:0,0:0:0:0:
277,361,108116,1,10,0:0:0:0:
156,16,109871,6,0,B|112:49|112:49|151:103|147:149|111:203,1,195.999994018555,2|0,0:3|0:0,0:0:0:0:
38,227,111194,1,2,0:0:0:0:
43,129,111635,1,2,0:3:0:0:
125,182,112076,2,0,L|243:187,1,97.9999970092774,0|8,0:0|0:0,0:0:0:0:
319,170,112959,1,0,0:0:0:0:
380,245,113400,6,0,P|364:300|389:347,1,97.9999970092774,2|0,0:3|0:0,0:0:0:0:
464,289,114282,2,0,P|480:234|454:186,1,97.9999970092774,8|0,0:0|0:0,0:0:0:0:
429,164,114944,1,0,0:0:0:0:
380,158,115165,2,0,L|263:160,1,97.9999970092774,2|0,0:3|0:0,0:0:0:0:
185,144,116047,1,8,0:0:0:0:
112,77,116488,1,0,0:0:0:0:
33,135,116929,6,0,P|-2:237|92:310,1,195.999994018555,2|8,0:3|0:0,0:0:0:0:
93,212,118253,1,0,0:0:0:0:
166,146,118694,2,0,P|226:130|281:143,1,97.9999970092774,2|0,0:3|0:0,0:0:0:0:
317,215,119576,2,0,P|257:231|204:215,1,97.9999970092774,8|0,0:0|0:0,0:0:0:0:
153,294,120459,5,2,0:3:0:0:
240,337,120900,1,0,0:0:0:0:
336,354,121341,2,0,L|453:351,1,97.9999970092774,8|0,0:0|0:0,0:0:0:0:
472,321,122003,1,0,0:0:0:0:
491,276,122223,1,2,0:3:0:0:
432,197,122665,2,0,P|417:143|432:89,1,97.9999970092774,0|8,0:0|0:0,0:0:0:0:
496,36,123547,1,0,0:0:0:0:
403,4,123988,6,0,L|293:10,1,97.9999970092774,2|0,0:3|0:0,0:0:0:0:
208,24,124871,2,0,P|187:71|212:134,1,97.9999970092774,8|2,0:0|0:0,0:0:0:0:
278,168,125753,1,2,0:3:0:0:
232,254,126194,1,0,0:0:0:0:
139,221,126635,2,0,L|9:230,1,97.9999970092774,8|0,0:0|0:0,0:0:0:0:
59,324,127518,6,0,L|193:316,1,97.9999970092774,2|0,0:3|0:0,0:0:0:0:
232,254,128400,1,8,0:0:0:0:
276,167,128841,1,0,0:0:0:0:
218,87,129282,1,2,0:3:0:0:
276,167,129723,2,0,P|333:180|401:163,1,97.9999970092774,0|8,0:0|0:0,0:0:0:0:
434,99,130606,1,0,0:0:0:0:
509,161,131047,6,0,B|493:206|493:206|547:296|471:365,1,195.999994018555,2|8,0:3|0:0,0:0:0:0:
422,273,132371,2,0,P|362:258|312:275,1,97.9999970092774,0|2,0:0|0:3,0:0:0:0:
252,329,133253,1,0,0:0:0:0:
157,303,133694,2,0,P|141:244|157:196,1,97.9999970092774,8|0,0:0|0:0,0:0:0:0:
140,111,134576,6,0,L|27:106,1,97.9999970092774,2|0,0:3|0:0,0:0:0:0:
68,12,135459,2,0,L|178:17,1,97.9999970092774,8|0,0:0|0:0,0:0:0:0:
243,75,136341,1,2,0:3:0:0:
332,35,136782,2,0,P|398:29|446:43,1,97.9999970092774,0|8,0:0|0:0,0:0:0:0:
469,62,137444,1,8,0:0:0:0:
487,107,137665,1,8,0:3:0:0:
459,215,138106,6,0,P|357:261|255:220,1,224,4|8,0:0|0:0,0:0:0:0:
172,150,139429,1,0,0:0:0:0:
172,150,139650,1,0,0:0:0:0:
172,150,139871,2,0,P|109:135|46:161,1,112,0|2,0:3|0:3,0:0:0:0:
116,249,140753,2,0,P|102:314|55:348,1,112,8|0,0:0|0:0,0:0:0:0:
174,368,141635,6,0,L|301:369,1,112,2|0,0:3|0:0,0:0:0:0:
315,260,142518,2,0,P|362:244|432:265,1,112,8|0,0:0|0:0,0:0:0:0:
462,294,143179,1,0,0:0:0:0:
502,254,143400,2,0,L|498:133,1,112,2|2,0:3|0:3,0:0:0:0:
429,53,144282,1,8,0:0:0:0:
348,131,144723,1,0,0:0:0:0:
275,45,145165,6,0,L|157:46,1,112,2|0,0:3|0:0,0:0:0:0:
54,20,146047,2,0,P|48:66|91:133,1,112,8|0,0:0|0:0,0:0:0:0:
132,132,146709,1,0,0:0:0:0:
186,142,146929,2,0,P|214:201|195:278,1,112,2|2,0:3|0:3,0:0:0:0:
152,342,147812,2,0,L|283:341,1,112,8|0,0:0|0:0,0:0:0:0:
307,306,148473,1,0,0:0:0:0:
345,265,148694,6,0,L|476:264,1,112,2|0,0:3|0:0,0:0:0:0:
490,157,149576,1,8,0:0:0:0:
435,58,150018,1,0,0:0:0:0:
330,16,150459,2,0,P|274:8|221:23,1,112,2|2,0:3|0:3,0:0:0:0:
148,103,151341,1,8,0:0:0:0:
43,63,151782,1,0,0:0:0:0:
66,172,152223,6,0,L|65:322,1,112,2|0,0:3|0:0,0:0:0:0:
153,353,153106,2,0,P|207:369|274:351,1,112,8|0,0:0|0:0,0:0:0:0:
295,314,153768,1,0,0:0:0:0:
319,263,153988,2,0,L|313:141,1,112,2|2,0:3|0:3,0:0:0:0:
244,62,154871,1,8,0:0:0:0:
201,165,155312,1,0,0:0:0:0:
313,151,155753,6,0,P|368:134|429:150,1,112,4|0,0:0|0:0,0:0:0:0:
371,246,156635,2,0,L|249:267,1,112,8|0,0:0|0:0,0:0:0:0:
204,257,157297,1,0,0:0:0:0:
157,224,157518,2,0,P|166:285|123:353,1,112,2|2,0:3|0:3,0:0:0:0:
46,380,158400,1,8,0:0:0:0:
52,270,158841,1,0,0:0:0:0:
157,224,159282,6,0,P|219:214|273:230,1,112,2|0,0:3|0:0,0:0:0:0:
352,297,160165,2,0,P|380:233|363:173,1,112,8|0,0:0|0:0,0:0:0:0:
291,116,161047,2,0,L|416:109,1,112,2|2,0:3|0:3,0:0:0:0:
443,5,161929,2,0,L|331:11,1,112,8|0,0:0|0:0,0:0:0:0:
224,44,162812,6,0,P|194:90|208:172,1,112,4|0,0:0|0:0,0:0:0:0:
229,251,163694,2,0,L|81:255,1,112,8|0,0:0|0:0,0:0:0:0:
57,159,164576,1,2,0:3:0:0:
132,76,165018,1,8,0:0:0:0:
81,53,165238,1,8,0:0:0:0:
24,52,165459,1,0,0:0:0:0:
57,159,165900,1,8,0:3:0:0:
164,191,166341,6,0,P|284:156|403:193,1,251.999992309571,4|8,0:0|0:0,0:0:0:0:
339,301,167665,2,0,P|282:279|224:300,1,125.999996154785,0|2,0:0|0:3,0:0:0:0:
113,360,168547,1,2,0:3:0:0:
34,264,168988,2,0,P|12:201|52:125,1,125.999996154785,8|0,0:0|0:0,0:0:0:0:
125,64,169871,5,2,0:3:0:0:
163,184,170312,1,0,0:0:0:0:
249,275,170753,2,0,P|313:290|388:271,1,125.999996154785,8|0,0:0|0:0,0:0:0:0:
424,244,171415,1,0,0:0:0:0:
470,201,171635,1,2,0:3:0:0:
487,83,172076,2,0,P|417:79|363:107,1,125.999996154785,2|8,0:3|0:0,0:0:0:0:
266,178,172959,1,0,0:0:0:0:
206,288,173400,6,0,P|118:325|158:228,1,251.999992309571,4|8,0:0|0:0,0:0:0:0:
266,178,174723,1,0,0:0:0:0:
266,178,174944,1,0,0:0:0:0:
266,178,175165,2,0,P|265:105|188:51,1,125.999996154785,2|2,0:3|0:3,0:0:0:0:
141,153,176047,2,0,P|70:163|4:133,1,125.999996154785,8|0,0:0|0:0,0:0:0:0:
2,84,176709,1,0,0:0:0:0:
19,23,176929,5,2,0:3:0:0:
143,2,177371,1,0,0:0:0:0:
267,18,177812,2,0,L|397:17,1,125.999996154785,8|0,0:0|0:0,0:0:0:0:
470,116,178694,1,2,0:3:0:0:
349,157,179135,2,0,P|327:213|346:281,1,125.999996154785,2|8,0:3|0:0,0:0:0:0:
451,337,180018,1,0,0:0:0:0:
328,366,180459,6,0,B|267:340|267:340|203:371|149:338|149:338|83:369,1,251.999992309571,4|8,0:0|0:0,0:0:0:0:
9,270,181782,1,0,0:0:0:0:
9,270,182003,1,0,0:0:0:0:
9,270,182223,2,0,B|-4:207|-4:207|102:182,1,125.999996154785,2|2,0:3|0:3,0:0:0:0:
171,243,183106,2,0,P|184:172|149:113,1,125.999996154785,8|0,0:0|0:0,0:0:0:0:
80,29,183988,6,0,L|252:11,1,125.999996154785,4|0,0:0|0:0,0:0:0:0:
285,114,184871,2,0,L|159:127,1,125.999996154785,8|0,0:0|0:0,0:0:0:0:
113,84,185532,1,0,0:0:0:0:
80,29,185753,1,2,0:3:0:0:
205,15,186194,1,2,0:3:0:0:
330,26,186635,2,0,P|389:45|484:13,1,125.999996154785,8|0,0:0|0:0,0:0:0:0:
511,145,187518,6,0,P|480:206|506:277,1,125.999996154785,2|0,0:3|0:0,0:0:0:0:
374,214,188400,2,0,L|240:226,1,125.999996154785,8|0,0:0|0:0,0:0:0:0:
153,142,189282,1,2,0:3:0:0:
139,267,189723,1,2,0:3:0:0:
36,340,190165,2,0,P|12:279|34:197,1,125.999996154785,8|0,0:0|0:0,0:0:0:0:
139,267,191047,6,0,B|185:254|185:254|268:291,1,125.999996154785,2|0,0:3|0:0,0:0:0:0:
365,349,191929,2,0,P|434:367|508:333,1,125.999996154785,8|0,0:0|0:0,0:0:0:0:
490,225,192812,1,4,0:0:0:0:
440,109,193253,1,8,0:0:0:0:
440,109,193473,1,8,0:0:0:0:
440,109,193694,2,0,L|367:109,1,62.9999980773926,8|8,0:0|0:0,0:0:0:0:
328,68,194135,1,8,0:3:0:0:
187,85,194576,6,0,P|319:66|390:201,1,280,4|8,0:0|0:0,0:0:0:0:
276,256,195900,1,0,0:0:0:0:
152,190,196341,2,0,P|79:173|15:195,1,140,2|2,0:3|0:3,0:0:0:0:
84,315,197223,1,8,0:0:0:0:
204,243,197665,1,0,0:0:0:0:
151,372,198106,5,2,0:3:0:0:
118,235,198547,1,0,0:0:0:0:
225,325,198988,2,0,P|287:340|365:313,1,140,8|0,0:0|0:0,0:0:0:0:
398,260,199650,1,0,0:0:0:0:
366,197,199871,2,0,L|359:50,1,140,2|2,0:3|0:3,0:0:0:0:
223,21,200753,1,8,0:0:0:0:
179,154,201194,1,0,0:0:0:0:
99,38,201635,6,0,B|4:15|4:15|2:68,1,140,2|0,0:3|0:0,0:0:0:0:
102,158,202518,2,0,P|99:233|35:291,1,140,8|0,0:0|0:0,0:0:0:0:
0,316,203179,1,0,0:0:0:0:
60,350,203400,2,0,L|208:354,1,140,2|2,0:3|0:3,0:0:0:0:
304,261,204282,1,8,0:0:0:0:
227,143,204723,2,0,L|250:58,1,70
310,49,205165,6,0,P|388:36|454:58,1,140,2|0,0:3|0:0,0:0:0:0:
440,196,206047,2,0,P|374:211|304:191,1,140,8|0,0:0|0:0,0:0:0:0:
186,126,206929,1,2,0:3:0:0:
63,193,207371,2,0,L|57:345,1,140,2|8,0:3|0:0,0:0:0:0:
181,266,208253,1,0,0:0:0:0:
186,126,208694,6,0,P|127:70|57:54,1,140,4|0,0:0|0:0,0:0:0:0:
63,193,209576,2,0,B|108:256|108:256|225:217,1,140,8|0,0:0|0:0,0:0:0:0:
221,191,210238,1,0,0:0:0:0:
269,139,210459,2,0,L|268:306,1,140,2|2,0:3|0:3,0:0:0:0:
392,343,211341,1,8,0:0:0:0:
465,223,211782,2,0,L|458:139,1,70,8|8,0:0|0:0,0:0:0:0:
460,83,212223,6,0,P|397:126|324:108,1,140,4|0,0:0|0:0,0:0:0:0:
226,30,213106,2,0,L|75:47,1,140,8|0,0:0|0:0,0:0:0:0:
31,89,213768,1,0,0:0:0:0:
86,131,213988,2,0,P|93:204|58:267,1,140,4|0,0:0|0:0,0:0:0:0:
161,360,214871,2,0,L|249:341,1,70,8|8,0:0|0:0,0:0:0:0:
256,280,215312,2,0,L|351:255,1,70,8|8,0:0|0:0,0:0:0:0:
386,294,215753,6,0,P|340:234|371:135,1,140,4|0,0:0|0:0,0:0:0:0:
428,61,216635,1,8,0:0:0:0:
479,190,217076,1,0,0:0:0:0:
343,172,217518,2,0,L|201:175,1,140,2|2,0:3|0:3,0:0:0:0:
107,72,218400,2,0,L|246:69,1,140,8|0,0:0|0:0,0:0:0:0:
203,174,219282,6,0,P|192:287|327:321,1,224,4|8,0:0|0:0,0:0:0:0:
366,262,220606,1,0,0:0:0:0:
451,189,221047,2,0,L|454:54,2,112,2|2|8,0:3|0:3|0:0,0:0:0:0:
474,298,222371,1,0,0:0:0:0:
366,262,222812,6,0,P|299:248|230:275,1,112,2|0,0:3|0:0,0:0:0:0:
195,351,223694,2,0,P|140:361|86:347,1,112,8|0,0:0|0:0,0:0:0:0:
55,239,224576,2,0,L|43:120,1,112,2|2,0:3|0:3,0:0:0:0:
114,40,225459,1,8,0:0:0:0:
155,143,225900,1,0,0:0:0:0:
43,127,226342,5,4,0:0:0:0:
171,208,228523,6,0,B|267:145|350:231|350:231|390:125,2,280,4|0|4,0:0|0:0|0:0,0:0:0:0:
256,192,232044,12,2,236503,0:0:0:0:
