osu file format v14

[General]
AudioFilename: Tong Hua.mp3
AudioLeadIn: 0
PreviewTime: 164829
Countdown: 0
SampleSet: Soft
StackLeniency: 0.7
Mode: 0
LetterboxInBreaks: 0
WidescreenStoryboard: 1

[Editor]
DistanceSpacing: 1.2
BeatDivisor: 4
GridSize: 4
TimelineZoom: 1

[Metadata]
Title:Tong Hua
TitleUnicode:童話
Artist:Michael Wong
ArtistUnicode:光良
Creator:Karen
Version:Easy <3
Source:
Tags:Guang Liang Fairytale 光芒 Guang Mang Xinely
BeatmapID:813909
BeatmapSetID:371502

[Difficulty]
HPDrainRate:2
CircleSize:3
OverallDifficulty:2
ApproachRate:3
SliderMultiplier:1.6
SliderTickRate:1

[Events]
//Background and Video events
0,0,"KareNely.jpg",0,0
//Break Periods
//Storyboard Layer 0 (Background)
//Storyboard Layer 1 (Fail)
//Storyboard Layer 2 (Pass)
//Storyboard Layer 3 (Foreground)
//Storyboard Sound Samples

[TimingPoints]
481,952.380952380952,4,2,1,35,1,0
957,882.352941176471,4,2,1,35,1,0
1398,833.333333333333,4,2,1,35,1,0
1814,869.565217391304,4,2,1,35,1,0
3118,857.142857142857,4,2,1,35,1,0
3975,895.522388059701,4,2,1,35,1,0
6661,869.565217391304,4,2,1,35,1,0
7530,882.352941176471,4,2,1,35,1,0
11059,923.076923076923,4,2,1,35,1,0
13366,779.220779220779,4,2,1,35,1,0
14534,810.810810810811,4,2,1,35,1,0
15344,1132.07547169811,4,2,1,35,1,0
15910,882.352941176471,4,2,1,35,1,0
16792,909.090909090909,4,2,1,35,1,0
17701,821.917808219178,4,2,1,35,1,0
18111,833.333333333333,4,2,1,35,1,0
18944,902.255639097744,4,2,1,35,1,0
20297,1000,4,2,1,35,1,0
20797,853.48506401138,4,2,1,35,1,0
21650,917.992656058752,4,2,1,35,1,0
23485,821.917808219178,4,2,1,35,1,0
24717,923.076923076923,4,2,1,35,1,0
25178,882.352941176471,4,2,1,35,1,0
26942,923.076923076923,4,2,1,35,1,0
28326,821.917808219178,4,2,1,35,1,0
28736,833.333333333333,4,2,1,35,1,0
29569,923.076923076923,4,2,1,35,1,0
30492,882.352941176471,4,2,1,35,1,0
31374,1200,4,2,1,35,1,0
31974,600,4,2,1,35,1,0
32274,857.142857142857,4,2,1,35,1,0
33988,800,4,2,1,35,1,0
34388,882.352941176471,4,2,1,35,1,0
35270,810.810810810811,4,2,1,35,1,0
35675,937.5,4,2,1,35,1,0
37081,810.810810810811,4,2,1,35,1,0
37486,882.352941176471,4,2,1,35,1,0
37927,1000,4,2,1,35,1,0
38427,857.142857142857,4,2,1,35,1,0
38855,909.090909090909,4,2,1,35,1,0
39764,857.142857142857,4,2,1,35,1,0
40621,882.352941176471,4,2,1,35,1,0
41503,779.220779220779,4,2,1,35,1,0
42282,882.352941176471,4,2,1,35,1,0
42723,1000,4,2,1,35,1,0
43723,857.142857142857,4,2,1,35,1,0
46294,1034.48275862069,4,2,1,35,1,0
46811,750,4,2,1,35,1,0
47186,967.741935483871,4,2,1,35,1,0
48153,833.333333333333,4,2,1,35,1,0
49403,1029.15951972556,4,2,1,35,1,0
49917,857.142857142857,4,2,1,35,1,0
52059,937.5,4,2,1,35,1,0
52527,882.352941176471,4,2,1,35,1,0
53409,882.352941176471,4,2,1,35,1,0
55173,909.090909090909,4,2,1,35,1,0
56991,869.565217391304,4,2,1,35,1,0
60469,882.352941176471,4,2,1,35,1,0
62233,895.522388059701,4,2,1,35,1,0
63576,882.352941176471,4,2,1,35,1,0
64017,857.142857142857,4,2,1,35,1,0
64874,895.522388059701,4,2,1,35,1,0
66665,882.352941176471,4,2,1,35,1,0
67547,882.352941176471,4,2,1,35,1,0
69311,937.5,4,2,1,35,1,0
70248,810.810810810811,4,2,1,35,1,0
71058,882.352941176471,4,2,1,35,1,0
109871,882.352941176471,4,2,1,40,1,0
138106,-100,4,2,1,50,0,0
166340,-100,4,2,1,55,0,0
193253,-100,4,2,1,60,0,0
194576,-100,4,2,1,65,0,1
219282,-100,4,2,1,65,0,0
226342,1090.90909090909,4,2,1,65,1,0
228523,1558.44155844156,4,2,1,65,1,0
231639,1621.62162162162,4,2,1,65,1,0

[Colours]
Combo1 : 255,187,255
Combo2 : 179,102,102
Combo3 : 255,185,115
Combo4 : 238,0,119

[HitObjects]
271,308,481,5,2,0:0:0:0:
406,27,3118,2,0,P|344:16|284:32,1,120,2|2,0:0|0:0,0:0:0:0:
260,65,3975,2,0,L|265:188,1,120,2|2,0:0|0:0,0:0:0:0:
180,333,6661,6,0,P|114:326|58:344,1,120,2|2,0:0|0:0,0:0:0:0:
22,365,7530,2,0,L|22:240,1,120,2|2,0:0|0:0,0:0:0:0:
436,120,10177,2,0,B|454:176|454:176|447:216|447:216|449:282,1,160,2|2,0:0|0:0,0:0:0:0:
448,332,14534,6,0,P|368:347|303:284,1,160,0|0,3:0|0:0,0:0:0:0:
115,64,16792,2,0,P|71:57|26:63,2,80,0|2|0,0:0|0:0|0:0,0:0:0:0:
150,151,18111,2,0,P|204:99|191:4,1,160,2|0,0:0|0:0,0:0:0:0:
152,274,20297,2,0,L|241:265,1,80,0|2,0:0|0:0,0:0:0:0:
384,183,21650,6,0,P|429:241|402:339,1,160,0|0,3:0|0:0,0:0:0:0:
109,274,23895,2,0,L|-6:292,2,80,0|2|0,0:0|0:0|0:0,0:0:0:0:
173,194,25178,2,0,P|246:164|331:191,2,160,2|2|2,0:0|0:0|0:0,0:0:0:0:
378,338,28736,6,0,B|439:334|439:334|449:233,1,160,0|0,3:0|0:0,0:0:0:0:
452,139,30030,1,2,0:0:0:0:
108,261,32274,2,0,L|96:343,1,80,2|0,0:0|0:0,0:0:0:0:
192,331,33131,2,0,L|203:251,1,80,0|2,0:0|0:0,0:0:0:0:
377,50,35675,6,0,B|414:79|430:129|400:182|400:182|453:158|512:181,1,240,0|2,3:0|0:0,0:0:0:0:
228,323,38427,1,2,0:0:0:0:
164,259,38855,1,0,0:0:0:0:
119,174,39309,2,0,P|114:125|128:85,1,80,2|0,0:0|0:0,0:0:0:0:
201,42,40192,1,2,0:0:0:0:
277,95,40621,2,0,P|312:89|367:92,2,80,2|2|0,0:0|0:0|0:0,0:0:0:0:
424,286,42723,6,0,L|247:297,1,160,0|0,3:0|0:0,0:0:0:0:
168,285,44151,1,2,0:0:0:0:
39,129,46294,6,0,P|39:82|64:21,1,80,2|0,0:0|0:0,0:0:0:0:
130,99,47186,2,0,P|172:103|229:94,1,80,0|2,0:0|0:0,0:0:0:0:
442,268,48986,2,0,P|397:264|348:274,1,80,0|0,0:0|0:0,0:0:0:0:
311,350,49917,6,0,L|132:353,1,160,0|0,3:0|0:0,0:0:0:0:
72,297,51202,1,0,0:0:0:0:
113,210,51631,2,0,P|154:200|221:221,1,80,2|0,0:0|0:0,0:0:0:0:
283,247,52527,2,0,P|320:249|364:241,1,80,2|0,0:0|0:0,0:0:0:0:
455,221,53409,2,0,L|461:300,2,80,2|0|2,0:0|0:0|0:0,0:0:0:0:
459,125,54732,1,0,0:0:0:0:
475,30,55173,2,0,B|416:29|384:69|384:69|308:39,1,160,2|0,0:0|0:0,0:0:0:0:
141,17,56991,6,0,P|161:101|105:188,1,160,0|0,3:0|0:0,0:0:0:0:
48,212,58295,1,2,0:0:0:0:
298,354,59599,2,0,L|388:339,1,80,2|0,0:0|0:0,0:0:0:0:
442,270,60469,2,0,P|465:303|473:358,2,80,2|0|0,0:0|0:0|0:0,0:0:0:0:
374,201,61792,1,2,0:0:0:0:
107,310,63128,1,2,0:0:0:0:
57,124,64017,6,0,L|167:114,1,80,0|0,3:0|0:0,0:0:0:0:
232,110,64874,1,0,0:0:0:0:
326,126,65321,2,0,P|332:171|311:218,2,80,2|0|0,0:0|0:0|0:0,0:0:0:0:
293,35,66665,2,0,L|404:33,1,80,2|2,0:0|0:0,0:0:0:0:
405,124,67547,2,0,L|325:125,1,80,2|0,0:0|0:0,0:0:0:0:
233,154,68429,2,0,P|215:235|284:310,1,160,2|2,0:0|0:0,0:0:0:0:
474,325,70248,2,0,L|475:227,1,80,2|0,0:0|0:0,0:0:0:0:
477,156,71058,6,0,P|486:117|476:76,1,80,0|0,3:0|0:0,0:0:0:0:
387,44,71940,2,0,P|379:82|390:120,1,80,8|0,0:0|0:0,0:0:0:0:
310,175,72822,2,0,L|200:175,1,80,2|0,0:0|0:0,0:0:0:0:
186,89,73705,2,0,L|76:89,1,80,8|0,0:0|0:0,0:0:0:0:
49,166,74587,6,0,P|21:232|77:328,1,160,2|8,0:0|0:0,0:0:0:0:
239,351,76352,2,0,L|322:351,1,80,2|0,0:0|0:0,0:0:0:0:
413,335,77234,2,0,P|428:287|421:232,1,80,8|0,0:0|0:0,0:0:0:0:
364,184,78116,6,0,B|307:159|307:159|283:181|240:200|192:186,1,160,2|8,0:0|0:0,0:0:0:0:
140,132,79440,1,0,0:0:0:0:
80,56,79881,2,0,P|116:38|175:41,2,80,2|0|8,0:0|0:0|0:0,0:0:0:0:
31,139,81205,1,0,0:0:0:0:
32,234,81646,2,0,B|34:316|34:316|135:323,1,160,2|8,0:0|0:0,0:0:0:0:
200,285,82969,1,0,0:0:0:0:
287,323,83410,2,0,P|361:347|448:305,1,160,2|8,0:0|0:0,0:0:0:0:
468,228,84734,1,0,0:0:0:0:
421,144,85175,6,0,L|338:143,1,80,2|0,0:0|0:0,0:0:0:0:
258,94,86058,2,0,P|247:165|305:231,2,160,8|2|8,0:0|0:0|0:0,0:0:0:0:
310,13,88263,1,0,0:0:0:0:
214,7,88705,2,0,L|22:19,1,160,2|8,0:0|0:0,0:0:0:0:
60,209,90469,2,0,P|102:218|150:205,1,80,2|0,0:0|0:0,0:0:0:0:
220,162,91352,1,8,0:0:0:0:
315,149,91793,1,0,0:0:0:0:
402,188,92234,6,0,P|432:264|387:346,1,160,2|8,0:0|0:0,0:0:0:0:
337,261,93558,1,0,0:0:0:0:
247,225,93999,2,0,B|134:214|134:214|103:270,1,160,2|8,0:0|0:0,0:0:0:0:
127,349,95322,1,0,0:0:0:0:
35,320,95763,2,0,P|13:244|65:166,1,160,2|8,0:0|0:0,0:0:0:0:
141,147,97087,2,0,B|185:184|185:184|232:161|298:155,1,160,2|0,0:0|0:0,0:0:0:0:
371,194,98410,2,0,P|376:140|358:94,1,80,10|0,0:0|0:0,0:0:0:0:
292,58,99293,6,0,P|353:21|446:59,1,160,2|10,0:0|0:0,0:0:0:0:
470,133,100616,1,0,0:0:0:0:
460,228,101058,2,0,L|464:317,1,80,2|2,0:0|0:0,0:0:0:0:
372,339,101940,2,0,L|368:259,1,80,10|2,0:0|0:0,0:0:0:0:
281,217,102822,6,0,P|207:194|128:229,1,160,2|8,0:0|0:0,0:0:0:0:
141,320,104146,2,0,P|215:343|294:308,1,160,2|0,0:0|0:0,0:0:0:0:
280,216,105469,2,0,B|311:146|298:98|298:98|356:98,1,160,10|2,0:0|0:0,0:0:0:0:
424,60,106793,1,0,0:0:0:0:
344,5,107234,2,0,L|233:8,2,80,8|0|10,0:0|0:0|0:0,0:0:0:0:
343,357,109871,6,0,L|172:360,1,160,2|8,0:3|0:0,0:0:0:0:
93,325,111194,1,2,0:0:0:0:
68,232,111635,1,2,0:3:0:0:
116,149,112076,2,0,P|69:138|21:149,2,80,0|8|0,0:0|0:0|0:0,0:0:0:0:
204,187,113400,6,0,L|295:188,1,80,2|0,0:3|0:0,0:0:0:0:
379,176,114282,2,0,P|443:127|443:27,1,160,8|2,0:0|0:3,0:0:0:0:
360,80,115606,1,0,0:0:0:0:
266,56,116047,2,0,L|176:53,1,80,8|0,0:0|0:0,0:0:0:0:
90,59,116929,6,0,P|118:133|83:205,1,160,2|8,0:3|0:0,0:0:0:0:
13,265,118253,1,0,0:0:0:0:
76,337,118694,2,0,P|118:344|182:328,1,80,2|0,0:3|0:0,0:0:0:0:
230,279,119576,2,0,P|269:274|308:281,1,80,8|0,0:0|0:0,0:0:0:0:
371,353,120459,6,0,P|405:279|349:196,1,160,2|8,0:3|0:0,0:0:0:0:
283,181,121782,1,0,0:0:0:0:
187,181,122223,2,0,L|94:187,1,80,2|0,0:3|0:0,0:0:0:0:
74,95,123106,2,0,L|153:89,1,80,8|0,0:0|0:0,0:0:0:0:
244,57,123988,6,0,P|319:28|409:66,1,160,2|8,0:3|0:0,0:0:0:0:
444,131,125312,1,2,0:0:0:0:
380,202,125753,2,0,P|375:239|399:296,2,80,2|0|8,0:3|0:0|0:0,0:0:0:0:
470,232,127076,1,0,0:0:0:0:
473,328,127518,6,0,P|411:372|313:344,1,160,2|8,0:3|0:0,0:0:0:0:
266,287,128841,1,0,0:0:0:0:
182,334,129282,2,0,L|73:342,1,80,2|0,0:3|0:0,0:0:0:0:
15,299,130165,1,8,0:0:0:0:
9,203,130606,1,0,0:0:0:0:
52,117,131047,6,0,P|114:147|204:118,1,160,2|8,0:3|0:0,0:0:0:0:
273,63,132371,2,0,P|236:35|186:30,2,80,0|2|0,0:0|0:3|0:0,0:0:0:0:
315,149,133694,2,0,L|423:149,1,80,8|0,0:0|0:0,0:0:0:0:
453,225,134576,2,0,P|491:158|445:67,2,160,2|8|2,0:3|0:0|0:3,0:0:0:0:
370,275,136782,1,0,0:0:0:0:
280,244,137223,2,0,L|191:245,1,80,8|8,0:0|0:3,0:0:0:0:
112,205,138106,6,0,P|106:277|23:334,1,160,4|8,0:0|0:0,0:0:0:0:
20,236,139429,1,0,0:0:0:0:
41,142,139871,2,0,P|80:114|146:122,1,80,0|2,0:3|0:3,0:0:0:0:
205,127,140753,2,0,P|248:128|296:116,1,80,8|0,0:0|0:0,0:0:0:0:
344,46,141635,6,0,P|377:117|336:200,1,160,2|8,0:3|0:0,0:0:0:0:
185,290,143400,1,2,0:3:0:0:
222,378,143841,2,0,L|323:374,2,80,2|8|0,0:3|0:0|0:0,0:0:0:0:
126,363,145165,6,0,P|93:300|131:214,1,160,2|8,0:3|0:0,0:0:0:0:
280,111,146929,1,2,0:3:0:0:
371,140,147371,1,2,0:3:0:0:
454,187,147812,2,0,P|465:142|457:97,1,80,8|0,0:0|0:0,0:0:0:0:
401,33,148694,6,0,L|295:8,1,80,2|0,0:3|0:0,0:0:0:0:
227,12,149576,2,0,L|127:28,1,80,8|0,0:0|0:0,0:0:0:0:
56,52,150459,2,0,P|50:90|67:143,1,80,2|2,0:3|0:3,0:0:0:0:
144,174,151341,1,8,0:0:0:0:
237,195,151782,1,0,0:0:0:0:
332,193,152223,6,0,P|356:260|309:359,1,160,2|8,0:3|0:0,0:0:0:0:
136,353,153988,2,0,L|36:349,1,80,2|2,0:3|0:3,0:0:0:0:
52,253,154871,2,0,L|131:256,1,80,8|0,0:0|0:0,0:0:0:0:
220,294,155753,6,0,B|282:359|282:359|378:348,2,160,4|8|2,0:0|0:0|0:3,0:0:0:0:
186,203,157959,1,2,0:3:0:0:
209,109,158400,2,0,P|257:99|305:108,1,80,8|0,0:0|0:0,0:0:0:0:
356,169,159282,6,0,P|382:108|319:10,1,160,2|8,0:3|0:0,0:0:0:0:
251,9,160606,1,0,0:0:0:0:
157,29,161047,2,0,L|45:26,1,80,2|2,0:3|0:3,0:0:0:0:
45,117,161929,2,0,L|124:119,1,80,8|0,0:0|0:0,0:0:0:0:
199,179,162812,6,0,P|205:218|193:277,1,80,4|0,0:0|0:0,0:0:0:0:
148,338,163694,2,0,L|64:344,2,80,8|0|2,0:0|0:0|0:3,0:0:0:0:
244,336,165018,1,8,0:0:0:0:
331,297,165459,2,0,P|366:291|418:299,1,80,0|8,0:0|0:3,0:0:0:0:
482,358,166341,6,0,P|501:278|434:204,1,160,4|8,0:0|0:0,0:0:0:0:
370,181,167665,1,0,0:0:0:0:
296,119,168106,2,0,L|299:7,1,80,2|2,0:3|0:3,0:0:0:0:
384,3,168988,2,0,L|381:82,1,80,8|0,0:0|0:0,0:0:0:0:
370,181,169871,6,0,P|301:215|208:165,1,160,2|8,0:3|0:0,0:0:0:0:
63,87,171635,1,2,0:3:0:0:
28,176,172076,2,0,L|26:271,1,80,2|8,0:3|0:0,0:0:0:0:
62,345,172959,1,0,0:0:0:0:
129,277,173400,6,0,P|205:253|292:291,1,160,4|8,0:0|0:0,0:0:0:0:
449,365,175165,2,0,P|490:318|496:280,2,80,2|2|8,0:3|0:3|0:0,0:0:0:0:
401,281,176488,1,0,0:0:0:0:
440,193,176929,6,0,L|436:23,1,160,2|8,0:3|0:0,0:0:0:0:
341,15,178253,1,0,0:0:0:0:
269,79,178694,2,0,P|228:82|173:74,1,80,2|2,0:3|0:3,0:0:0:0:
99,43,179576,1,8,0:0:0:0:
11,3,180018,1,0,0:0:0:0:
21,98,180459,6,0,P|53:174|-1:259,1,160,4|8,0:0|0:0,0:0:0:0:
165,370,182223,2,0,L|271:363,1,80,2|2,0:3|0:3,0:0:0:0:
317,301,183106,2,0,L|423:294,1,80,8|0,0:0|0:0,0:0:0:0:
439,209,183988,6,0,P|489:268|478:345,2,160,4|8|2,0:0|0:0|0:3,0:0:0:0:
349,173,186194,1,2,0:3:0:0:
253,177,186635,2,0,L|158:178,1,80,8|0,0:0|0:0,0:0:0:0:
133,90,187518,6,0,L|319:89,1,160,2|8,0:3|0:0,0:0:0:0:
381,52,188841,1,0,0:0:0:0:
470,16,189282,2,0,P|475:62|456:111,1,80,2|2,0:3|0:3,0:0:0:0:
401,164,190165,2,0,P|391:202|396:241,1,80,8|0,0:0|0:0,0:0:0:0:
465,309,191047,6,0,P|393:336|308:276,1,160,2|8,0:3|0:0,0:0:0:0:
261,227,192371,1,0,0:0:0:0:
174,185,192812,2,0,L|70:182,1,80,4|8,0:0|0:0,0:0:0:0:
41,102,193694,2,0,P|39:52|54:14,1,80,8|8,0:0|0:3,0:0:0:0:
132,70,194576,6,0,P|207:93|289:60,1,160,4|8,0:0|0:0,0:0:0:0:
353,3,195900,1,0,0:0:0:0:
448,12,196341,2,0,L|455:112,1,80,2|2,0:3|0:3,0:0:0:0:
447,187,197223,1,8,0:0:0:0:
352,202,197665,1,0,0:0:0:0:
263,164,198106,6,0,B|217:162|217:162|145:133|145:133|82:148,2,160,2|8|2,0:3|0:0|0:3,0:0:0:0:
340,107,200312,1,2,0:3:0:0:
352,202,200753,2,0,P|359:261|384:291,1,80,8|0,0:0|0:0,0:0:0:0:
449,329,201635,6,0,P|388:366|286:329,1,160,2|8,0:3|0:0,0:0:0:0:
129,269,203400,2,0,L|33:271,1,80,2|2,0:3|0:3,0:0:0:0:
80,361,204282,2,0,L|159:359,1,80,8|0,0:0|0:0,0:0:0:0:
235,299,205165,5,2,0:3:0:0:
247,203,205606,1,0,0:0:0:0:
213,113,206047,2,0,P|256:108|310:126,1,80,8|0,0:0|0:0,0:0:0:0:
379,153,206929,1,2,0:3:0:0:
452,214,207371,2,0,L|456:305,2,80,2|8|0,0:3|0:0|0:0,0:0:0:0:
464,118,208694,6,0,P|401:64|312:88,1,160,4|8,0:0|0:0,0:0:0:0:
191,208,210459,2,0,L|96:215,1,80,2|2,0:3|0:3,0:0:0:0:
92,308,211341,2,0,L|171:302,1,80,8|8,0:0|0:0,0:0:0:0:
263,274,212223,6,0,P|288:206|231:121,2,160,4|8|4,0:0|0:0|0:0,0:0:0:0:
191,208,214429,1,0,0:0:0:0:
111,154,214871,2,0,L|114:50,1,80,8|8,0:0|0:0,0:0:0:0:
197,27,215753,6,0,P|256:14|379:35,1,160,4|8,0:0|0:0,0:0:0:0:
437,73,217076,1,0,0:0:0:0:
487,155,217518,2,0,P|506:197|504:254,2,80,2|2|8,0:3|0:3|0:0,0:0:0:0:
412,215,218841,1,0,0:0:0:0:
332,268,219282,6,0,B|273:282|273:282|228:250|166:261,1,160,4|8,0:0|0:0,0:0:0:0:
99,314,220606,1,0,0:0:0:0:
10,277,221047,2,0,P|3:319|16:365,2,80,2|2|8,0:3|0:3|0:0,0:0:0:0:
50,189,222371,1,0,0:0:0:0:
109,113,222812,6,0,L|193:108,1,80,2|0,0:3|0:0,0:0:0:0:
278,142,223694,2,0,L|362:137,1,80,8|0,0:0|0:0,0:0:0:0:
451,160,224576,1,2,0:3:0:0:
489,248,225018,1,2,0:3:0:0:
437,328,225459,2,0,P|384:335|337:325,1,80,8|0,0:0|0:0,0:0:0:0:
267,298,226342,6,0,B|295:247|269:170|216:182|216:182|190:233|146:252|98:254|64:206,1,320,4|4,0:0|0:0,0:0:0:0:
256,192,231639,5,4,0:0:0:0:
256,192,232044,12,2,236503,0:0:0:0:
